osu file format v14

[General]
AudioFilename: Brave Shine_202639911_soundcloud.mp3
AudioLeadIn: 0
PreviewTime: 65291
Countdown: 0
SampleSet: Normal
StackLeniency: 0.7
Mode: 0
LetterboxInBreaks: 0
WidescreenStoryboard: 0

[Editor]
Bookmarks: 5634,27577,32549,38549,43520,49520,60491,65977,97520
DistanceSpacing: 1
BeatDivisor: 4
GridSize: 32
TimelineZoom: 1.24

[Metadata]
Title:Brave Shine
TitleUnicode:Brave Shine
Artist:tomatomerde
ArtistUnicode:tomatomerde
Creator:Milan-
Version:Normal
Source:Fate/stay night [Unlimited Blade Works]
Tags:dakedekaane kocari yauxo エメ 2nd second Season opening フェイト/ステイナイト Aimer drumstep dubstep
BeatmapID:708550
BeatmapSetID:308945

[Difficulty]
HPDrainRate:4.5
CircleSize:3.5
OverallDifficulty:4
ApproachRate:5
SliderMultiplier:1.1
SliderTickRate:1

[Events]
//Background and Video events
0,0,"Paradise.L.O.S.T.(Pffk).full.1844893.jpg",0,0
//Break Periods
2,63605,64263
//Storyboard Layer 0 (Background)
//Storyboard Layer 1 (Fail)
//Storyboard Layer 2 (Pass)
//Storyboard Layer 3 (Foreground)
//Storyboard Sound Samples

[TimingPoints]
149,342.857142857143,4,2,1,30,1,0
5634,-100,4,2,1,65,0,0
27577,-100,4,2,1,52,0,0
49520,-100,4,2,1,45,0,0
60491,-100,4,2,1,52,0,0
63234,-100,4,2,1,57,0,0
65977,-100,4,1,1,70,0,1
97520,-100,4,2,1,70,0,0
97863,-100,4,2,1,20,0,0
98377,-100,4,2,1,70,0,0

[Colours]
Combo1 : 111,81,151
Combo2 : 236,40,74
Combo3 : 205,174,67
Combo4 : 112,154,114

[HitObjects]
48,72,149,6,0,L|52:126,1,55,0|0,3:0|3:0,0:0:0:0:
116,216,663,1,0,3:0:0:0:
116,216,834,2,0,L|244:211,1,110,8|0,0:0|3:0,0:0:0:0:
263,252,1349,2,0,L|391:247,1,110,0|8,3:0|0:0,0:0:0:0:
444,164,2034,1,0,3:0:0:0:
489,195,2206,2,0,P|502:247|491:301,1,110,8|0,0:0|0:0,0:0:0:0:
396,355,2891,6,0,L|331:359,1,55,0|0,3:0|3:0,0:0:0:0:
233,332,3406,1,0,3:0:0:0:
210,281,3577,2,0,P|202:227|221:175,1,110,8|0,0:0|0:0,0:0:0:0:
331,177,4263,2,0,B|325:110|270:82|270:82|254:60|254:60|217:67|179:43,1,220,12|0,0:0|0:0,0:0:0:0:
34,207,5634,6,0,L|205:206,1,165,4|0,0:0|3:0,0:0:0:0:
231,162,6320,2,0,P|286:167|328:200,1,110,8|0,0:0|0:0,0:0:0:0:
351,250,6834,1,0,3:0:0:0:
272,326,7177,1,8,0:0:0:0:
272,326,7349,2,0,L|157:322,1,110,0|8,3:0|0:0,0:0:0:0:
54,301,8034,1,0,0:0:0:0:
127,218,8377,6,0,P|115:132|50:89,1,165,4|0,0:0|3:0,0:0:0:0:
0,89,9063,2,0,P|40:52|69:5,1,110,8|0,0:0|0:0,0:0:0:0:
120,24,9577,2,0,P|174:13|228:22,1,110,0|8,3:0|0:0,0:0:0:0:
269,59,10091,1,0,3:0:0:0:
258,168,10434,1,8,0:0:0:0:
341,239,10777,1,0,0:0:0:0:
451,238,11120,6,0,P|420:312|348:349,1,165,4|0,0:0|3:0,0:0:0:0:
294,335,11806,2,0,L|176:336,1,110,8|0,0:0|0:0,0:0:0:0:
132,355,12320,1,0,3:0:0:0:
86,254,12663,1,8,0:0:0:0:
86,254,12834,2,0,L|88:129,1,110,0|8,3:0|0:0,0:0:0:0:
97,34,13520,1,0,0:0:0:0:
184,98,13863,6,0,P|265:113|345:95,1,165,4|0,0:0|3:0,0:0:0:0:
380,52,14549,1,8,0:0:0:0:
478,101,14891,2,0,L|475:163,1,55,0|0,0:0|3:0,0:0:0:0:
458,264,15406,2,0,L|445:328,1,55,8|0,0:0|3:0,0:0:0:0:
338,319,15920,2,0,L|311:229,2,82.5,8|8|8,0:0|0:0|0:0,0:0:0:0:
327,373,16606,6,0,P|248:349|167:357,1,165,4|0,0:0|3:0,0:0:0:0:
112,365,17291,2,0,P|114:311|91:262,1,110,8|0,0:0|0:0,0:0:0:0:
49,226,17806,1,0,3:0:0:0:
118,140,18149,1,8,0:0:0:0:
118,140,18320,2,0,L|235:117,1,110,0|8,3:0|0:0,0:0:0:0:
333,95,19006,1,0,0:0:0:0:
417,165,19349,6,0,L|427:329,1,165,4|0,0:0|3:0,0:0:0:0:
446,380,20034,2,0,P|398:353|344:345,1,110,8|0,0:0|0:0,0:0:0:0:
291,361,20549,2,0,P|236:353|189:326,1,110,0|8,3:0|0:0,0:0:0:0:
154,283,21063,1,0,3:0:0:0:
146,173,21406,1,8,0:0:0:0:
238,112,21749,1,0,0:0:0:0:
340,151,22091,6,0,P|433:162|467:97,1,165,4|0,0:0|3:0,0:0:0:0:
466,54,22777,2,0,L|349:22,1,110,8|0,0:0|0:0,0:0:0:0:
304,23,23291,1,0,3:0:0:0:
238,112,23634,1,8,0:0:0:0:
238,112,23806,2,0,P|236:166|263:213,1,110,0|8,3:0|0:0,0:0:0:0:
366,252,24491,1,0,0:0:0:0:
313,347,24834,6,0,P|236:326|139:328,1,165,4|0,0:0|3:0,0:0:0:0:
103,353,25520,2,0,B|68:367|68:367|20:374,2,82.5,8|0|0,0:0|3:0|3:0,0:0:0:0:
103,297,26206,2,0,B|83:255|83:255|70:208,2,82.5,0|0|0,3:0|3:0|3:0,0:0:0:0:
151,326,26891,1,8,0:0:0:0:
204,229,27234,1,8,0:3:0:0:
308,261,27577,6,0,P|391:254|468:228,1,165,4|0,0:0|3:0,0:0:0:0:
497,180,28263,2,0,L|474:60,1,110,8|0,0:0|0:0,0:0:0:0:
460,19,28777,1,0,3:0:0:0:
370,83,29120,1,8,0:0:0:0:
370,83,29291,2,0,L|250:84,1,110,0|8,3:0|0:0,0:0:0:0:
156,46,29977,1,0,0:0:0:0:
94,136,30320,6,0,L|97:311,1,165,0|0,3:0|3:0,0:0:0:0:
82,354,31006,2,0,P|144:338|203:345,1,110,8|0,0:0|0:0,0:0:0:0:
239,363,31520,1,0,3:0:0:0:
305,275,31863,2,0,L|310:205,1,55,8|0,0:0|3:0,0:0:0:0:
402,162,32377,2,0,L|405:216,1,55,8|8,0:0|3:2,0:0:0:0:
389,325,32891,1,8,0:0:0:0:
389,325,33063,6,0,L|210:324,1,165,0|0,3:0|3:0,0:0:0:0:
171,341,33749,2,0,P|126:310|72:305,1,110,8|0,0:0|0:0,0:0:0:0:
20,324,34263,1,0,3:0:0:0:
61,221,34606,1,8,0:0:0:0:
61,221,34777,2,0,L|65:90,1,110,0|8,3:0|0:0,0:0:0:0:
153,46,35463,1,0,0:0:0:0:
221,132,35806,6,0,P|302:150|382:133,1,165,0|0,3:0|3:0,0:0:0:0:
426,100,36491,2,0,L|450:215,1,110,8|0,0:0|0:0,0:0:0:0:
460,261,37006,1,8,3:0:0:0:
379,335,37349,1,8,0:0:0:0:
379,335,37520,2,0,L|245:336,1,110,0|8,3:0|0:0,0:0:0:0:
213,333,38034,2,0,L|168:372,2,55,0|8|0,3:0|0:0|3:0,0:0:0:0:
247,290,38549,6,0,P|244:207|214:131,1,165,4|0,0:0|3:0,0:0:0:0:
169,162,39234,2,0,L|57:165,1,110,8|0,0:0|0:0,0:0:0:0:
4,154,39749,1,0,3:0:0:0:
61,59,40091,1,8,0:0:0:0:
61,59,40263,2,0,L|170:56,1,110,0|8,3:0|0:0,0:0:0:0:
281,51,40949,1,0,0:0:0:0:
333,147,41291,6,0,L|336:322,1,165,0|0,3:0|3:0,0:0:0:0:
316,363,41977,2,0,P|263:348|208:351,1,110,8|0,0:0|0:0,0:0:0:0:
157,372,42491,1,0,3:0:0:0:
81,291,42834,2,0,L|86:221,1,55,8|0,0:0|3:0,0:0:0:0:
42,134,43349,2,0,L|95:88,1,55,8|8,0:0|3:2,0:0:0:0:
186,135,43863,1,8,0:0:0:0:
186,135,44034,6,0,L|350:135,1,165,0|0,3:0|3:0,0:0:0:0:
398,107,44720,2,0,P|442:137|468:186,1,110,8|0,0:0|0:0,0:0:0:0:
475,240,45234,1,0,3:0:0:0:
403,324,45577,1,8,0:0:0:0:
403,324,45749,2,0,L|272:320,1,110,0|8,3:0|0:0,0:0:0:0:
239,224,46434,1,0,0:0:0:0:
149,288,46777,6,0,P|130:210|169:139,1,165,0|0,3:0|3:0,0:0:0:0:
217,112,47463,2,0,L|345:106,1,110,8|0,0:0|0:0,0:0:0:0:
381,102,47977,1,0,3:0:0:0:
400,210,48320,1,8,0:0:0:0:
400,210,48491,2,0,L|290:204,1,110,0|8,3:0|0:0,0:0:0:0:
235,196,49006,2,0,L|218:142,2,55,0|8|0,3:0|0:0|3:0,0:0:0:0:
263,243,49520,6,0,P|227:328|145:348,1,165,4|0,0:0|0:0,0:0:0:0:
107,349,50206,1,0,0:0:0:0:
26,274,50549,2,0,L|35:99,1,165,0|0,0:0|0:0,0:0:0:0:
131,58,51406,1,0,0:0:0:0:
202,141,51749,1,0,0:0:0:0:
307,110,52091,1,0,0:0:0:0:
307,110,52263,2,0,L|432:100,2,110,2|0|0,0:0|0:0|0:0,0:0:0:0:
278,216,53291,5,0,0:0:0:0:
183,272,53634,1,2,0:0:0:0:
133,370,53977,2,0,P|79:310|81:229,1,165
183,272,54834,1,0,0:0:0:0:
183,272,55006,2,0,P|237:256|290:270,1,110,2|0,0:0|0:0,0:0:0:0:
349,358,55691,1,0,0:0:0:0:
448,311,56034,5,0,0:0:0:0:
456,201,56377,2,0,B|445:111|445:111|459:78|455:38,1,165,2|0,0:0|0:0,0:0:0:0:
347,58,57234,2,0,L|230:66,1,110
188,92,57749,1,2,0:0:0:0:
160,198,58091,1,0,0:0:0:0:
160,198,58263,2,0,L|277:206,1,110
318,231,58777,2,0,B|368:302|446:292|446:292|496:231,1,220,2|2,0:0|0:0,0:0:0:0:
449,135,59806,1,0,0:0:0:0:
433,82,59977,2,0,L|479:26,2,55,8|8|4,0:0|0:3|0:3,0:0:0:0:
378,93,60491,6,0,L|234:86,1,110,0|0,3:0|3:0,0:0:0:0:
160,61,61177,1,8,0:0:0:0:
91,147,61520,1,0,3:0:0:0:
91,147,61691,2,0,L|84:266,1,110,0|8,3:0|0:0,0:0:0:0:
80,312,62206,1,0,3:0:0:0:
189,298,62549,1,8,0:0:0:0:
280,358,62891,1,0,0:0:0:0:
383,321,63234,6,0,L|453:300,1,55,12|0,0:0|3:0,0:0:0:0:
435,78,65463,6,0,L|383:63,1,55,0|12,3:0|0:0,0:0:0:0:
278,98,65977,6,0,L|145:98,1,110,4|8,0:0|0:0,0:0:0:0:
60,72,66663,2,0,P|58:99|59:126,1,55,0|0,0:0|3:1,0:0:0:0:
95,168,67006,2,0,L|86:349,1,165,8|0,0:0|3:0,0:0:0:0:
127,369,67691,1,8,0:0:0:0:
208,295,68034,2,0,L|231:201,2,55,0|0|8,0:0|3:0|0:0,0:0:0:0:
284,374,68720,6,0,L|411:359,1,110,4|8,3:0|0:0,0:0:0:0:
486,302,69406,2,0,L|483:240,1,55,0|0,0:0|3:0,0:0:0:0:
494,193,69749,2,0,P|501:131|445:39,1,165,8|0,0:0|3:0,0:0:0:0:
406,75,70434,2,0,P|347:80|279:50,1,110,8|0,0:3|0:0,0:0:0:0:
255,30,70949,2,0,P|230:42|207:66,1,55,8|12,0:0|0:0,0:0:0:0:
277,148,71463,6,0,L|280:258,1,110,4|8,0:0|0:0,0:0:0:0:
265,367,72149,2,0,P|240:358|211:354,1,55,0|0,0:0|3:0,0:0:0:0:
158,365,72491,2,0,L|130:178,1,165,8|0,0:0|3:0,0:0:0:0:
122,147,73177,1,8,0:0:0:0:
202,72,73520,2,0,P|179:56|154:44,2,55,0|0|8,0:0|3:0|0:0,0:0:0:0:
303,115,74206,6,0,L|419:89,1,110,4|8,3:0|0:0,0:0:0:0:
501,152,74891,2,0,L|470:273,1,110,0|8,0:0|0:0,0:0:0:0:
389,330,75577,2,0,L|359:388,2,55,8|0|0,0:0|3:0|0:0,0:0:0:0:
397,275,76091,2,0,B|359:228|359:228|314:199,1,110,8|8,0:0|0:0,0:0:0:0:
263,188,76606,1,8,0:0:0:0:
168,130,76949,6,0,L|187:21,1,110,4|8,0:0|0:0,0:0:0:0:
290,59,77634,2,0,P|338:69|362:67,1,55,0|0,0:0|3:0,0:0:0:0:
393,45,77977,2,0,L|426:218,1,165,8|0,0:0|3:0,0:0:0:0:
434,260,78663,1,8,0:0:0:0:
331,219,79006,2,0,L|319:145,2,55,0|0|8,0:0|3:0|0:0,0:0:0:0:
294,322,79691,6,0,P|243:342|189:336,1,110,4|8,3:0|0:0,0:0:0:0:
79,324,80377,2,0,P|78:293|74:257,1,55,0|0,0:0|3:0,0:0:0:0:
36,231,80720,2,0,P|81:188|84:84,1,165,8|0,0:0|3:0,0:0:0:0:
54,45,81406,1,8,0:0:0:0:
164,39,81749,2,0,L|257:30,1,55,0|0,0:0|3:0,0:0:0:0:
273,24,82091,1,8,0:0:0:0:
342,108,82434,6,0,L|354:244,1,110,12|8,0:0|0:0,0:0:0:0:
270,291,83120,2,0,L|260:181,1,110,8|8,0:0|0:0,0:0:0:0:
170,116,83806,2,0,P|186:90|211:58,2,55,8|0|8,0:0|3:0|0:0,0:0:0:0:
77,175,84491,2,0,P|43:217|41:271,1,110,8|8,0:0|0:0,0:0:0:0:
76,375,85177,5,12,0:0:0:0:
139,285,85520,1,8,0:0:0:0:
228,348,85863,1,8,0:0:0:0:
238,238,86206,1,8,0:0:0:0:
329,298,86549,2,0,L|355:368,2,55,8|0|8,0:0|3:0|0:0,0:0:0:0:
369,195,87234,2,0,L|423:176,2,55,8|0|12,0:0|3:0|0:0,0:0:0:0:
313,99,87920,6,0,P|264:78|202:75,1,110,4|8,0:0|0:0,0:0:0:0:
100,100,88606,2,0,P|101:129|99:154,1,55,0|0,0:0|3:0,0:0:0:0:
53,186,88949,2,0,L|100:369,1,165,8|0,0:0|3:0,0:0:0:0:
143,370,89634,1,8,0:0:0:0:
188,269,89977,2,0,L|171:199,2,55,0|0|8,0:0|3:0|0:0,0:0:0:0:
270,342,90663,6,0,P|324:342|378:332,1,110,4|8,3:0|0:0,0:0:0:0:
467,266,91349,2,0,P|462:235|464:204,1,55,0|0,0:0|3:0,0:0:0:0:
499,170,91691,2,0,P|443:146|417:39,1,165,8|0,0:0|3:0,0:0:0:0:
433,1,92377,1,8,0:0:0:0:
326,28,92720,2,0,L|233:43,1,55,0|0,0:0|3:0,0:0:0:0:
219,55,93063,1,8,0:0:0:0:
285,142,93406,6,0,L|288:252,1,110,4|8,3:2|0:0,0:0:0:0:
254,356,94091,1,0,3:0:0:0:
152,314,94434,2,0,P|99:306|27:317,2,110,8|0|8,0:0|3:0|0:0,0:0:0:0:
254,356,95463,1,0,3:0:0:0:
354,311,95806,1,8,0:0:0:0:
386,205,96149,6,0,L|387:134,2,55,0|0|8,3:0|3:0|0:0,0:0:0:0:
286,158,96834,2,0,L|236:107,2,55,0|0|8,3:0|3:0|0:0,0:0:0:0:
255,264,97520,2,0,B|187:282|131:218|131:218|95:252|95:252|43:246|20:282,1,275,0|4,3:0|3:0,0:0:0:0:
11,337,98549,1,8,0:0:0:0:
