osu file format v14

[General]
AudioFilename: Brave Shine_202639911_soundcloud.mp3
AudioLeadIn: 0
PreviewTime: 65291
Countdown: 0
SampleSet: Soft
StackLeniency: 0.7
Mode: 0
LetterboxInBreaks: 0
WidescreenStoryboard: 0

[Editor]
Bookmarks: 5634,27577,32549,38549,43520,49520,60491,65977,97520
DistanceSpacing: 1
BeatDivisor: 4
GridSize: 32
TimelineZoom: 2.34

[Metadata]
Title:Brave Shine
TitleUnicode:Brave Shine
Artist:tomatomerde
ArtistUnicode:tomatomerde
Creator:Milan-
Version:Insane
Source:Fate/stay night [Unlimited Blade Works]
Tags:dakedekaane kocari yauxo エメ 2nd second Season opening フェイト/ステイナイト Aimer drumstep dubstep
BeatmapID:690818
BeatmapSetID:308945

[Difficulty]
HPDrainRate:7
CircleSize:4
OverallDifficulty:7.5
ApproachRate:9
SliderMultiplier:1.7
SliderTickRate:1

[Events]
//Background and Video events
0,0,"Paradise.L.O.S.T.(Pffk).full.1844893.jpg",0,0
//Break Periods
//Storyboard Layer 0 (Background)
//Storyboard Layer 1 (Fail)
//Storyboard Layer 2 (Pass)
//Storyboard Layer 3 (Foreground)
//Storyboard Sound Samples

[TimingPoints]
149,342.857142857143,4,2,1,30,1,0
149,-142.857142857143,4,2,1,30,0,0
5634,-111.111111111111,4,2,1,65,0,0
27577,-125,4,2,1,52,0,0
49520,-142.857142857143,4,2,1,45,0,0
60491,-125,4,2,1,52,0,0
63234,-125,4,2,1,57,0,0
65977,-100,4,1,1,70,0,1
97520,-142.857142857143,4,2,1,70,0,0
97863,-142.857142857143,4,2,1,20,0,0
98377,-142.857142857143,4,2,1,70,0,0

[Colours]
Combo1 : 111,81,151
Combo2 : 236,40,74
Combo3 : 205,174,67
Combo4 : 112,154,114

[HitObjects]
166,26,149,5,0,3:0:0:0:
166,26,320,2,0,P|159:76|98:111,1,118.999996368408,0|0,3:0|3:0,0:0:0:0:
233,117,834,2,0,L|316:116,1,59.4999981842042,8|0,0:0|0:0,0:0:0:0:
428,171,1177,1,0,3:0:0:0:
346,189,1349,1,0,3:0:0:0:
314,265,1520,6,0,L|332:349,1,59.4999981842042,0|8,0:0|0:0,0:0:0:0:
398,253,1863,1,0,3:0:0:0:
346,189,2034,1,0,3:0:0:0:
234,276,2206,2,0,P|201:282|170:281,1,59.4999981842042,8|0,0:0|3:0,0:0:0:0:
88,205,2549,1,0,0:0:0:0:
88,205,2720,1,0,3:0:0:0:
92,287,2891,6,0,L|88:368,1,59.4999981842042,0|0,3:0|3:0,0:0:0:0:
176,198,3234,2,0,L|172:117,1,59.4999981842042,0|0,0:0|3:0,0:0:0:0:
112,29,3577,1,8,0:0:0:0:
59,125,3749,1,0,3:0:0:0:
59,125,3920,1,0,0:0:0:0:
133,43,4091,1,0,3:0:0:0:
260,144,4263,6,0,P|294:144|323:138,1,59.4999981842042,12|0,0:0|0:0,0:0:0:0:
397,90,4606,2,0,P|403:56|405:13,1,59.4999981842042
319,140,4949,2,0,P|281:190|371:273,1,208.249993644715
366,273,5634,6,0,P|294:295|221:275,1,152.999995330811,4|0,0:0|0:0,0:0:0:0:
162,214,6149,1,0,3:0:0:0:
79,331,6320,2,0,B|93:256|93:256|76:227|84:180,1,152.999995330811,8|0,0:0|0:0,0:0:0:0:
147,54,6834,6,0,L|149:131,1,76.4999976654053,0|0,3:0|0:0,0:0:0:0:
228,43,7177,1,8,0:0:0:0:
288,101,7349,2,0,P|319:121|357:127,1,76.4999976654053,0|0,3:0|0:0,0:0:0:0:
496,46,7691,1,8,0:0:0:0:
496,46,7863,1,0,0:0:0:0:
450,116,8034,1,0,0:0:0:0:
479,195,8206,1,0,0:0:0:0:
401,43,8377,6,0,P|363:107|387:177,1,152.999995330811,4|0,0:0|0:0,0:0:0:0:
450,116,8891,1,0,3:0:0:0:
321,234,9063,2,0,L|153:236,1,152.999995330811,8|0,0:0|0:0,0:0:0:0:
125,132,9577,1,0,3:0:0:0:
78,202,9749,6,0,P|71:239|80:276,1,76.4999976654053,0|8,0:0|0:0,0:0:0:0:
165,384,10091,2,0,P|171:346|162:309,1,76.4999976654053,0|0,3:0|0:0,0:0:0:0:
78,202,10434,1,8,0:0:0:0:
125,132,10606,1,0,0:0:0:0:
125,132,10777,1,0,0:0:0:0:
217,232,10949,1,8,0:0:0:0:
217,232,11034,1,8,0:0:0:0:
217,232,11120,6,0,P|291:235|343:182,1,152.999995330811,4|0,0:0|0:0,0:0:0:0:
262,158,11634,1,0,3:0:0:0:
136,192,11806,2,0,P|132:266|185:318,1,152.999995330811,8|0,0:0|0:0,0:0:0:0:
292,240,12320,1,0,3:0:0:0:
292,240,12491,6,0,P|254:230|216:231,1,76.4999976654053,0|8,0:0|0:0,0:0:0:0:
304,334,12834,1,0,3:0:0:0:
304,334,13006,1,0,0:0:0:0:
363,182,13177,2,0,P|364:108|308:61,1,152.999995330811,8|0,0:0|0:0,0:0:0:0:
287,142,13691,1,0,0:0:0:0:
372,266,13863,6,0,P|412:269|448:266,1,76.4999976654053,4|0,0:0|0:0,0:0:0:0:
503,202,14206,1,0,0:0:0:0:
411,344,14377,1,0,3:0:0:0:
299,233,14549,2,0,P|228:232|147:235,1,152.999995330811,8|0,0:0|0:0,0:0:0:0:
19,133,15063,1,0,3:0:0:0:
95,168,15234,6,0,P|131:157|163:137,1,76.4999976654053,0|8,0:0|0:0,0:0:0:0:
272,36,15577,2,0,L|355:36,1,76.4999976654053,0|0,3:0|0:0,0:0:0:0:
294,149,15920,2,0,B|260:132|247:108|247:108|222:97|202:71,2,114.749996498108,8|8|8,0:0|0:0|0:0,0:0:0:0:
440,156,16606,6,0,P|371:185|352:257,1,152.999995330811,4|0,0:0|0:0,0:0:0:0:
434,240,17120,1,0,3:0:0:0:
294,149,17291,2,0,L|141:156,1,152.999995330811,8|0,0:0|0:0,0:0:0:0:
60,277,17806,6,0,P|52:313|57:351,1,76.4999976654053,0|0,3:0|0:0,0:0:0:0:
133,316,18149,1,8,0:0:0:0:
79,199,18320,2,0,L|-16:199,1,76.4999976654053,0|0,3:0|0:0,0:0:0:0:
156,235,18663,1,8,0:0:0:0:
156,235,18835,1,0,0:0:0:0:
198,162,19006,1,0,0:0:0:0:
275,194,19178,1,0,0:0:0:0:
336,54,19349,6,0,P|403:84|422:155,1,152.999995330811,4|0,0:0|0:0,0:0:0:0:
340,139,19863,1,0,3:0:0:0:
262,12,20034,2,0,L|108:18,1,152.999995330811,8|0,0:0|0:0,0:0:0:0:
11,152,20549,1,0,3:0:0:0:
75,98,20720,6,0,P|113:96|151:101,1,76.4999976654053,0|8,0:0|0:0,0:0:0:0:
201,203,21063,2,0,P|205:241|214:278,1,76.4999976654053,0|0,3:0|0:0,0:0:0:0:
235,126,21406,1,8,0:0:0:0:
151,101,21578,1,0,0:0:0:0:
151,101,21749,1,0,0:0:0:0:
142,264,21920,1,8,0:0:0:0:
142,264,22006,1,8,0:0:0:0:
141,265,22091,6,0,P|212:288|276:249,1,152.999995330811,4|0,0:0|0:0,0:0:0:0:
201,203,22606,1,0,3:0:0:0:
333,321,22777,2,0,P|366:254|339:186,1,152.999995330811,8|0,0:0|0:0,0:0:0:0:
243,99,23291,1,0,3:0:0:0:
243,99,23463,6,0,P|244:61|263:28,1,76.4999976654053,0|8,0:0|0:0,0:0:0:0:
330,106,23806,1,0,3:0:0:0:
330,106,23978,1,0,0:0:0:0:
217,188,24149,2,0,P|144:203|74:175,1,152.999995330811,8|0,0:0|0:0,0:0:0:0:
16,114,24663,1,0,0:0:0:0:
49,253,24835,6,0,L|56:329,1,76.4999976654053,4|0,0:0|0:0,0:0:0:0:
117,185,25178,1,0,0:0:0:0:
34,248,25349,1,0,3:0:0:0:
45,122,25520,2,0,P|72:72|125:56,1,114.749996498108,8|0,0:0|3:0,0:0:0:0:
151,64,25863,2,0,L|245:56,1,76.4999976654053,0|0,0:0|3:0,0:0:0:0:
330,117,26206,6,0,P|366:102|416:89,1,76.4999976654053,0|8,3:0|0:0,0:0:0:0:
422,74,26463,2,0,P|396:124|405:179,1,114.749996498108,0|0,3:0|3:0,0:0:0:0:
503,45,26892,5,8,0:0:0:0:
422,74,27063,1,0,3:0:0:0:
270,14,27234,1,8,0:3:0:0:
353,1,27406,1,4,0:3:0:0:
241,108,27577,6,0,L|106:101,1,136,4|0,0:0|0:0,0:0:0:0:
31,59,28091,1,0,3:0:0:0:
36,177,28263,2,0,P|50:252|58:315,1,136,8|0,0:0|0:0,0:0:0:0:
140,232,28777,6,0,P|153:178|169:153,1,68,0|0,3:0|0:0,0:0:0:0:
223,221,29120,1,8,0:0:0:0:
299,300,29291,2,0,L|459:285,1,136,0|8,3:0|0:0,0:0:0:0:
498,175,29806,1,0,0:0:0:0:
420,202,29977,1,0,0:0:0:0:
338,199,30149,1,8,0:0:0:0:
338,199,30234,1,8,0:0:0:0:
338,199,30320,6,0,L|241:189,2,68,0|0|0,3:0|0:0|0:0,0:0:0:0:
271,87,30834,1,0,3:0:0:0:
192,182,31006,2,0,L|215:330,1,136,8|0,0:0|0:0,0:0:0:0:
110,375,31520,6,0,P|126:345|134:312,1,68,0|0,3:0|0:0,0:0:0:0:
113,233,31863,1,8,0:0:0:0:
0,279,32034,2,0,P|24:302|55:315,1,68,0|0,3:0|0:0,0:0:0:0:
113,233,32377,1,8,0:0:0:0:
211,352,32549,2,0,L|352:330,1,136,8|8,3:2|0:0,0:0:0:0:
361,316,32977,1,8,0:0:0:0:
376,300,33063,6,0,P|377:224|388:148,1,136,0|0,3:0|0:0,0:0:0:0:
428,95,33577,1,0,3:0:0:0:
299,152,33749,2,0,P|261:150|215:141,2,68,8|0|0,0:0|0:0|0:0,0:0:0:0:
254,54,34263,6,0,P|216:55|170:65,1,68,0|0,3:0|0:0,0:0:0:0:
135,125,34606,1,8,0:0:0:0:
299,151,34777,2,0,P|344:102|361:37,1,136,0|8,3:0|0:0,0:0:0:0:
435,146,35291,1,0,0:0:0:0:
404,221,35463,1,0,0:0:0:0:
454,297,35634,1,8,0:0:0:0:
454,297,35720,1,8,0:0:0:0:
454,297,35806,6,0,L|445:387,1,68,0|0,3:0|0:0,0:0:0:0:
404,221,36149,1,0,0:0:0:0:
350,282,36320,1,0,3:0:0:0:
244,220,36491,2,0,P|210:212|176:212,1,68,8|0,0:0|0:0,0:0:0:0:
97,234,36834,1,0,0:0:0:0:
174,350,37006,6,0,P|189:319|198:287,1,68,8|0,3:0|0:0,0:0:0:0:
196,131,37349,1,8,0:0:0:0:
125,171,37520,2,0,P|145:197|176:212,1,68,0|0,3:0|0:0,0:0:0:0:
205,127,37863,1,8,0:0:0:0:
44,166,38034,1,0,3:0:0:0:
215,122,38206,1,8,0:0:0:0:
85,78,38377,1,0,3:0:0:0:
194,225,38549,6,0,L|348:216,1,136,4|0,0:0|0:0,0:0:0:0:
405,186,39063,1,0,3:0:0:0:
319,296,39234,2,0,L|244:301,2,68,8|0|0,0:0|0:0|0:0,0:0:0:0:
193,225,39749,6,0,P|170:248|155:279,1,68,0|0,3:0|0:0,0:0:0:0:
189,353,40091,1,8,0:0:0:0:
276,221,40263,2,0,P|245:163|182:142,1,136,0|8,3:0|0:0,0:0:0:0:
56,187,40777,1,0,0:0:0:0:
106,122,40949,1,0,0:0:0:0:
88,42,41120,1,8,0:0:0:0:
88,42,41206,1,8,0:0:0:0:
88,42,41291,6,0,P|57:57|34:82,1,68,0|0,3:0|0:0,0:0:0:0:
106,122,41634,1,0,0:0:0:0:
197,15,41806,1,0,3:0:0:0:
191,138,41977,2,0,P|200:212|219:294,1,136,8|0,0:0|0:0,0:0:0:0:
283,140,42491,6,0,P|287:185|294:222,1,68,0|0,3:0|0:0,0:0:0:0:
367,86,42834,1,8,0:0:0:0:
367,167,43006,2,0,P|382:209|398:243,1,68,0|0,3:0|0:0,0:0:0:0:
391,230,43263,1,0,0:0:0:0:
391,230,43349,1,8,0:0:0:0:
469,299,43520,2,0,P|415:339|348:343,1,136,8|8,3:2|0:0,0:0:0:0:
341,356,43949,1,8,0:0:0:0:
336,369,44034,6,0,P|284:349|185:334,1,136,0|0,3:0|0:0,0:0:0:0:
129,371,44549,1,0,3:0:0:0:
198,254,44720,2,0,L|215:97,1,136,8|0,0:0|0:0,0:0:0:0:
291,29,45234,6,0,P|294:70|302:107,1,68,0|0,3:0|0:0,0:0:0:0:
369,54,45577,1,8,0:0:0:0:
209,37,45749,2,0,L|56:44,1,136,0|8,3:0|0:0,0:0:0:0:
5,163,46263,1,0,0:0:0:0:
75,121,46434,1,0,0:0:0:0:
158,158,46606,1,8,0:0:0:0:
158,158,46691,1,8,0:0:0:0:
158,158,46777,6,0,P|193:167|247:161,1,68,0|0,3:0|0:0,0:0:0:0:
325,108,47120,1,0,0:0:0:0:
295,213,47291,1,0,3:0:0:0:
247,76,47463,2,0,L|255:-13,2,68,8|0|0,0:0|0:0|0:0,0:0:0:0:
393,101,47977,6,0,P|343:108|318:109,1,68,0|0,3:0|0:0,0:0:0:0:
443,15,48320,1,8,0:0:0:0:
478,91,48491,2,0,P|485:124|486:173,1,68,0|0,3:0|0:0,0:0:0:0:
378,277,48834,1,8,0:0:0:0:
405,160,49006,1,0,3:0:0:0:
463,299,49177,1,8,0:0:0:0:
382,147,49349,1,0,3:0:0:0:
287,288,49520,6,0,P|259:304|225:315,1,59.4999981842042,4|0,0:0|0:0,0:0:0:0:
180,248,49863,2,0,P|178:215|172:171,1,59.4999981842042
79,229,50206,2,0,P|55:199|43:169,1,59.4999981842042
43,38,50549,1,0,0:0:0:0:
88,107,50720,1,0,0:0:0:0:
204,87,50891,6,0,P|237:85|284:84,1,59.4999981842042,2|0,0:0|0:0,0:0:0:0:
299,8,51234,2,0,P|328:22|369:45,1,59.4999981842042
453,117,51577,2,0,P|428:131|408:153,1,59.4999981842042
394,268,51920,1,0,0:0:0:0:
329,215,52091,1,0,0:0:0:0:
329,215,52177,1,0,0:0:0:0:
329,215,52263,6,0,P|292:215|259:209,1,59.4999981842042,2|0,0:0|0:0,0:0:0:0:
212,272,52606,2,0,P|179:253|154:231,1,59.4999981842042
89,123,52949,2,0,P|84:156|72:190,1,59.4999981842042
10,80,53291,1,0,0:0:0:0:
83,41,53463,1,0,0:0:0:0:
169,129,53634,6,0,P|206:125|243:117,1,59.4999981842042,2|0,0:0|0:0,0:0:0:0:
295,169,53977,2,0,P|318:140|338:108,1,59.4999981842042
360,0,54320,2,0,P|381:35|403:60,1,59.4999981842042
502,89,54663,1,0,0:0:0:0:
424,117,54834,1,0,0:0:0:0:
301,51,55006,6,0,L|227:49,1,59.4999981842042,2|0,0:0|0:0,0:0:0:0:
128,136,55349,2,0,L|202:134,1,59.4999981842042
66,72,55691,2,0,P|45:109|41:127,1,59.4999981842042
143,55,56034,1,0,0:0:0:0:
128,136,56206,1,0,0:0:0:0:
219,33,56377,6,0,L|301:22,1,59.4999981842042,2|0,0:0|0:0,0:0:0:0:
425,62,56720,1,0,0:0:0:0:
345,86,56891,2,0,P|331:129|328:158,1,59.4999981842042
343,259,57234,1,0,0:0:0:0:
394,193,57406,1,0,0:0:0:0:
470,225,57577,1,0,0:0:0:0:
343,259,57749,6,0,L|261:272,1,59.4999981842042,2|0,0:0|0:0,0:0:0:0:
245,341,58091,2,0,L|167:311,1,59.4999981842042
77,255,58434,2,0,P|79:235|101:182,1,59.4999981842042
198,86,58777,1,2,0:0:0:0:
168,164,58949,1,0,0:0:0:0:
114,100,59120,1,0,0:0:0:0:
257,157,59291,1,0,0:0:0:0:
257,157,59377,1,0,0:0:0:0:
257,157,59463,2,0,L|325:121,1,59.4999981842042,2|0,0:0|0:0,0:0:0:0:
360,62,59806,1,0,0:0:0:0:
322,219,59977,5,8,0:0:0:0:
198,86,60149,1,8,0:3:0:0:
167,243,60320,1,4,0:3:0:0:
33,106,60491,6,0,B|27:155|46:202|46:202|96:234,1,136,0|0,3:0|3:0,0:0:0:0:
167,243,61006,1,0,0:0:0:0:
232,342,61177,2,0,P|291:369|352:344,1,136,8|0,0:0|3:0,0:0:0:0:
295,213,61691,6,0,L|292:280,1,68,0|0,3:0|0:0,0:0:0:0:
377,180,62034,1,8,0:0:0:0:
313,128,62206,2,0,P|279:125|246:135,1,68,0|0,3:0|0:0,0:0:0:0:
377,180,62549,2,0,L|453:168,1,68,8|0,0:0|0:0,0:0:0:0:
313,127,62891,2,0,P|299:158|295:192,1,68
384,286,63234,5,12,0:0:0:0:
453,91,63406,1,0,3:0:0:0:
453,91,65463,5,0,3:0:0:0:
384,286,65634,1,12,0:0:0:0:
384,285,65977,6,0,P|375:244|350:210,1,85,4|0,0:0|0:0,0:0:0:0:
300,280,66320,1,8,0:0:0:0:
310,136,66491,1,0,0:0:0:0:
217,271,66663,1,0,0:0:0:0:
350,210,66834,1,0,3:1:0:0:
203,161,67006,2,0,P|113:159|34:194,1,170,8|0,0:0|0:0,0:0:0:0:
46,276,67520,5,0,3:0:0:0:
197,173,67691,1,8,0:0:0:0:
122,303,67863,1,0,0:0:0:0:
102,145,68034,1,0,0:0:0:0:
217,251,68206,1,0,3:0:0:0:
275,105,68377,2,0,P|317:95|359:94,1,85,8|0,0:0|0:0,0:0:0:0:
279,189,68720,6,0,P|230:174|201:64,1,170,4|8,3:0|0:0,0:0:0:0:
267,19,69234,1,0,0:0:0:0:
116,64,69406,1,0,0:0:0:0:
275,105,69577,1,0,3:0:0:0:
173,0,69749,1,8,0:0:0:0:
110,187,69920,6,0,P|194:196|279:189,1,170,0|0,0:0|3:0,0:0:0:0:
358,116,70434,2,0,P|317:107|275:105,1,85,8|0,0:3|0:0,0:0:0:0:
382,202,70777,1,0,0:0:0:0:
441,141,70949,1,8,0:0:0:0:
441,141,71034,1,8,0:0:0:0:
441,141,71120,2,0,L|458:56,1,85,12|0,0:0|0:0,0:0:0:0:
382,202,71463,6,0,P|400:285|425:365,1,170,4|8,0:0|0:0,0:0:0:0:
487,306,71977,1,0,0:0:0:0:
317,305,72149,1,0,0:0:0:0:
461,218,72320,1,0,3:0:0:0:
425,365,72491,2,0,P|348:356|252:355,1,170,8|0,0:0|0:0,0:0:0:0:
171,373,73006,5,0,3:0:0:0:
317,305,73177,1,8,0:0:0:0:
164,284,73349,1,0,0:0:0:0:
238,323,73520,1,0,0:0:0:0:
204,206,73691,1,0,3:0:0:0:
89,323,73863,2,0,P|81:281|91:240,1,85,8|0,0:0|0:0,0:0:0:0:
293,178,74206,6,0,P|235:240|163:283,1,170,4|8,3:0|0:0,0:0:0:0:
204,206,74720,1,0,0:0:0:0:
362,241,74891,1,0,0:0:0:0:
293,178,75063,1,0,3:0:0:0:
448,203,75234,1,8,0:0:0:0:
357,100,75406,1,0,3:0:0:0:
276,270,75577,5,8,0:0:0:0:
226,126,75749,1,0,3:0:0:0:
226,126,75834,1,8,0:0:0:0:
335,61,76006,1,0,3:0:0:0:
335,61,76091,1,8,0:0:0:0:
385,179,76263,6,0,L|374:225,3,42.5,0|0|8|0,0:0|0:0|0:0|0:0,0:0:0:0:
370,246,76606,1,8,0:0:0:0:
375,270,76691,1,8,0:0:0:0:
386,293,76777,1,8,0:0:0:0:
403,311,76863,1,8,0:0:0:0:
422,327,76949,6,0,P|359:311|249:349,1,170,4|8,0:0|0:0,0:0:0:0:
180,368,77463,1,0,0:0:0:0:
268,246,77634,1,0,0:0:0:0:
260,340,77806,1,0,3:0:0:0:
205,183,77977,2,0,P|283:160|348:210,1,170,8|0,0:0|0:0,0:0:0:0:
268,246,78491,5,0,3:0:0:0:
117,174,78663,1,8,0:0:0:0:
186,273,78834,1,0,0:0:0:0:
260,120,79006,1,0,0:0:0:0:
205,183,79177,1,0,3:0:0:0:
312,53,79349,2,0,P|335:89|341:131,1,85,8|0,0:0|0:0,0:0:0:0:
226,41,79691,6,0,L|415:0,1,170,4|8,3:0|0:0,0:0:0:0:
465,49,80206,1,0,0:0:0:0:
312,53,80377,1,0,0:0:0:0:
428,127,80549,1,0,3:0:0:0:
346,226,80720,1,8,0:0:0:0:
345,141,80891,6,0,P|415:180|418:262,1,170,0|0,0:0|3:0,0:0:0:0:
346,226,81406,1,8,0:0:0:0:
463,122,81577,1,0,0:0:0:0:
345,141,81749,1,0,0:0:0:0:
456,197,81920,1,0,3:0:0:0:
350,56,82091,1,8,0:0:0:0:
270,185,82263,1,8,0:0:0:0:
270,185,82349,1,8,0:0:0:0:
269,185,82434,6,0,P|229:200|187:199,1,85,12|0,0:0|0:0,0:0:0:0:
47,122,82777,2,0,P|86:106|128:107,1,85,8|0,0:0|0:0,0:0:0:0:
117,271,83120,2,0,L|98:181,1,85,8|0,0:0|0:0,0:0:0:0:
237,35,83463,2,0,L|219:118,1,85,8|0,0:0|0:0,0:0:0:0:
148,31,83806,5,8,0:0:0:0:
318,88,83977,1,0,3:0:0:0:
178,186,84149,2,0,P|151:153|143:111,1,85,8|0,0:0|3:0,0:0:0:0:
276,189,84491,2,0,P|267:230|241:263,1,85,8|0,0:0|3:0,0:0:0:0:
110,194,84834,2,0,L|194:199,1,85,8|0,0:0|3:0,0:0:0:0:
194,199,85091,1,0,3:0:0:0:
194,199,85177,5,12,0:0:0:0:
302,110,85349,1,8,0:0:0:0:
348,235,85520,1,8,0:0:0:0:
276,189,85691,1,8,0:0:0:0:
400,149,85863,1,8,0:0:0:0:
421,278,86034,1,8,0:0:0:0:
445,84,86206,1,8,0:0:0:0:
348,235,86377,1,8,0:0:0:0:
196,161,86549,6,0,L|146:150,3,42.5,8|0|0|0,0:0|3:0|3:0|3:0,0:0:0:0:
74,183,86891,2,0,L|22:185,3,42.5,8|0|0|0,0:0|3:0|3:0|3:0,0:0:0:0:
0,94,87234,1,8,0:0:0:0:
10,86,87320,1,0,3:0:0:0:
21,78,87406,1,0,3:0:0:0:
32,70,87491,1,0,3:0:0:0:
42,61,87577,1,12,0:0:0:0:
197,162,87920,6,0,P|279:168|336:108,1,170,4|8,0:0|0:0,0:0:0:0:
333,24,88434,1,0,0:0:0:0:
416,129,88606,1,0,0:0:0:0:
262,72,88777,1,0,3:0:0:0:
422,38,88949,2,0,P|491:84|495:166,1,170,8|0,0:0|0:0,0:0:0:0:
455,243,89463,5,0,3:0:0:0:
297,197,89634,1,8,0:0:0:0:
416,129,89806,1,0,0:0:0:0:
302,284,89977,1,0,0:0:0:0:
380,213,90149,1,0,3:0:0:0:
227,150,90320,2,0,P|194:177|173:214,1,85,8|0,0:0|0:0,0:0:0:0:
94,353,90663,6,0,P|64:274|28:197,1,170,4|8,3:0|0:0,0:0:0:0:
156,299,91177,1,0,0:0:0:0:
0,309,91349,1,0,0:0:0:0:
174,215,91520,1,0,3:0:0:0:
94,353,91691,1,8,0:0:0:0:
240,272,91863,6,0,L|433:265,1,170,0|0,0:0|3:0,0:0:0:0:
481,312,92377,1,8,0:0:0:0:
344,379,92549,1,0,0:0:0:0:
409,265,92720,1,0,0:0:0:0:
275,340,92891,1,0,3:0:0:0:
410,345,93063,1,8,0:0:0:0:
334,206,93234,1,8,0:0:0:0:
334,206,93320,1,8,0:0:0:0:
334,206,93406,6,0,L|231:193,1,85,4|0,3:2|0:0,0:0:0:0:
85,270,93749,2,0,P|126:260|176:258,1,85,8|0,0:0|0:0,0:0:0:0:
204,90,94091,2,0,P|183:130|171:182,1,85,0|0,3:0|0:0,0:0:0:0:
334,206,94434,2,0,P|323:129|281:30,1,170,8|0,0:0|3:0,0:0:0:0:
204,90,94949,5,0,0:0:0:0:
232,241,95120,1,8,0:0:0:0:
255,159,95291,1,0,0:0:0:0:
353,326,95463,1,0,3:0:0:0:
267,320,95634,1,0,0:0:0:0:
395,252,95806,2,0,P|425:281|438:321,1,85,8|0,0:0|0:0,0:0:0:0:
314,242,96149,5,0,3:0:0:0:
186,308,96320,1,0,3:0:0:0:
353,326,96491,1,8,0:0:0:0:
276,173,96663,1,0,3:0:0:0:
267,320,96834,1,0,3:0:0:0:
366,175,97006,1,0,3:0:0:0:
232,241,97177,1,8,0:0:0:0:
319,107,97349,1,0,3:0:0:0:
395,252,97520,1,0,3:0:0:0:
395,252,97863,6,0,B|331:263|299:219|299:219|259:244|220:241,1,178.499994552612,0|4,0:0|3:0,0:0:0:0:
366,175,98549,1,8,0:0:0:0:
