osu file format v14

[General]
AudioFilename: Brave Shine_202639911_soundcloud.mp3
AudioLeadIn: 0
PreviewTime: 65291
Countdown: 0
SampleSet: Soft
StackLeniency: 0.7
Mode: 0
LetterboxInBreaks: 0
WidescreenStoryboard: 1

[Editor]
Bookmarks: 5634,27577,32549,38549,43520,49520,60491,64777,65977,68720,72491,97520
DistanceSpacing: 1
BeatDivisor: 2
GridSize: 32
TimelineZoom: 0.7399999

[Metadata]
Title:Brave Shine
TitleUnicode:Brave Shine
Artist:tomatomerde
ArtistUnicode:tomatomerde
Creator:Milan-
Version:Easy
Source:Fate/stay night [Unlimited Blade Works]
Tags:dakedekaane kocari yauxo エメ 2nd second Season opening フェイト/ステイナイト Aimer drumstep dubstep
BeatmapID:742576
BeatmapSetID:308945

[Difficulty]
HPDrainRate:3.2
CircleSize:3.2
OverallDifficulty:2.5
ApproachRate:3.9
SliderMultiplier:0.95
SliderTickRate:1

[Events]
//Background and Video events
0,0,"Paradise.L.O.S.T.(Pffk).full.1844893.jpg",0,0
//Break Periods
//Storyboard Layer 0 (Background)
//Storyboard Layer 1 (Fail)
//Storyboard Layer 2 (Pass)
//Storyboard Layer 3 (Foreground)
//Storyboard Sound Samples

[TimingPoints]
149,342.857142857143,4,2,1,30,1,0
5634,-100,4,2,1,65,0,0
27577,-100,4,2,1,52,0,0
49520,-100,4,2,1,45,0,0
60491,-100,4,2,1,52,0,0
63234,-100,4,2,1,57,0,0
65977,-100,4,1,1,70,0,1
97520,-100,4,2,1,70,0,0
97863,-100,4,2,1,20,0,0
98377,-100,4,2,1,70,0,0

[Colours]
Combo1 : 111,81,151
Combo2 : 236,40,74
Combo3 : 205,174,67
Combo4 : 112,154,114

[HitObjects]
97,76,149,6,0,B|113:275,1,190,0|8,3:0|0:0,0:0:0:0:
285,343,1520,2,0,B|300:153,1,190,0|8,0:0|0:0,0:0:0:0:
174,11,2891,2,0,B|190:210,1,190,0|8,3:0|0:0,0:0:0:0:
291,360,4263,1,12,0:0:0:0:
418,219,4949,1,0,0:0:0:0:
232,179,5634,6,0,P|140:179|90:255,1,190,4|8,0:0|0:0,0:0:0:0:
184,262,6663,2,0,P|254:270|312:231,2,142.5,0|8|8,0:0|0:0|0:0,0:0:0:0:
129,183,8034,1,0,0:0:0:0:
199,119,8377,6,0,B|148:67|70:105|70:105|31:155,1,190,4|8,0:0|0:0,0:0:0:0:
100,324,9749,2,0,L|189:270,1,95,0|0,0:0|3:0,0:0:0:0:
275,288,10434,2,0,L|364:234,1,95,8|0,0:0|0:0,0:0:0:0:
443,276,11120,6,0,P|431:185|349:146,1,190,4|8,0:0|0:0,0:0:0:0:
265,192,12149,2,0,B|207:195|207:195|85:185,2,142.5,0|8|8,0:0|0:0|0:0,0:0:0:0:
261,97,13520,1,0,0:0:0:0:
165,97,13863,6,0,P|73:100|22:176,1,190,4|8,0:0|0:0,0:0:0:0:
65,260,14891,2,0,P|159:271|253:261,1,190,0|0,0:0|3:0,3:0:0:0:
347,245,15920,2,0,P|402:256|333:323,1,190,8|4,0:0|0:0,0:0:0:0:
263,157,17291,5,8,0:0:0:0:
195,224,17634,2,0,P|169:158|191:91,2,142.5,0|8|8,0:0|0:0|0:0,0:0:0:0:
263,157,19005,1,0,0:0:0:0:
334,221,19349,6,0,B|318:284|341:341|341:341|312:372|257:367,1,190,4|8,0:0|0:0,0:0:0:0:
94,326,20720,2,0,L|85:219,1,95,0|0,0:0|3:0,0:0:0:0:
170,187,21406,2,0,L|177:281,1,95,8|0,0:0|0:0,0:0:0:0:
264,241,22091,6,0,L|247:51,1,190,4|8,0:0|0:0,0:0:0:0:
155,26,23120,2,0,B|97:29|97:29|14:45,2,142.5,0|8|8,0:0|0:0|0:0,0:0:0:0:
246,49,24491,1,0,0:0:0:0:
336,19,24834,5,4,0:0:0:0:
443,176,25520,2,0,L|449:318,2,142.5,8|0|0,0:0|3:0|0:0,0:0:0:0:
356,137,26891,1,8,0:0:0:0:
283,198,27234,1,8,0:3:0:0:
194,162,27577,6,0,P|126:161|54:264,1,190,4|8,0:0|0:0,0:0:0:0:
179,318,28777,1,0,3:0:0:0:
270,291,29120,2,0,L|424:288,1,142.5,8|8,0:0|0:0,0:0:0:0:
499,325,29977,1,0,0:0:0:0:
485,230,30320,6,0,P|466:133|431:45,1,190,0|8,3:0|0:0,0:0:0:0:
355,168,31520,2,0,P|289:194|219:187,2,142.5,0|0|8,3:0|3:0|3:2,0:0:0:0:
272,51,33063,6,0,P|178:47|101:100,1,190,0|8,3:0|0:0,0:0:0:0:
219,187,34263,2,0,B|283:186|283:186|318:166|367:172,1,142.5,0|0,3:0|3:0,0:0:0:0:
453,183,35120,1,8,0:0:0:0:
434,276,35463,1,0,0:0:0:0:
339,269,35806,6,0,L|139:272,1,190,0|8,3:0|0:0,0:0:0:0:
258,363,37006,2,0,B|346:361|346:361|379:357|410:340,1,142.5,8|0,3:0|3:0,0:0:0:0:
471,286,37863,1,8,0:0:0:0:
444,195,38206,1,8,0:0:0:0:
488,111,38549,6,0,P|396:114|349:192,1,190,4|8,0:0|0:0,0:0:0:0:
376,332,39749,1,0,3:0:0:0:
287,297,40092,2,0,P|228:295|144:299,1,142.5,8|8,0:0|0:0,0:0:0:0:
55,333,40949,1,0,0:0:0:0:
74,240,41291,6,0,P|69:157|37:46,1,190,0|8,3:0|0:0,0:0:0:0:
183,60,42491,2,0,P|253:53|323:36,2,142.5,0|0|8,3:0|3:0|3:2,0:0:0:0:
77,156,44034,6,0,B|34:200|16:255|30:298|89:338,1,190,0|8,3:0|0:0,0:0:0:0:
210,304,45234,2,0,B|190:256|190:256|167:161,1,142.5,0|0,3:0|3:0,0:0:0:0:
148,74,46092,1,8,0:0:0:0:
235,111,46435,1,0,0:0:0:0:
296,38,46778,6,0,P|390:30|485:34,1,190,0|8,3:0|0:0,0:0:0:0:
382,132,47977,2,0,P|374:202|391:271,1,142.5,0|0,3:0|3:0,0:0:0:0:
457,339,48834,1,8,0:0:0:0:
365,363,49177,1,8,0:0:0:0:
281,317,49520,6,0,B|212:278|172:361|95:313,1,190,4|0,0:0|0:0,0:0:0:0:
24,254,50549,1,0,0:0:0:0:
77,175,50891,2,0,L|79:3,1,142.5,2|0,0:0|0:0,0:0:0:0:
164,74,51749,1,0,0:0:0:0:
247,29,52091,2,0,B|319:11|388:27|388:27|432:60|411:127,1,237.5,0|0,0:0|0:0,0:0:0:0:
376,199,53291,1,0,0:0:0:0:
284,172,53634,2,0,P|208:172|25:187,1,237.5,2|0,0:0|0:0,0:0:0:0:
25,324,55006,6,0,P|61:355|108:364,2,95,2|0|0,0:0|0:0|0:0,0:0:0:0:
105,272,56034,1,0,0:0:0:0:
184,323,56377,2,0,P|295:318|429:305,1,237.5,2|0,0:0|0:0,0:0:0:0:
485,178,57749,1,2,0:0:0:0:
405,127,58091,2,0,P|329:124|208:133,2,190,0|2|2,0:0|0:0|0:0,0:0:0:0:
437,310,60149,6,0,P|403:342|357:352,1,95,8|0,0:3|3:0,0:0:0:0:
267,322,60834,1,0,3:0:0:0:
202,252,61177,2,0,L|197:101,1,142.5,8|0,0:0|3:0,0:0:0:0:
115,61,62034,2,0,L|110:203,1,142.5,8|8,0:0|0:0,0:0:0:0:
106,298,62891,1,0,0:0:0:0:
188,345,63234,2,0,L|262:338,1,47.5,12|0,0:0|3:0,0:0:0:0:
430,193,65291,6,0,L|335:184,1,95,0|12,0:0|0:0,0:0:0:0:
252,230,65977,6,0,B|180:246|126:225|126:225|107:198|94:164,1,190,4|0,0:0|0:0,0:0:0:0:
111,76,67006,2,0,L|301:49,1,190,8|8,0:0|0:0,0:0:0:0:
388,17,68034,2,0,P|392:63|374:107,1,95,0|8,0:0|0:0,0:0:0:0:
315,181,68720,6,0,P|310:227|328:271,1,95,4|8,3:0|0:0,0:0:0:0:
391,343,69406,2,0,P|421:280|403:213,2,142.5,0|0|8,0:0|0:0|0:3,0:0:0:0:
296,354,70777,1,0,0:0:0:0:
201,357,71120,1,12,0:0:0:0:
142,281,71463,6,0,L|131:83,1,190,4|0,0:0|0:0,0:0:0:0:
45,50,72491,2,0,L|34:239,1,190,8|8,0:0|0:0,0:0:0:0:
61,329,73520,2,0,P|95:363|140:374,1,95,0|8,0:0|0:0,0:0:0:0:
227,334,74206,6,0,L|363:326,1,95,4|8,3:0|0:0,0:0:0:0:
401,276,74891,2,0,B|403:150|403:150|391:87,1,190,0|8,0:0|0:0,0:0:0:0:
316,27,75920,1,0,0:0:0:0:
241,85,76262,1,0,0:0:0:0:
146,92,76605,1,8,0:0:0:0:
73,28,76949,6,0,P|55:118|119:184,1,190,4|0,0:0|0:0,0:0:0:0:
214,174,77977,2,0,P|309:167|432:167,1,190,8|8,0:0|0:0,0:0:0:0:
476,227,79006,2,0,P|483:276|481:350,1,95,0|8,0:0|0:0,0:0:0:0:
401,369,79691,6,0,P|351:371|298:367,1,95,4|8,3:0|0:0,0:0:0:0:
214,340,80377,1,0,0:0:0:0:
163,259,80720,2,0,L|162:69,1,190,8|8,0:0|0:0,0:0:0:0:
244,22,81749,2,0,L|248:150,1,95,0|8,0:0|0:0,0:0:0:0:
299,196,82434,5,12,0:0:0:0:
371,134,82777,1,8,0:0:0:0:
387,227,83120,1,8,0:0:0:0:
459,165,83463,1,8,0:0:0:0:
476,258,83806,2,0,L|486:360,2,95,8|8|8,0:0|0:0|0:0,0:0:0:0:
387,227,84834,1,8,0:0:0:0:
307,279,85177,6,0,P|251:295|156:197,2,190,12|8|8,0:0|0:0|0:0,0:0:0:0:
292,89,87234,2,0,P|255:58|211:42,1,95,8|12,0:0|0:0,0:0:0:0:
205,136,87920,6,0,P|122:176|40:134,1,190,4|0,0:0|0:0,0:0:0:0:
124,89,88949,2,0,L|118:301,1,190,8|8,0:0|0:0,0:0:0:0:
179,351,89977,1,0,0:0:0:0:
274,353,90320,1,8,0:0:0:0:
357,308,90663,6,0,P|390:260|346:122,1,190,4|0,3:0|0:0,0:0:0:0:
273,110,91691,2,0,P|180:130|83:123,1,190,8|8,0:0|0:0,0:0:0:0:
26,199,92720,2,0,L|22:336,1,95,0|8,0:0|0:0,0:0:0:0:
94,356,93406,6,0,P|143:332|179:292,1,95,4|8,3:2|0:0,0:0:0:0:
217,220,94091,2,0,P|262:207|309:212,1,95,0|8,3:0|0:0,0:0:0:0:
390,262,94777,2,0,P|400:208|391:166,1,95,0|8,3:0|0:0,0:0:0:0:
320,106,95463,2,0,P|273:74|254:36,1,95,0|8,3:0|0:0,0:0:0:0:
347,14,96149,2,0,B|457:24|479:106|479:106|472:160|472:160|479:191|477:233,1,285,0|8,3:0|0:0,0:0:0:0:
447,308,97520,6,0,B|379:349|284:337|236:277|236:277|220:299|194:312,1,285,0|8,3:0|0:0,0:0:0:0:
