osu file format v14

[General]
AudioFilename: audio.mp3
AudioLeadIn: 0
PreviewTime: 64949
Countdown: 0
SampleSet: Soft
StackLeniency: 0.3
Mode: 0
LetterboxInBreaks: 0
WidescreenStoryboard: 1

[Editor]
Bookmarks: 15920,26891,37863,48834,49520,60149,70949,75577,76263,82263,87577,97520,98377
DistanceSpacing: 1.2
BeatDivisor: 8
GridSize: 4
TimelineZoom: 3.499999

[Metadata]
Title:Brave Shine
TitleUnicode:Brave Shine
Artist:tomatomerde
ArtistUnicode:tomatomerde
Creator:Hikan
Version:Ruby
Source:animaymay
Tags:Aimer CyberX Aven
BeatmapID:1363953
BeatmapSetID:635900

[Difficulty]
HPDrainRate:5
CircleSize:2.7
OverallDifficulty:8
ApproachRate:9.3
SliderMultiplier:2
SliderTickRate:1

[Events]
//Background and Video events
0,0,"5bii.jpg",0,0
//Break Periods
//Storyboard Layer 0 (Background)
//Storyboard Layer 1 (Fail)
//Storyboard Layer 2 (Pass)
//Storyboard Layer 3 (Foreground)
//Storyboard Layer 4 (Overlay)
//Storyboard Sound Samples

[TimingPoints]
149,342.857142857143,4,2,1,25,1,0
149,-142.857142857143,4,2,1,25,0,0
2720,-142.857142857143,4,2,1,5,0,0
2891,-142.857142857143,4,2,1,25,0,0
4263,-100,4,2,1,50,0,0
4949,-200,4,2,1,50,0,0
5634,-100,4,2,1,50,0,0
19263,-100,4,2,1,5,0,0
19349,-100,4,2,1,50,0,0
27577,-153.846153846153,4,2,1,50,0,0
27663,-153.846153846153,4,2,1,5,0,0
28091,-153.846153846153,4,2,1,50,0,0
35720,-153.846153846153,4,2,1,5,0,0
35806,-153.846153846153,4,2,1,50,0,0
37177,-153.846153846153,4,2,1,5,0,0
37349,-153.846153846153,4,2,1,50,0,0
40177,-153.846153846153,4,2,1,5,0,0
40263,-153.846153846153,4,2,1,50,0,0
46691,-153.846153846153,4,2,1,5,0,0
46777,-153.846153846153,4,2,1,50,0,0
50549,-153.846153846153,4,2,1,20,0,0
60491,-100,4,2,1,50,0,0
60920,-100,4,2,1,5,0,0
61006,-100,4,2,1,50,0,0
61091,-100,4,2,1,5,0,0
61177,-100,4,2,1,50,0,0
62120,-100,4,2,1,5,0,0
62206,-100,4,2,1,50,0,0
63320,-100,4,2,1,5,0,0
63406,-100,4,2,1,50,0,0
63491,-100,4,2,1,5,0,0
65291,-100,4,2,1,50,0,0
65634,-250,4,2,1,50,0,0
65977,-50,4,2,1,50,0,1
68806,-50,4,2,1,5,0,1
68891,-50,4,2,1,50,0,1
68977,-50,4,2,1,5,0,1
69063,-50,4,2,1,50,0,1
70006,-50,4,2,1,5,0,1
70091,-50,4,2,1,50,0,1
71206,-50,4,2,1,50,0,0
71249,-50,4,2,1,5,0,0
71463,-50,4,2,1,50,0,1
76606,-50,4,2,1,50,0,0
76949,-50,4,2,1,50,0,1
77034,-50,4,2,1,5,0,1
77120,-50,4,2,1,50,0,1
79777,-50,4,2,1,5,0,1
79863,-50,4,2,1,50,0,1
79949,-50,4,2,1,5,0,1
80034,-50,4,2,1,50,0,1
80977,-50,4,2,1,5,0,1
81063,-50,4,2,1,50,0,1
82091,-50,4,2,1,50,0,0
82434,-50,4,2,1,50,0,1
87577,-100,4,2,1,50,0,0
87920,-50,4,2,1,50,0,1
89206,-50,4,2,1,5,0,1
89291,-50,4,2,1,50,0,1
89377,-50,4,2,1,5,0,1
89463,-50,4,2,1,50,0,1
89549,-50,4,2,1,5,0,1
89634,-50,4,2,1,50,0,1
90577,-50,4,2,1,5,0,1
90663,-50,4,2,1,50,0,1
90749,-50,4,2,1,5,0,1
90834,-50,4,2,1,50,0,1
90920,-50,4,2,1,5,0,1
91006,-50,4,2,1,50,0,1
91949,-50,4,2,1,5,0,1
92034,-50,4,2,1,50,0,1
92120,-50,4,2,1,5,0,1
92206,-50,4,2,1,50,0,1
92291,-50,4,2,1,5,0,1
92377,-50,4,2,1,50,0,1
93320,-50,4,2,1,50,0,0
93406,-50,4,2,1,50,0,1
93491,-50,4,2,1,5,0,1
93577,-50,4,2,1,50,0,1
93663,-50,4,2,1,5,0,0
93749,-50,4,2,1,50,0,1
94006,-50,4,2,1,5,0,0
94091,-50,4,2,1,50,0,1
94349,-50,4,2,1,5,0,0
94434,-50,4,2,1,50,0,1
94691,-50,4,2,1,5,0,0
94777,-50,4,2,1,50,0,1
95034,-50,4,2,1,5,0,0
95120,-50,4,2,1,50,0,1
95377,-50,4,2,1,5,0,0
95463,-50,4,2,1,50,0,1
95720,-50,4,2,1,5,0,0
95806,-50,4,2,1,50,0,1
96063,-50,4,2,1,5,0,0
96149,-50,4,2,1,50,0,1
96234,-50,4,2,1,5,0,0
96320,-50,4,2,1,50,0,1
96406,-50,4,2,1,5,0,0
96491,-50,4,2,1,50,0,1
96577,-50,4,2,1,5,0,0
96663,-50,4,2,1,50,0,1
96749,-50,4,2,1,5,0,0
96834,-50,4,2,1,50,0,1
96920,-50,4,2,1,5,0,0
97006,-50,4,2,1,50,0,1
97091,-50,4,2,1,5,0,0
97177,-50,4,2,1,50,0,1
97263,-50,4,2,1,5,0,0
97349,-50,4,2,1,50,0,1
97434,-50,4,2,1,5,0,0
97520,-500,4,2,1,50,0,1
98377,-50,4,2,1,50,0,0
98549,-250,4,2,1,50,0,1
98806,-250,4,2,1,50,0,0
98891,-50,4,2,1,50,0,1
99063,-50,4,2,1,5,0,1
104377,-50,4,2,1,5,0,0

[Colours]
Combo1 : 255,0,128
Combo2 : 179,32,179
Combo3 : 134,106,208
Combo4 : 185,255,255

[HitObjects]
28,200,149,6,0,P|116:232|212:212,1,174.999994659424
364,216,663,2,0,P|263:201|183:225,1,174.999994659424
108,112,1177,6,0,P|141:103|176:107,1,69.9999978637696,0|0,0:0|0:0,0:0:0:0:
245,115,1520,2,0,P|210:117|176:108,1,69.9999978637696,0|0,0:0|0:0,0:0:0:0:
44,300,1863,6,0,P|88:284|136:288,1,69.9999978637696,0|0,0:0|0:0,0:0:0:0:
304,332,2206,2,0,P|256:324|228:308,1,69.9999978637696
112,72,2549,6,0,P|144:80|184:80,1,69.9999978637696
148,300,2891,6,0,B|196:268|224:180|224:180|236:248|236:248|264:268|264:268|248:344|248:344|340:272|408:276|468:312,1,559.999982910157
409,34,4949,6,0,P|389:91|450:50,1,175,0|0,0:0|1:0,0:0:0:0:
241,193,5634,6,0,P|345:176|443:224,1,200,6|0,3:2|0:2,0:0:0:0:
360,296,6149,2,0,P|376:315|414:326,1,50,2|0,3:2|1:0,0:0:0:0:
100,319,6320,6,0,P|156:230|258:189,1,200,8|2,0:2|0:2,0:0:0:0:
86,80,6834,2,0,P|184:117|245:207,1,200,0|10,3:2|0:2,0:0:0:0:
374,196,7349,2,0,P|299:220|230:180,1,150,0|0,3:2|1:0,0:0:0:0:
451,49,7691,6,0,P|458:65|453:87,14,25,8|0|0|0|0|0|0|0|0|0|0|0|0|0|0,0:2|0:0|0:0|0:0|0:0|0:0|0:0|0:0|0:2|0:0|0:0|0:0|0:0|0:0|0:0,0:0:0:0:
343,88,8377,6,0,P|229:127|122:70,1,250,6|0,3:2|1:0,0:0:0:0:
234,227,8891,2,0,P|230:251|216:271,1,50,2|0,3:2|1:0,0:0:0:0:
80,287,9063,2,0,P|51:170|119:69,1,250,8|0,0:2|1:0,0:0:0:0:
400,320,9577,2,0,P|320:288|160:344,1,250,0|0,3:2|1:0,0:0:0:0:
421,179,10091,2,0,P|389:259|405:331,1,150,0|0,3:2|1:0,0:0:0:0:
208,216,10434,6,0,P|230:189|230:180,10,25,10|0|0|0|0|0|0|0|0|0|0,0:2|0:0|0:0|0:0|0:0|0:0|0:0|0:0|0:2|0:0|0:0,0:0:0:0:
38,268,10949,6,0,P|35:280|40:297,1,25,0|0,3:2|1:0,0:0:0:0:
78,299,11034,2,0,P|76:311|83:327,1,25,0|0,0:0|1:0,0:0:0:0:
125,329,11120,6,0,L|327:340,1,200,6|0,3:2|0:2,0:0:0:0:
445,318,11634,2,0,P|435:298|407:282,1,50,2|0,3:2|1:0,0:0:0:0:
313,199,11806,6,0,L|515:210,1,200,8|2,0:2|0:2,0:0:0:0:
326,58,12320,6,0,P|232:83|147:36,1,200,0|10,3:2|0:2,0:0:0:0:
52,110,12834,2,0,P|53:162|91:198,1,100,0|0,3:2|0:2,0:0:0:0:
270,215,13177,6,0,P|198:176|81:198,1,200,8|2,0:2|0:0,0:0:0:0:
145,337,13691,2,0,P|161:295|159:272,1,50,2|0,0:0|1:0,0:0:0:0:
278,318,13863,6,0,P|368:288|461:351,1,200,6|0,3:2|0:2,0:0:0:0:
437,208,14377,2,0,P|467:220|483:251,1,50,2|0,3:2|1:0,0:0:0:0:
347,147,14549,2,0,P|294:190|136:126,1,250,8|0,0:2|1:0,0:0:0:0:
58,211,15063,6,0,P|37:184|35:145,1,50,2|0,3:2|1:0,0:0:0:0:
68,66,15234,2,0,P|134:33|207:64,1,150,0|0,0:0|1:0,0:0:0:0:
154,335,15577,2,0,P|192:272|171:194,1,150,2|0,3:2|1:0,0:0:0:0:
45,233,15920,6,0,L|53:344,1,100,8|0,0:2|1:0,0:0:0:0:
183,101,16177,6,0,L|175:212,1,100,0|0,3:2|1:0,0:0:0:0:
37,35,16434,6,0,L|43:119,1,50,0|0,3:2|1:0,0:0:0:0:
432,64,16606,6,0,L|177:49,1,250,6|0,3:2|1:0,0:0:0:0:
296,160,17120,2,0,P|312:184|312:216,1,50,2|0,3:2|1:0,0:0:0:0:
96,256,17291,2,0,L|376:272,1,250,8|0,0:2|1:0,0:0:0:0:
160,200,17806,6,0,P|185:266|137:334,1,150,0|0,3:2|1:0,0:0:0:0:
32,152,18149,2,0,P|56:136|104:144,1,50,10|0,0:2|1:0,0:0:0:0:
272,120,18320,2,0,P|216:72|128:64,1,150,0|0,3:2|1:0,0:0:0:0:
312,232,18663,6,0,P|384:176|320:32,1,250,8|0,0:2|1:0,0:0:0:0:
192,240,19177,2,0,P|206:220|205:180,1,50,0|0,0:0|1:0,0:0:0:0:
192,240,19349,6,0,P|224:312|400:296,1,250,6|0,3:2|1:0,0:0:0:0:
440,216,19863,2,0,P|408:216|376:240,1,50,2|0,3:2|1:0,0:0:0:0:
304,272,20034,2,0,P|240:320|64:248,1,250,8|0,0:2|1:0,0:0:0:0:
239,128,20549,2,0,P|215:224|79:280,1,250,0|0,3:2|1:0,0:0:0:0:
56,149,21063,2,0,P|97:207|66:302,1,150,0|0,3:2|1:0,0:0:0:0:
128,72,21406,6,0,P|248:40|368:104,1,250,10|0,0:2|1:0,0:0:0:0:
424,168,21920,2,0,P|440:176|456:176,1,25,0|0,3:2|1:0,0:0:0:0:
408,216,22006,2,0,P|417:231|430:240,1,25,0|0,0:0|1:0,0:0:0:0:
360,232,22091,6,0,P|256:184|128:224,1,250,6|0,3:2|1:0,0:0:0:0:
32,272,22606,2,0,P|48:304|80:312,1,50,2|0,3:2|1:0,0:0:0:0:
32,168,22777,6,0,P|104:112|272:96,1,250,8|0,0:2|1:0,0:0:0:0:
243,317,23291,2,0,P|206:184|262:88,1,250,0|0,3:2|1:0,0:0:0:0:
360,184,23806,2,0,P|296:159|256:89,1,150,0|0,3:2|1:0,0:0:0:0:
104,240,24149,6,0,P|128:144|272:96,1,250,8|0,0:2|1:0,0:0:0:0:
432,64,24663,2,0,P|416:88|376:88,1,50,2|0,0:2|1:0,0:0:0:0:
29,57,24834,6,0,P|91:100|259:92,1,250,6|0,3:2|1:0,0:0:0:0:
112,208,25349,2,0,P|96:240|104:264,1,50,2|0,3:2|1:0,0:0:0:0:
208,320,25520,6,0,P|256:304|312:312,1,100,8|0,0:2|1:0,0:0:0:0:
448,256,25777,2,0,L|436:367,1,100,2|0,3:2|1:0,0:0:0:0:
336,96,26034,2,0,L|329:145,1,50,2|0,3:2|1:0,0:0:0:0:
464,48,26206,6,0,L|452:159,1,100,2|0,3:2|1:0,0:0:0:0:
328,152,26463,2,0,L|316:263,1,100,2|0,3:2|1:0,0:0:0:0:
200,296,26720,2,0,L|192:360,1,50,2|0,3:2|1:0,0:0:0:0:
31,240,26891,6,0,P|43:218|66:208,1,50,10|0,0:2|1:0,0:0:0:0:
99,106,27063,6,0,P|123:101|146:110,1,50,0|0,3:2|1:0,0:0:0:0:
239,63,27234,6,0,P|260:75|271:98,1,50,2|0,3:2|1:0,0:0:0:0:
371,131,27406,6,0,P|376:155|368:178,1,50,2|0,3:2|1:0,0:0:0:0:
224,248,27577,6,0,P|228:265|215:287,1,32.4999985122681,6|0,3:2|1:0,0:0:0:0:
434,103,28091,6,0,P|418:99|402:103,1,32.4999985122681,0|0,0:0|1:0,0:0:0:0:
252,100,28263,2,0,P|305:125|404:103,1,162.499992561341,8|0,0:2|1:0,0:0:0:0:
164,120,28777,6,0,P|216:124|254:99,1,97.4999955368044,2|0,3:2|1:0,0:0:0:0:
56,92,29120,2,0,P|80:64|96:64,1,32.4999985122681,10|0,0:2|1:0,0:0:0:0:
84,178,29291,2,0,P|52:126|64:74,1,97.4999955368044,2|0,3:2|1:0,0:0:0:0:
44,312,29634,6,0,P|88:280|240:332,1,227.499989585877,8|0,0:2|1:0,0:0:0:0:
391,317,30320,2,0,P|308:301|228:337,1,162.499992561341,2|0,3:2|1:0,0:0:0:0:
405,288,30834,2,0,P|393:308|389:332,1,32.4999985122681,2|0,3:2|1:0,0:0:0:0:
386,138,31006,6,0,P|424:224|394:302,1,162.499992561341,8|0,0:2|1:0,0:0:0:0:
232,160,31520,2,0,P|320:124|387:138,1,162.499992561341,2|0,3:2|1:0,0:0:0:0:
254,249,32034,2,0,P|229:204|243:137,1,97.4999955368044,0|0,3:2|1:0,0:0:0:0:
104,348,32377,6,0,P|140:340|160:344,1,32.4999985122681,8|0,0:2|1:0,0:0:0:0:
90,189,32549,2,0,P|111:310|99:362,1,162.499992561341,2|0,3:2|1:0,0:0:0:0:
107,32,33063,2,0,P|80:108|89:188,1,162.499992561341,2|0,3:2|1:0,0:0:0:0:
216,108,33577,2,0,P|193:113|162:100,1,32.4999985122681,0|0,3:2|1:0,0:0:0:0:
371,107,33749,6,0,P|311:127|203:99,1,162.499992561341,8|0,0:2|1:0,0:0:0:0:
286,241,34263,2,0,P|230:189|218:93,1,162.499992561341,2|0,3:2|1:0,0:0:0:0:
381,237,34777,2,0,P|314:233|266:249,1,97.4999955368044,2|0,3:2|1:0,0:0:0:0:
444,368,35120,2,0,P|439:287|371:234,1,162.499992561341,8|0,0:2|1:0,0:0:0:0:
308,320,35634,2,0,P|332:328|356:320,1,32.4999985122681,2|2,0:2|0:2,0:0:0:0:
160,328,35806,6,0,P|227:309|320:328,1,162.499992561341,0|0,3:2|1:0,0:0:0:0:
134,308,36320,2,0,P|166:336|174:352,1,32.4999985122681,0|0,3:2|1:0,0:0:0:0:
151,160,36491,2,0,P|112:240|135:309,1,162.499992561341,8|0,0:2|1:0,0:0:0:0:
89,175,37006,6,0,P|120:160|170:162,1,64.9999970245363,0|2,3:2|0:2,0:0:0:0:
264,216,37349,2,0,P|248:216|228:208,1,32.4999985122681,0|0,0:0|1:0,0:0:0:0:
218,91,37520,2,0,P|190:107|142:182,1,97.4999955368044,0|0,3:2|1:0,0:0:0:0:
52,308,37863,6,0,L|60:360,1,32.4999985122681,10|0,0:2|1:0,0:0:0:0:
84,303,38034,6,0,L|51:307,1,32.4999985122681,0|0,3:2|1:0,0:0:0:0:
79,270,38206,6,0,L|83:302,1,32.4999985122681,10|0,0:2|1:0,0:0:0:0:
120,264,38377,6,0,L|87:268,1,32.4999985122681,2|0,3:2|1:0,0:0:0:0:
67,116,38549,6,0,P|51:196|83:276,1,162.499992561341,6|0,3:2|1:0,0:0:0:0:
99,115,39063,2,0,P|76:116|40:124,1,32.4999985122681,2|0,3:2|1:0,0:0:0:0:
222,121,39234,2,0,P|156:100|61:119,1,162.499992561341,8|0,0:2|1:0,0:0:0:0:
229,217,39749,2,0,B|228:205|237:165|217:105,1,97.4999955368044,2|0,3:2|1:0,0:0:0:0:
197,215,40091,2,0,P|213:219|245:207,1,32.4999985122681,10|0,0:2|1:0,0:0:0:0:
322,211,40263,6,0,P|267:204|209:229,1,97.4999955368044,2|0,3:2|1:0,0:0:0:0:
384,343,40606,2,0,P|376:256|316:208,1,162.499992561341,8|0,0:2|1:0,0:0:0:0:
415,336,41120,2,0,P|391:340|367:352,1,32.4999985122681,2|0,3:2|1:0,0:0:0:0:
385,68,41291,2,0,P|337:125|325:232,1,162.499992561341,2|0,3:2|1:0,0:0:0:0:
289,214,41806,2,0,P|308:208|333:214,1,32.4999985122681,2|0,3:2|1:0,0:0:0:0:
232,53,41977,6,0,P|264:73|389:65,1,162.499992561341,8|0,0:2|1:0,0:0:0:0:
137,66,42491,2,0,P|185:50|236:52,1,97.4999955368044,2|0,3:2|1:0,0:0:0:0:
105,72,42834,2,0,P|129:68|153:60,1,32.4999985122681,10|0,0:2|1:0,0:0:0:0:
118,158,43006,6,0,P|137:113|129:41,1,97.4999955368044,0|0,3:2|1:0,0:0:0:0:
130,186,43349,2,0,P|118:166|118:154,1,32.4999985122681,8|0,0:2|1:0,0:0:0:0:
91,332,43520,2,0,P|120:298|127:180,1,162.499992561341,2|0,3:2|1:0,0:0:0:0:
249,332,44034,6,0,P|209:320|73:340,1,162.499992561341,2|0,3:2|1:0,0:0:0:0:
86,301,44549,2,0,P|86:325|106:341,1,32.4999985122681,0|0,3:2|1:0,0:0:0:0:
405,331,44720,2,0,P|362:316|233:340,1,162.499992561341,8|0,0:2|1:0,0:0:0:0:
233,238,45234,2,0,P|232:288|264:350,1,97.4999955368044,2|0,3:2|1:0,0:0:0:0:
344,216,45577,2,0,P|368:221|396:212,1,32.4999985122681,8|0,0:2|1:0,0:0:0:0:
242,145,45749,6,0,P|250:185|226:245,1,97.4999955368044,2|0,3:2|1:0,0:0:0:0:
90,290,46091,2,0,P|146:294|242:214,1,162.499992561341,8|0,0:2|1:0,0:0:0:0:
272,248,46606,2,0,P|257:241|241:239,1,32.4999985122681,2|2,0:2|0:2,0:0:0:0:
86,143,46777,6,0,P|58:203|95:294,1,162.499992561341,0|0,3:2|1:0,0:0:0:0:
254,275,47291,2,0,P|274:243|282:219,1,32.4999985122681,2|0,3:2|1:0,0:0:0:0:
228,118,47463,6,0,P|153:99|80:150,1,162.499992561341,8|0,0:2|1:0,0:0:0:0:
374,120,47977,2,0,P|309:149|221:110,1,162.499992561341,2|0,3:2|1:0,0:0:0:0:
412,202,48491,2,0,P|404:150|348:110,1,97.4999955368044,2|0,3:2|1:0,0:0:0:0:
392,312,48834,6,0,L|352:308,1,32.4999985122681,8|0,0:2|1:0,0:0:0:0:
327,308,49006,6,0,L|383:308,1,32.4999985122681,2|0,3:2|1:0,0:0:0:0:
228,300,49177,6,0,L|280:304,1,32.4999985122681,8|0,0:2|1:0,0:0:0:0:
504,320,49349,6,0,L|456:316,1,32.4999985122681,0|0,3:2|1:0,0:0:0:0:
96,324,49520,6,0,P|140:308|188:320,1,97.4999955368044,6|0,3:2|1:0,0:0:0:0:
68,176,50549,6,0,P|96:160|128:156,2,64.9999970245363
149,215,51063,2,0,P|129:179|129:147,1,64.9999970245363,0|0,0:0|0:0,0:0:0:0:
159,100,51406,2,0,P|136:128|126:164,1,64.9999970245363,0|0,0:0|0:0,0:0:0:0:
344,72,51749,6,0,P|312:64|272:68,1,64.9999970245363,0|0,0:0|0:0,0:0:0:0:
356,134,52091,2,0,P|352:100|340:66,1,64.9999970245363,0|0,0:0|0:0,0:0:0:0:
419,132,52434,2,0,P|386:139|351:132,1,64.9999970245363,0|0,0:0|0:0,0:0:0:0:
324,284,53291,6,0,P|364:260|396:260,2,64.9999970245363,0|0|0,0:0|0:0|0:0,0:0:0:0:
262,290,53806,2,0,P|298:294|330:278,1,64.9999970245363,0|0,0:0|0:0,0:0:0:0:
380,315,54149,2,0,P|344:304|324:284,1,64.9999970245363,0|0,0:0|0:0,0:0:0:0:
145,276,54491,2,0,P|244:248|329:288,1,194.999991073609,0|0,0:0|0:0,0:0:0:0:
96,112,55863,6,0,L|96:152,1,32.4999985122681
96,292,56034,2,0,L|94:227,1,64.9999970245363
225,136,56377,2,0,L|85:145,1,129.999994049073,0|0,0:0|0:0,0:0:0:0:
236,268,56891,2,0,L|225:136,1,129.999994049073,0|0,0:0|0:0,0:0:0:0:
300,275,57406,2,0,L|232:267,1,64.9999970245363,0|0,0:0|0:0,0:0:0:0:
108,295,57749,2,0,L|245:265,1,129.999994049073,0|0,0:0|0:0,0:0:0:0:
138,179,58263,6,0,P|104:236|112:302,1,129.999994049073,0|0,0:0|0:0,0:0:0:0:
259,145,58777,2,0,P|200:180|127:177,1,129.999994049073,0|0,0:0|0:0,0:0:0:0:
64,72,59291,2,0,P|76:88|100:92,1,32.4999985122681,0|0,0:0|0:0,0:0:0:0:
201,243,59463,2,0,P|165:231|140:176,1,97.4999955368044,0|0,0:0|0:0,0:0:0:0:
143,262,59806,2,0,P|168:242|200:242,1,64.9999970245363,0|0,0:0|0:0,0:0:0:0:
412,212,60149,6,0,L|420:292,1,64.9999970245363,2|2,0:2|0:2,0:0:0:0:
316,136,60491,2,0,L|324:248,1,100,2|0,3:2|1:0,0:0:0:0:
318,346,60834,2,0,P|294:340|280:321,1,50,2|0,3:2|1:0,0:0:0:0:
232,332,61006,2,0,P|276:320|300:328,1,50,0|0,0:0|0:0,0:0:0:0:
420,348,61177,6,0,P|452:292|432:192,1,150,8|0,0:2|1:0,0:0:0:0:
328,136,61520,2,0,P|356:135|383:151,1,50,2|0,3:2|1:0,0:0:0:0:
232,332,61691,6,0,P|225:248|281:171,1,150,2|0,3:2|1:0,0:0:0:0:
124,116,62034,2,0,P|152:136|184:144,1,50,8|0,0:2|1:0,0:0:0:0:
45,215,62206,6,0,P|91:163|202:145,1,150,2|0,3:2|1:0,0:0:0:0:
434,74,62549,2,0,P|306:54|154:158,1,300,8|2,0:2|3:2,0:0:0:0:
75,240,63234,6,0,P|100:240|124:248,1,50,2|0,3:2|1:0,0:0:0:0:
227,327,63405,2,0,P|216:306|198:287,1,50,2|0,3:2|1:0,0:0:0:0:
357,260,65291,6,0,P|369:288|401:308,1,50,0|0,0:0|1:0,0:0:0:0:
418,335,65463,2,0,P|394:307|370:295,1,50,2|0,3:2|1:0,0:0:0:0:
436,261,65634,6,0,P|400:274|381:303,1,70,10|0,0:2|1:0,0:0:0:0:
80,68,65977,6,0,P|116:104|120:176,1,100,6|0,3:2|1:0,0:0:0:0:
59,220,66149,2,0,P|82:178|146:146,1,100,0|0,0:0|1:0,0:0:0:0:
377,111,66320,2,0,P|261:63|117:167,1,300,10|0,0:2|1:0,0:0:0:0:
379,209,66663,6,0,P|368:156|381:96,1,100,2|0,0:2|1:0,0:0:0:0:
455,57,66834,2,0,P|399:79|375:115,1,100,2|0,3:2|1:0,0:0:0:0:
155,288,67006,2,0,P|351:280|379:200,1,300,10|0,0:2|1:0,0:0:0:0:
197,205,67349,6,0,P|157:251|157:297,1,100,0|0,0:0|1:0,0:0:0:0:
61,309,67520,2,0,P|109:285|177:297,1,100,0|0,3:2|1:0,0:0:0:0:
129,38,67691,2,0,P|77:198|161:290,1,300,10|0,0:2|1:0,0:0:0:0:
221,36,68034,6,0,P|164:53|117:26,1,100,2|0,0:2|1:0,0:0:0:0:
314,44,68206,2,0,P|262:25|218:34,1,100,2|0,3:2|1:0,0:0:0:0:
347,279,68377,2,0,P|408:176|308:42,1,300,10|0,0:2|1:0,0:0:0:0:
298,198,68720,6,0,P|306:238|354:282,1,100,2|0,3:2|0:0,0:0:0:0:
442,279,68891,2,0,P|390:267|322:295,1,100,0|0,0:2|0:0,0:0:0:0:
100,280,69063,2,0,P|201:350|349:274,1,300,10|0,0:2|1:0,0:0:0:0:
383,191,69406,6,0,P|351:228|358:308,1,100,2|0,0:2|1:0,0:0:0:0:
328,112,69577,2,0,P|372:155|380:221,1,100,2|0,3:2|1:0,0:0:0:0:
484,360,69749,2,0,P|428:308|196:308,1,300,10|0,0:2|1:0,0:0:0:0:
46,201,70091,6,0,P|106:185|166:213,1,100,0|0,0:0|1:0,0:0:0:0:
117,103,70263,2,0,P|142:153|129:219,1,100,2|0,3:2|1:0,0:0:0:0:
415,134,70434,2,0,P|302:206|139:194,1,300,8|0,0:2|1:0,0:0:0:0:
354,60,70777,6,0,P|396:94|418:148,1,100,2|0,0:2|0:0,0:0:0:0:
388,292,70949,6,0,P|420:288|452:292,1,50,0|0,3:2|3:2,0:0:0:0:
388,292,71034,6,0,P|396:324|388:364,1,50,0|0,3:2|3:2,0:0:0:0:
388,292,71120,6,0,P|360:300|324:292,1,50,12|0,3:2|0:0,0:0:0:0:
388,292,71206,6,0,P|380:260|388:220,1,50,0|0,3:2|1:0,0:0:0:0:
94,306,71463,6,0,P|246:273|394:293,1,300,6|0,3:2|1:0,0:0:0:0:
70,213,71806,2,0,P|94:257|94:305,1,100,10|0,0:2|1:0,0:0:0:0:
159,182,71977,2,0,P|127:207|50:205,1,100,2|0,0:2|1:0,0:0:0:0:
428,125,72149,6,0,P|356:101|156:185,1,300,2|0,0:2|1:0,0:0:0:0:
403,208,72491,2,0,P|403:144|443:120,1,100,10|0,0:2|1:0,0:0:0:0:
452,40,72663,2,0,P|452:104|412:128,1,100,0|0,0:2|1:0,0:0:0:0:
372,347,72834,6,0,P|328:195|438:123,1,300,0|0,0:0|1:0,0:0:0:0:
463,322,73177,2,0,P|431:318|363:358,1,100,10|0,0:2|1:0,0:0:0:0:
462,228,73349,2,0,P|478:276|449:335,1,100,2|0,0:2|1:0,0:0:0:0:
175,318,73520,6,0,P|304:280|463:322,1,300,2|0,0:2|1:0,0:0:0:0:
200,227,73863,2,0,P|170:276|177:325,1,100,10|0,0:2|1:0,0:0:0:0:
282,182,74034,2,0,P|226:196|196:235,1,100,2|0,0:2|1:0,0:0:0:0:
11,108,74206,6,0,P|127:93|290:194,1,300,2|0,3:2|0:0,0:0:0:0:
358,123,74549,2,0,P|302:151|274:195,1,100,10|0,0:2|1:0,0:0:0:0:
453,137,74720,2,0,P|393:117|342:128,1,100,2|0,0:2|1:0,0:0:0:0:
303,330,74891,6,0,P|432:283|429:100,1,300,2|0,0:2|1:0,0:0:0:0:
206,333,75234,2,0,P|264:320|318:337,1,100,10|0,0:2|1:0,0:0:0:0:
109,328,75406,2,0,P|167:341|221:324,1,100,2|0,3:2|1:0,0:0:0:0:
186,236,75577,6,0,P|206:288|194:364,1,100,8|0,0:2|1:0,0:0:0:0:
88,128,75749,6,0,P|74:155|74:187,1,50,2|0,3:2|1:0,0:0:0:0:
88,128,75834,6,0,P|61:114|29:114,1,50,8|0,0:2|1:0,0:0:0:0:
88,128,75920,6,0,P|102:101|102:69,1,50,0|0,0:0|1:0,0:0:0:0:
88,128,76006,6,0,P|115:142|147:142,1,50,0|0,3:2|1:0,0:0:0:0:
88,128,76091,6,0,L|192:120,1,100,10|0,3:2|1:0,0:0:0:0:
372,104,76263,6,0,L|432:96,1,50,0|0,3:2|1:0,0:0:0:0:
391,137,76349,6,0,L|427:88,1,50,0|0,3:2|1:0,0:0:0:0:
427,146,76434,6,0,L|418:86,1,50,2|0,3:2|1:0,0:0:0:0:
458,126,76520,6,0,L|409:89,1,50,0|0,3:2|1:0,0:0:0:0:
467,89,76606,6,0,L|407:97,1,50,8|0,3:2|1:0,0:0:0:0:
448,56,76692,6,0,L|411:104,1,50,0|0,3:2|1:0,0:0:0:0:
412,47,76777,6,0,L|420:106,1,50,2|0,3:2|1:0,0:0:0:0:
381,67,76863,6,0,L|429:103,1,50,0|0,3:2|1:0,0:0:0:0:
420,97,76949,6,0,L|280:116,1,100,6|0,3:2|1:0,0:0:0:0:
136,132,77120,2,0,L|276:113,1,100,0|0,0:0|1:0,0:0:0:0:
428,194,77291,2,0,L|132:240,1,300,10|0,0:2|1:0,0:0:0:0:
68,317,77634,6,0,L|140:229,1,100,2|0,0:2|1:0,0:0:0:0:
199,313,77806,2,0,L|107:213,1,100,2|0,3:2|1:0,0:0:0:0:
496,264,77977,2,0,L|189:314,1,300,10|0,0:2|1:0,0:0:0:0:
476,165,78320,6,0,L|500:289,1,100,0|0,0:0|1:0,0:0:0:0:
456,66,78491,2,0,L|480:190,1,100,0|0,3:2|1:0,0:0:0:0:
156,51,78663,2,0,L|483:67,1,300,10|0,0:2|1:0,0:0:0:0:
188,148,79006,6,0,L|152:44,1,100,2|0,0:2|1:0,0:0:0:0:
88,144,79177,2,0,L|212:148,1,100,2|0,3:2|1:0,0:0:0:0:
314,340,79349,2,0,L|78:136,1,300,10|0,0:2|1:0,0:0:0:0:
312,240,79691,6,0,L|314:379,1,100,2|0,3:2|1:0,0:0:0:0:
412,240,79863,2,0,L|289:240,1,100,0|0,0:2|0:0,0:0:0:0:
12,240,80034,2,0,L|324:239,1,300,10|0,0:2|1:0,0:0:0:0:
312,140,80377,6,0,L|312:260,1,100,2|0,0:2|1:0,0:0:0:0:
212,140,80549,2,0,L|340:140,1,100,2|0,3:2|1:0,0:0:0:0:
12,140,80720,2,0,L|348:140,1,300,10|0,0:2|0:0,0:0:0:0:
399,91,81063,6,0,L|291:151,1,100,0|0,0:0|1:0,0:0:0:0:
244,66,81234,2,0,L|328:158,1,100,0|0,3:2|1:0,0:0:0:0:
244,366,81406,2,0,L|244:50,1,300,10|0,0:2|1:0,0:0:0:0:
318,299,81749,6,0,L|238:371,1,100,2|0,0:2|1:0,0:0:0:0:
418,299,81920,2,0,L|314:299,1,100,2|0,3:2|1:0,0:0:0:0:
418,199,82091,2,0,L|418:331,1,100,10|0,0:2|0:0,0:0:0:0:
264,148,82263,6,0,L|264:220,1,50,0|0,3:2|3:0,0:0:0:0:
264,198,82349,6,0,L|264:148,1,50,0|0,3:2|3:0,0:0:0:0:
100,116,82434,6,0,P|80:268|128:332,1,200,14|0,3:2|0:2,0:0:0:0:
412,116,82777,2,0,P|432:268|384:332,1,200,10|2,0:2|0:2,0:0:0:0:
104,84,83120,6,0,P|84:236|132:300,1,200,8|0,0:2|0:2,0:0:0:0:
416,84,83463,2,0,P|436:236|388:300,1,200,10|2,0:2|0:2,0:0:0:0:
100,300,83806,6,0,P|69:206|100:113,1,200,8|2,0:2|3:2,0:0:0:0:
412,116,84149,2,0,P|432:268|384:332,1,200,8|2,0:2|3:2,0:0:0:0:
104,84,84492,6,0,P|84:236|132:300,1,200,8|0,0:2|0:0,0:0:0:0:
416,270,84834,2,0,P|447:177|416:84,1,200,8|0,0:2|3:2,0:0:0:0:
56,312,85177,6,0,P|108:312|156:348,1,100,14|0,3:2|1:0,0:0:0:0:
152,136,85349,6,0,P|188:172|197:232,1,100,8|0,3:2|1:0,0:0:0:0:
360,136,85520,6,0,P|323:172|314:232,1,100,10|0,3:2|1:0,0:0:0:0:
456,312,85691,6,0,P|404:312|356:348,1,100,10|0,3:2|1:0,0:0:0:0:
52,204,85863,6,0,L|52:92,1,100,8|0,3:2|1:0,0:0:0:0:
204,300,86034,6,0,L|204:192,1,100,10|0,3:2|1:0,0:0:0:0:
308,300,86206,6,0,L|308:192,1,100,8|0,3:2|1:0,0:0:0:0:
460,204,86377,6,0,L|460:92,1,100,10|0,3:2|1:0,0:0:0:0:
136,68,86549,6,0,P|151:87|159:110,1,50,10|0,0:2|1:0,0:0:0:0:
136,67,86634,6,0,P|133:91|122:113,1,50,0|0,3:2|1:0,0:0:0:0:
136,68,86720,6,0,P|116:83|93:91,1,50,0|0,3:2|1:0,0:0:0:0:
136,68,86806,6,0,P|111:65|89:54,1,50,0|0,3:2|1:0,0:0:0:0:
368,68,86891,6,0,P|352:87|344:110,1,50,10|0,0:2|1:0,0:0:0:0:
367,67,86977,6,0,P|369:91|380:113,1,50,0|0,3:2|1:0,0:0:0:0:
367,68,87063,6,0,P|386:83|409:91,1,50,0|0,3:0|1:0,0:0:0:0:
367,68,87149,6,0,P|391:65|413:54,1,50,0|0,0:0|1:0,0:0:0:0:
255,191,87234,6,0,P|230:188|208:177,1,50,10|0,3:2|1:0,0:0:0:0:
255,191,87320,6,0,P|235:206|212:214,1,50,0|0,3:2|1:0,0:0:0:0:
255,191,87406,6,0,P|279:188|301:177,1,50,0|0,0:0|1:0,0:0:0:0:
255,191,87491,6,0,P|274:206|297:214,1,50,0|0,3:0|1:0,0:0:0:0:
255,191,87577,6,0,L|256:344,1,150,14|0,3:2|1:0,0:0:0:0:
112,212,87920,6,0,P|72:148|104:92,1,100,6|0,3:2|1:0,0:0:0:0:
39,44,88091,2,0,P|73:78|75:127,1,100,0|0,0:0|1:0,0:0:0:0:
371,80,88263,2,0,L|49:131,1,300,10|0,0:2|1:0,0:0:0:0:
377,179,88606,6,0,L|369:63,1,100,2|0,0:2|1:0,0:0:0:0:
418,270,88777,2,0,L|362:146,1,100,2|0,3:2|1:0,0:0:0:0:
104,257,88949,2,0,P|172:201|384:181,1,300,14|0,0:2|1:0,0:0:0:0:
189,300,89291,6,0,P|121:276|93:240,1,100,0|0,0:0|0:0,0:0:0:0:
280,269,89463,2,0,P|214:300|169:294,1,100,0|0,3:2|1:0,0:0:0:0:
159,48,89634,2,0,P|236:137|175:308,1,300,10|0,0:2|1:0,0:0:0:0:
63,77,89977,6,0,L|167:45,1,100,2|0,0:2|1:0,0:0:0:0:
33,172,90149,2,0,L|65:68,1,100,2|0,3:2|1:0,0:0:0:0:
332,148,90320,2,0,L|20:172,1,300,10|0,0:2|0:0,0:0:0:0:
394,76,90663,6,0,P|346:112|330:168,1,100,6|0,3:2|0:0,0:0:0:0:
488,69,90834,2,0,P|428:60|377:88,1,100,0|0,0:0|1:0,0:0:0:0:
373,343,91006,2,0,P|429:263|381:63,1,300,10|0,0:2|1:0,0:0:0:0:
279,306,91349,6,0,L|399:352,1,100,2|0,0:2|1:0,0:0:0:0:
242,212,91520,2,0,L|288:332,1,100,2|0,3:2|1:0,0:0:0:0:
36,248,91691,2,0,L|352:192,1,300,14|0,0:2|1:0,0:0:0:0:
20,335,92034,6,0,P|48:279|32:243,1,100,0|0,0:0|1:0,0:0:0:0:
19,160,92206,2,0,P|47:216|31:252,1,100,0|0,3:2|1:0,0:0:0:0:
299,131,92377,2,0,P|155:155|27:259,1,300,10|0,0:2|1:0,0:0:0:0:
311,230,92720,6,0,L|295:102,1,100,2|0,0:0|1:0,0:0:0:0:
301,329,92891,2,0,L|313:209,1,100,2|0,0:0|1:0,0:0:0:0:
468,256,93063,2,0,L|140:196,1,300,10|0,0:2|3:2,0:0:0:0:
118,128,93406,6,0,P|163:161|162:232,1,100,6|0,3:2|1:0,0:0:0:0:
225,275,93577,2,0,P|180:242|181:171,1,100,2|0,0:2|1:0,0:0:0:0:
80,340,93749,6,0,B|60:112|60:112|104:192,1,300,8|0,3:2|0:0,0:0:0:0:
240,76,94091,2,0,P|304:140|164:280,1,300,0|0,3:2|0:0,0:0:0:0:
128,96,94434,2,0,B|96:48|96:48|368:64,1,300,12|0,3:2|0:0,0:0:0:0:
464,196,94777,6,0,B|472:144|472:144|200:196,1,300,0|0,3:2|0:0,0:0:0:0:
84,304,95120,2,0,P|164:340|372:280,1,300,8|0,3:2|0:0,0:0:0:0:
332,48,95463,2,0,P|312:112|440:56,1,300,0|0,3:2|0:0,0:0:0:0:
108,124,95806,6,0,P|188:72|400:108,1,300,8|0,3:2|0:0,0:0:0:0:
76,308,96149,6,0,P|72:224|48:200,1,100,4|0,3:2|0:0,0:0:0:0:
76,308,96320,2,0,P|157:330|187:314,1,100,2|0,3:2|0:0,0:0:0:0:
208,132,96491,6,0,P|292:128|316:104,1,100,8|0,3:2|0:0,0:0:0:0:
208,132,96663,2,0,P|185:213|201:243,1,100,2|0,3:2|0:0,0:0:0:0:
368,244,96834,6,0,P|372:328|396:352,1,100,0|0,3:2|0:0,0:0:0:0:
368,244,97005,2,0,P|286:221|256:237,1,100,2|0,3:2|0:0,0:0:0:0:
404,124,97177,6,0,P|400:40|376:16,1,100,8|0,3:2|0:0,0:0:0:0:
404,124,97348,2,0,P|485:146|515:130,1,100,2|0,3:2|0:0,0:0:0:0:
224,84,97520,6,0,P|180:76|136:92,1,90,0|0,3:2|1:0,0:0:0:0:
104,220,98377,6,0,P|68:184|64:128,1,100,0|0,3:2|1:0,0:0:0:0:
91,273,98549,6,0,P|105:255|103:217,1,60,8|0,0:2|1:0,0:0:0:0:
262,312,98891,6,0,P|232:276|68:292,1,200,4|0,3:2|1:0,0:0:0:0:
