osu file format v14

[General]
AudioFilename: audio.mp3
AudioLeadIn: 0
PreviewTime: 64949
Countdown: 0
SampleSet: Soft
StackLeniency: 0.3
Mode: 0
LetterboxInBreaks: 0
WidescreenStoryboard: 0

[Editor]
DistanceSpacing: 1.2
BeatDivisor: 8
GridSize: 4
TimelineZoom: 3.599999

[Metadata]
Title:Brave Shine
TitleUnicode:Brave Shine
Artist:tomatomerde
ArtistUnicode:tomatomerde
Creator:Hikan
Version:Emerald
Source:animaymay
Tags:Aimer CyberX Aven
BeatmapID:1349442
BeatmapSetID:635900

[Difficulty]
HPDrainRate:5
CircleSize:4
OverallDifficulty:8
ApproachRate:9.3
SliderMultiplier:2
SliderTickRate:1

[Events]
//Background and Video events
0,0,"Rintohsaka.jpg",0,0
//Break Periods
2,50062,59595
//Storyboard Layer 0 (Background)
//Storyboard Layer 1 (Fail)
//Storyboard Layer 2 (Pass)
//Storyboard Layer 3 (Foreground)
//Storyboard Layer 4 (Overlay)
//Storyboard Sound Samples

[TimingPoints]
149,342.857142857143,4,2,1,25,1,0
149,-200,4,2,1,25,0,0
4263,-200,4,2,1,50,0,0
4949,-196.078431372549,4,2,1,50,0,0
5634,-100,4,2,1,50,0,0
15234,-142.857142857143,4,2,1,50,0,0
15920,-90.9090909090909,4,2,1,50,0,0
16606,-100,4,2,1,50,0,0
25777,-142.857142857143,4,2,1,50,0,0
26891,-100,4,2,1,50,0,0
27063,-83.3333333333333,4,2,1,50,0,0
28777,-111.111111111111,4,2,1,50,0,0
29291,-166.666666666667,4,2,1,50,0,0
29634,-125,4,2,1,50,0,0
31006,-100,4,2,1,50,0,0
31520,-111.111111111111,4,2,1,50,0,0
32034,-166.666666666667,4,2,1,50,0,0
32377,-100,4,2,1,50,0,0
34263,-166.666666666667,4,2,1,50,0,0
37863,-100,4,2,1,50,0,0
43006,-142.857142857143,4,2,1,50,0,0
43349,-83.3333333333333,4,2,1,50,0,0
43520,-125,4,2,1,50,0,0
45577,-100,4,2,1,50,0,0
45749,-125,4,2,1,50,0,0
46091,-100,4,2,1,50,0,0
47291,-83.3333333333333,4,2,1,50,0,0
47463,-200,4,2,1,50,0,0
47977,-133.333333333333,4,2,1,50,0,0
48491,-166.666666666667,4,2,1,50,0,0
48834,-66.6666666666667,4,2,1,50,0,0
49006,-125,4,2,1,50,0,0
49177,-66.6666666666667,4,2,1,50,0,0
49349,-125,4,2,1,50,0,0
49520,-200,4,2,1,50,0,0
61177,-125,4,2,1,50,0,0
61520,-200,4,2,1,50,0,0
62206,-142.857142857143,4,2,1,50,0,0
65291,-100,4,2,1,50,0,0
65463,-68.9655172413793,4,2,1,50,0,0
65634,-57.1428571428571,4,2,1,50,0,0
65977,-52.6315789473684,4,2,1,50,0,1
66320,-66.6666666666667,4,2,1,50,0,1
66491,-90.9090909090909,4,2,1,50,0,1
66663,-111.111111111111,4,2,1,50,0,1
67006,-83.3333333333333,4,2,1,50,0,1
67691,-66.6666666666667,4,2,1,50,0,1
67863,-111.111111111111,4,2,1,50,0,1
68034,-66.6666666666667,4,2,1,50,0,1
68206,-111.111111111111,4,2,1,50,0,1
68377,-66.6666666666667,4,2,1,50,0,1
68549,-111.111111111111,4,2,1,50,0,1
68720,-76.9230769230769,4,2,1,50,0,1
69234,-90.9090909090909,4,2,1,50,0,1
69406,-111.111111111111,4,2,1,50,0,1
69577,-142.857142857143,4,2,1,50,0,1
69749,-83.3333333333333,4,2,1,50,0,1
69920,-74.0740740740741,4,2,1,50,0,1
70434,-75.4716981132076,4,2,1,50,0,1
71120,-75.4716981132076,4,2,1,50,0,0
71463,-55.8659217877095,4,2,1,50,0,1
71806,-66.6666666666667,4,2,1,50,0,1
71977,-90.9090909090909,4,2,1,50,0,1
72149,-76.9230769230769,4,2,1,50,0,1
72320,-100,4,2,1,50,0,1
72491,-71.4285714285714,4,2,1,50,0,1
73520,-100,4,2,1,50,0,1
73863,-83.3333333333333,4,2,1,50,0,1
74206,-76.9230769230769,4,2,1,50,0,1
74720,-90.9090909090909,4,2,1,50,0,1
74891,-111.111111111111,4,2,1,50,0,1
75063,-142.857142857143,4,2,1,50,0,1
75234,-83.3333333333333,4,2,1,50,0,1
75406,-142.857142857143,4,2,1,50,0,1
75577,-83.3333333333333,4,2,1,50,0,1
76606,-83.3333333333333,4,2,1,50,0,0
76949,-52.6315789473684,4,2,1,50,0,1
77291,-66.6666666666667,4,2,1,50,0,1
77463,-71.4285714285714,4,2,1,50,0,1
77634,-83.3333333333333,4,2,1,50,0,1
77806,-100,4,2,1,50,0,1
77977,-74.0740740740741,4,2,1,50,0,1
78149,-125,4,2,1,50,0,1
78320,-100,4,2,1,50,0,1
78491,-71.4285714285714,4,2,1,50,0,1
78663,-66.6666666666667,4,2,1,50,0,1
78834,-111.111111111111,4,2,1,50,0,1
79006,-66.6666666666667,4,2,1,50,0,1
79177,-111.111111111111,4,2,1,50,0,1
79349,-62.5,4,2,1,50,0,1
79520,-100,4,2,1,50,0,1
79691,-76.9230769230769,4,2,1,50,0,1
80034,-90.9090909090909,4,2,1,50,0,1
80206,-111.111111111111,4,2,1,50,0,1
80377,-142.857142857143,4,2,1,50,0,1
80549,-100,4,2,1,50,0,1
80720,-83.3333333333333,4,2,1,50,0,1
80891,-74.0740740740741,4,2,1,50,0,1
81406,-75.187969924812,4,2,1,50,0,1
81749,-136.986301369863,4,2,1,50,0,1
81920,-100,4,2,1,50,0,1
82091,-66.6666666666667,4,2,1,50,0,0
82434,-66.6666666666667,4,2,1,50,0,1
85006,-100,4,2,1,50,0,1
87920,-100,4,2,1,50,0,0
88263,-83.3333333333333,4,2,1,50,0,0
88949,-100,4,2,1,50,0,0
89634,-125,4,2,1,50,0,0
89977,-100,4,2,1,50,0,0
90320,-111.111111111111,4,2,1,50,0,0
91006,-90.9090909090909,4,2,1,50,0,0
91863,-100,4,2,1,50,0,0
92377,-83.3333333333333,4,2,1,50,0,0
92720,-80,4,2,1,50,0,0
93063,-66.6666666666667,4,2,1,50,0,0
93406,-100,4,2,1,50,0,0
98377,-66.6666666666667,4,2,1,50,0,0
98549,-50,4,2,1,50,0,0

[Colours]
Combo1 : 185,255,255
Combo2 : 202,9,14
Combo3 : 134,106,208

[HitObjects]
124,88,149,6,0,L|116:204,1,100,0|0,0:0|0:0,0:0:0:0:
166,239,663,1,0,0:0:0:0:
166,239,834,2,0,P|116:228|54:258,1,100,0|0,0:0|0:0,0:0:0:0:
294,310,1520,6,0,L|296:250,2,50,0|0|0,0:0|0:0|0:0,0:0:0:0:
407,325,2034,1,0,0:0:0:0:
407,325,2206,2,0,L|403:219,1,100,0|0,0:0|0:0,0:0:0:0:
247,99,2891,6,0,P|289:100|346:63,1,100,0|0,0:0|0:0,0:0:0:0:
185,34,3406,1,0,0:0:0:0:
185,34,3577,2,0,P|162:69|166:138,1,100,0|0,0:0|0:0,0:0:0:0:
270,207,4263,5,0,0:0:0:0:
279,207,4777,5,0,0:0:0:0:
279,207,4863,1,0,0:0:0:0:
279,207,4949,2,0,L|451:194,1,153.000000933838,0|0,0:0|0:0,0:0:0:0:
431,195,5634,6,0,B|378:191|378:191|341:233|341:233|272:217|227:255,1,200,6|0,3:2|0:2,0:0:0:0:
186,335,6149,1,2,3:2:0:0:
286,379,6320,2,0,P|289:312|184:226,1,200,8|2,0:2|0:2,0:0:0:0:
0,330,6834,6,0,B|50:351|50:351|145:318|145:318|214:346,1,200,0|10,3:2|0:2,0:0:0:0:
59,161,7349,2,0,L|53:291,1,100,0|0,3:2|0:2,0:0:0:0:
286,379,7691,6,0,L|280:338,14,25,8|0|0|0|0|0|0|0|0|0|0|0|0|0|0,0:2|0:0|0:0|0:0|0:0|0:0|0:0|0:0|0:2|0:0|0:0|0:0|0:0|0:0|0:0,0:0:0:0:
194,293,8377,6,0,P|249:253|369:295,1,200,6|0,3:2|0:2,0:0:0:0:
334,167,8891,1,2,3:2:0:0:
452,310,9063,2,0,B|461:263|430:225|430:225|417:161|458:108,1,200,8|0,0:2|0:2,0:0:0:0:
290,20,9577,6,0,B|314:59|314:59|469:35,1,200,0|8,3:2|0:2,0:0:0:0:
232,80,10091,2,0,L|118:70,1,100,0|0,3:2|0:2,0:0:0:0:
297,186,10434,2,0,B|402:122|382:236|510:155,1,200,10|0,0:2|0:2,0:0:0:0:
286,206,10949,2,0,L|350:199,2,33.3333333333333,0|0|0,3:2|0:0|0:0,0:0:0:0:
476,323,11120,6,0,L|269:313,1,200,6|0,3:2|0:2,0:0:0:0:
195,208,11634,1,2,3:2:0:0:
103,358,11806,2,0,P|96:308|183:349,1,200,8|2,0:2|0:2,0:0:0:0:
32,265,12320,6,0,B|4:218|4:218|37:75,1,200,0|10,3:2|0:2,0:0:0:0:
173,110,12834,2,0,L|197:217,1,100,0|0,3:2|0:2,0:0:0:0:
361,69,13177,2,0,L|313:283,1,200,8|2,0:2|0:0,0:0:0:0:
250,365,13691,1,2,0:0:0:0:
498,278,13863,6,0,B|431:305|380:256|380:256|324:258|301:294,1,200,6|0,3:2|0:2,0:0:0:0:
221,232,14377,1,2,3:2:0:0:
61,295,14549,2,0,P|154:305|223:228,1,200,8|0,0:2|0:2,0:0:0:0:
140,96,15063,1,2,3:2:0:0:
0,200,15234,6,0,L|106:196,1,104.999996795654,0|0,0:0|1:0,0:0:0:0:
121,210,15577,2,0,L|227:206,1,104.999996795654,2|0,3:2|1:0,0:0:0:0:
257,219,15920,6,0,P|212:278|213:323,1,110.000003356934,8|0,0:2|1:0,0:0:0:0:
324,134,16177,2,0,P|295:65|255:43,1,110.000003356934,0|0,3:2|1:0,0:0:0:0:
361,242,16434,2,0,L|463:235,1,55.0000016784668,0|0,3:2|1:0,0:0:0:0:
257,219,16606,6,0,B|118:228|118:228|60:306,1,200,6|0,3:2|0:2,0:0:0:0:
286,329,17120,1,2,3:2:0:0:
286,329,17291,2,0,P|205:300|120:368,1,200,8|2,0:2|0:2,0:0:0:0:
369,376,17806,6,0,B|361:309|361:309|381:258|381:258|370:159,1,200,0|10,3:2|0:2,0:0:0:0:
187,211,18320,2,0,L|328:217,1,100,0|0,3:2|0:2,0:0:0:0:
475,148,18663,2,0,L|435:151,14,25,8|0|0|0|0|0|0|0|0|0|0|0|0|0|0,0:2|0:0|0:0|0:0|0:0|0:0|0:0|0:0|0:2|0:0|0:0|0:0|0:0|0:0|0:0,0:0:0:0:
369,30,19349,6,0,B|337:70|337:70|499:57,1,200,6|0,3:2|0:2,0:0:0:0:
499,158,19863,1,2,3:2:0:0:
238,177,20034,2,0,B|284:140|284:140|435:155,1,200,8|0,0:2|0:2,0:0:0:0:
285,312,20549,6,0,P|283:258|385:287,1,200,0|8,3:2|0:2,0:0:0:0:
214,363,21063,2,0,P|194:287|199:246,1,100,0|0,3:2|0:2,0:0:0:0:
425,187,21406,2,0,P|462:252|458:325,1,150,10|0,0:2|0:0,0:0:0:0:
379,368,21749,6,0,L|336:365,6,25,0|0|0|0|0|0|0,0:2|0:0|0:0|0:0|3:2|0:0|0:0,0:0:0:0:
458,325,22091,6,0,P|462:252|379:160,1,200,6|0,3:2|0:2,0:0:0:0:
351,276,22606,1,2,3:2:0:0:
445,97,22777,2,0,B|400:58|347:78|347:78|309:124|257:119,1,200,8|2,0:2|0:2,0:0:0:0:
118,22,23291,6,0,B|171:-22|241:-16|270:39|270:39|228:32,1,200,0|10,3:2|0:2,0:0:0:0:
62,94,23806,2,0,P|32:43|40:-19,1,100,0|0,3:2|0:2,0:0:0:0:
154,99,24149,2,0,P|107:172|0:165,1,200,8|2,0:2|0:0,0:0:0:0:
157,363,24663,1,2,0:2:0:0:
157,363,24834,6,0,B|164:225|164:225|150:260|108:287,1,200,6|0,3:2|0:2,0:0:0:0:
250,319,25349,1,2,3:2:0:0:
82,197,25520,6,0,P|112:154|181:140,1,100,8|0,0:2|1:0,0:0:0:0:
250,211,25777,2,0,L|150:205,1,69.9999978637696,2|0,3:2|1:0,0:0:0:0:
198,82,26034,2,0,L|251:78,1,34.9999989318848,2|0,3:2|1:0,0:0:0:0:
401,208,26206,6,0,L|308:203,1,69.9999978637696,2|0,3:2|1:0,0:0:0:0:
309,43,26463,2,0,L|409:37,1,69.9999978637696,2|0,3:2|1:0,0:0:0:0:
511,173,26720,6,0,L|459:170,1,34.9999989318848,2|0,3:2|1:0,0:0:0:0:
292,297,26891,2,0,P|314:286|339:284,1,50,10|0,0:2|1:0,0:0:0:0:
499,335,27063,6,0,L|502:258,1,59.9999981689454,0|0,3:2|1:0,0:0:0:0:
490,344,27234,2,0,L|493:267,1,59.9999981689454,2|0,3:2|1:0,0:0:0:0:
481,353,27406,2,0,L|484:276,1,59.9999981689454,2|0,3:2|1:0,0:0:0:0:
424,106,27577,5,6,3:2:0:0:
412,113,28091,5,0,0:0:0:0:
486,62,28263,2,0,B|558:56|558:56|509:106|509:106|410:113,1,239.999992675781,8|0,0:2|0:2,0:0:0:0:
281,28,28777,6,0,P|323:53|327:148,1,134.999995880127,2|0,3:2|1:0,0:0:0:0:
226,123,29120,2,0,P|267:102|293:101,1,44.999998626709,10|0,0:2|1:0,0:0:0:0:
357,209,29291,2,0,P|310:208|266:171,1,89.9999972534181,2|0,3:2|1:0,0:0:0:0:
228,243,29634,6,0,P|300:249|251:185,1,160,8|2,0:2|0:2,0:0:0:0:
163,173,30149,1,0,0:2:0:0:
237,336,30320,1,2,3:2:0:0:
237,336,30834,5,2,3:2:0:0:
70,289,31006,2,0,P|112:340|241:332,1,200
322,219,31520,6,0,L|317:358,1,134.999995880127,2|0,3:2|1:0,0:0:0:0:
395,322,31863,2,0,L|398:257,1,44.999998626709,10|0,0:2|1:0,0:0:0:0:
249,169,32034,2,0,L|242:279,1,89.9999972534181,0|0,3:2|1:0,0:0:0:0:
404,194,32377,6,0,L|401:144,1,50,8|0,0:2|1:0,0:0:0:0:
236,335,32549,1,2,3:2:0:0:
236,335,32891,5,2,3:2:0:0:
163,173,33063,1,2,3:2:0:0:
163,173,33577,5,0,3:2:0:0:
44,156,33749,2,0,B|17:200|17:200|175:170,1,200,8|2,0:2|0:2,0:0:0:0:
118,79,34263,6,0,L|204:84,1,59.9999981689454,2|0,3:2|0:0,0:0:0:0:
44,30,34606,1,8,0:2:0:0:
240,138,34777,2,0,P|261:72|234:20,1,119.999996337891,2|8,3:2|0:2,0:0:0:0:
162,172,35463,5,2,0:2:0:0:
344,188,35634,1,2,0:2:0:0:
344,188,35720,1,2,0:2:0:0:
344,188,35806,1,0,3:2:0:0:
344,188,36149,5,2,0:2:0:0:
162,172,36320,1,0,3:2:0:0:
253,180,36491,1,8,0:2:0:0:
253,180,36834,5,2,0:2:0:0:
71,196,37006,1,0,3:2:0:0:
162,172,37177,6,0,L|157:287,1,89.9999972534181,2|0,0:2|1:0,0:0:0:0:
169,276,37520,2,0,L|164:391,1,89.9999972534181,0|0,3:2|1:0,0:0:0:0:
169,391,37863,6,0,L|166:448,1,50,10|0,0:2|1:0,0:0:0:0:
218,197,38034,2,0,L|215:140,1,50,0|0,3:2|1:0,0:0:0:0:
98,322,38206,6,0,L|47:347,1,50,10|0,0:2|1:0,0:0:0:0:
290,267,38377,2,0,L|334:289,1,50,2|0,3:2|1:0,0:0:0:0:
122,225,38549,6,0,P|136:146|271:119,1,200,6|0,3:2|0:2,0:0:0:0:
337,178,39063,2,0,L|350:109,1,50,2|0,3:2|1:0,0:0:0:0:
361,1,39234,2,0,B|349:74|349:74|362:128|362:128|348:207,1,200,8|0,0:2|0:2,0:0:0:0:
462,276,39749,6,0,B|455:242|432:231|432:231|403:289|345:300|294:271,1,200,2|10,3:2|0:2,0:0:0:0:
128,298,40263,2,0,P|175:288|230:320,1,100,2|0,3:2|0:0,0:0:0:0:
41,360,40606,2,0,P|50:224|54:149,1,200,8|2,0:2|0:2,0:0:0:0:
34,33,41120,1,2,3:2:0:0:
264,50,41291,6,0,B|207:58|182:108|182:108|141:77|88:92,1,200,2|2,3:2|0:2,0:0:0:0:
204,233,41806,2,0,P|204:196|193:167,1,50,2|0,3:2|1:0,0:0:0:0:
66,156,41977,2,0,P|159:152|187:252,1,200,8|0,0:2|0:2,0:0:0:0:
47,228,42491,6,0,P|88:158|142:159,1,100,2|0,3:2|0:0,0:0:0:0:
61,263,42834,6,0,P|58:242|63:214,1,50,10|0,0:2|1:0,0:0:0:0:
169,185,43006,2,0,P|181:217|142:288,1,104.999996795654,0|0,3:2|1:0,0:0:0:0:
101,325,43349,6,0,P|99:378|126:419,1,59.9999981689454,8|0,0:2|1:0,0:0:0:0:
249,377,43520,2,0,P|247:323|191:268,1,120,2|0,3:2|1:0,0:0:0:0:
174,352,43863,5,2,3:2:0:0:
162,177,44034,1,2,3:2:0:0:
162,177,44549,6,0,L|234:153,1,40,0|0,3:2|1:0,0:0:0:0:
329,176,44720,2,0,B|282:193|282:193|210:174|210:174|160:191,1,160,8|2,0:2|0:2,0:0:0:0:
113,249,45234,6,0,P|87:197|88:162,1,80,2|0,3:2|0:0,0:0:0:0:
231,255,45577,2,0,L|161:278,1,50,8|0,0:2|1:0,0:0:0:0:
214,99,45749,2,0,P|276:173|275:208,1,120,2|0,3:2|1:0,0:0:0:0:
231,255,46091,6,0,B|286:241|286:241|345:262|345:262|379:244|379:244|405:255|445:247,1,200,8|2,0:2|0:2,0:0:0:0:
474,93,46606,5,2,0:2:0:0:
474,93,46691,1,2,0:2:0:0:
474,93,46777,2,0,B|426:42|426:42|416:184,1,200,0|2,3:2|0:2,0:0:0:0:
509,264,47291,2,0,L|499:166,1,59.9999981689454,2|0,3:2|1:0,0:0:0:0:
407,274,47463,2,0,L|400:341,1,50,8|2,0:2|0:2,0:0:0:0:
401,323,47977,6,0,B|305:292|332:350|245:323,1,150.000005722046,2|8,3:2|0:2,0:0:0:0:
179,269,48491,2,0,L|79:275,1,89.9999972534181,2|0,3:2|1:0,0:0:0:0:
277,133,48834,6,0,L|376:139,1,75.0000028610231,8|0,0:2|1:0,0:0:0:0:
150,192,49006,2,0,L|79:195,1,40,2|0,3:2|1:0,0:0:0:0:
304,220,49177,6,0,L|403:226,1,75.0000028610231,8|0,0:2|1:0,0:0:0:0:
121,115,49349,2,0,L|50:118,1,40,0|0,3:2|1:0,0:0:0:0:
255,325,49520,6,0,L|364:318,1,100,6|0,3:2|1:2,0:0:0:0:
139,240,60149,6,0,L|145:309,1,50,2|2,0:2|0:2,0:0:0:0:
229,147,60491,1,2,3:2:0:0:
229,147,60834,1,2,3:2:0:0:
258,255,61177,2,0,P|215:223|138:235,1,120,8|0,0:2|1:0,0:0:0:0:
139,240,61520,2,0,P|118:237|96:228,1,25,2|0,3:2|1:0,0:0:0:0:
229,147,61691,6,0,P|232:89|211:33,1,100,2|8,3:2|0:2,0:0:0:0:
134,160,62206,2,0,P|155:112|151:79,1,69.9999978637696,2|0,3:2|0:2,0:0:0:0:
75,103,62549,1,8,0:2:0:0:
187,324,62891,6,0,L|264:317,1,69.9999978637696,2|2,0:2|3:2,0:0:0:0:
381,268,63234,5,2,3:2:0:0:
37,215,63406,1,2,3:2:0:0:
40,225,65291,6,0,P|96:208|113:188,1,50,0|0,0:0|1:0,0:0:0:0:
129,67,65463,2,0,P|142:144|132:170,1,72.5000022125245,2|0,3:2|1:0,0:0:0:0:
242,309,65634,6,0,P|179:285|288:249,1,262.500002503395,10|0,0:2|1:0,0:0:0:0:
249,327,65977,6,0,B|228:315|195:318|195:318|181:294|154:282|154:282|163:253|155:220|155:220|181:207|197:182|197:182|233:184|275:169,1,284.999992389679,6|0,3:2|1:0,0:0:0:0:
327,121,66320,6,0,P|341:155|342:203,1,75.0000028610231,10|0,0:2|1:0,0:0:0:0:
245,93,66491,2,0,P|207:88|175:69,1,55.0000016784668,2|0,0:2|1:0,0:0:0:0:
310,35,66663,2,0,P|341:7|379:-4,1,44.999998626709,2|0,0:2|1:0,0:0:0:0:
490,21,66834,2,0,P|444:-2|414:-4,1,44.999998626709,2|0,3:2|1:0,0:0:0:0:
327,121,67006,6,0,P|387:104|418:111,1,59.9999981689454,10|0,0:2|1:0,0:0:0:0:
500,251,67177,2,0,P|420:234|406:224,1,59.9999981689454,2|0,0:2|1:0,0:0:0:0:
465,101,67349,2,0,P|479:128|484:158,1,59.9999981689454,0|0,0:0|1:0,0:0:0:0:
339,250,67520,2,0,P|343:220|357:193,1,59.9999981689454,0|0,3:2|1:0,0:0:0:0:
467,336,67691,6,0,L|363:329,1,75.0000028610231,10|0,0:2|1:0,0:0:0:0:
228,375,67863,2,0,L|308:369,1,44.999998626709,2|0,0:2|1:0,0:0:0:0:
339,250,68034,6,0,L|235:243,1,75.0000028610231,2|0,0:2|1:0,0:0:0:0:
98,343,68206,2,0,L|178:337,1,44.999998626709,2|0,3:2|1:0,0:0:0:0:
184,186,68377,6,0,P|170:220|168:257,1,75.0000028610231,10|0,0:2|1:0,0:0:0:0:
315,166,68549,2,0,P|273:148|250:150,1,44.999998626709,2|0,0:2|1:0,0:0:0:0:
46,220,68720,6,0,P|156:217|187:178,1,129.999994049073,2|0,3:2|0:2,0:0:0:0:
106,78,68977,1,0,0:0:0:0:
106,78,69063,6,0,L|95:163,1,64.9999970245363,10|0,0:2|1:0,0:0:0:0:
197,52,69234,2,0,L|187:130,1,55.0000016784668,2|0,0:2|1:0,0:0:0:0:
308,86,69406,6,0,L|316:159,1,44.999998626709,2|0,0:2|1:0,0:0:0:0:
390,105,69577,2,0,L|395:155,1,34.9999989318848,2|0,3:2|1:0,0:0:0:0:
293,233,69749,6,0,P|360:206|381:209,1,59.9999981689454,10|0,0:2|1:0,0:0:0:0:
423,327,69920,2,0,P|412:251|286:289,1,202.500000772476,2|0,0:2|1:0,0:0:0:0:
308,384,70263,6,0,P|292:336|238:312,1,67.5000002574921,2|0,3:2|1:0,0:0:0:0:
33,305,70434,2,0,B|91:315|91:315|131:289|131:289|179:294|179:294|232:255,1,198.750008339882,8|0,0:2|1:0,0:0:0:0:
143,141,70777,6,0,L|155:220,1,66.2500027799608,2|0,0:2|0:0,0:0:0:0:
308,184,70949,2,0,L|313:130,4,33.1250013899804,0|0|0|0|12,3:2|3:2|3:2|3:2|3:2,0:0:0:0:
323,194,71463,6,0,B|290:130|319:35|319:35|296:93|255:123,1,268.500003687286,6|0,3:2|1:0,0:0:0:0:
292,277,71806,6,0,P|328:281|364:270,1,75.0000028610231,10|0,0:2|1:0,0:0:0:0:
206,257,71977,2,0,P|205:303|215:330,1,55.0000016784668,2|0,0:2|1:0,0:0:0:0:
448,293,72149,6,0,P|470:263|481:230,1,64.9999970245363,2|0,0:2|1:0,0:0:0:0:
387,357,72320,2,0,P|426:380|451:382,1,50,2|0,3:2|1:0,0:0:0:0:
480,139,72491,6,0,P|438:146|402:178,1,69.9999978637696,10|0,0:2|1:0,0:0:0:0:
267,74,72663,2,0,P|309:67|345:35,1,69.9999978637696,0|0,0:2|1:0,0:0:0:0:
341,213,72834,2,0,P|334:171|302:135,1,69.9999978637696,0|0,0:0|1:0,0:0:0:0:
406,0,73006,2,0,P|413:42|445:78,1,69.9999978637696,0|0,3:2|1:0,0:0:0:0:
267,74,73177,6,0,P|309:67|345:35,1,69.9999978637696,10|0,0:2|1:0,0:0:0:0:
480,139,73349,2,0,P|438:146|402:178,1,69.9999978637696,2|0,0:2|1:0,0:0:0:0:
294,285,73520,6,0,P|328:299|361:299,1,50,2|0,0:2|1:0,0:0:0:0:
439,300,73691,2,0,P|434:263|417:234,1,50,2|0,3:2|1:0,0:0:0:0:
233,222,73863,6,0,P|206:269|205:292,1,59.9999981689454,10|0,0:2|1:0,0:0:0:0:
325,334,74034,2,0,P|297:287|278:274,1,59.9999981689454,2|0,0:2|1:0,0:0:0:0:
118,341,74206,6,0,P|172:332|217:274,1,129.999994049073,2|0,3:2|0:2,0:0:0:0:
63,262,74463,1,0,0:0:0:0:
63,262,74549,6,0,L|147:250,1,64.9999970245363,10|0,0:2|1:0,0:0:0:0:
262,154,74720,2,0,L|202:145,1,55.0000016784668,2|0,0:2|1:0,0:0:0:0:
84,179,74891,2,0,L|140:171,1,44.999998626709,2|0,0:2|1:0,0:0:0:0:
152,55,75063,6,0,L|150:104,1,34.9999989318848,2|0,3:2|1:0,0:0:0:0:
314,95,75234,2,0,L|309:36,1,59.9999981689454,10|0,0:2|1:0,0:0:0:0:
451,193,75406,6,0,L|450:159,1,34.9999989318848,2|0,3:2|1:0,0:0:0:0:
207,146,75577,2,0,L|201:205,1,59.9999981689454,8|0,0:2|1:0,0:0:0:0:
373,344,75749,5,2,3:2:0:0:
317,292,75834,2,0,L|323:233,1,59.9999981689454,8|0,0:2|0:0,0:0:0:0:
467,87,76006,5,0,3:2:0:0:
394,113,76091,1,10,3:2:0:0:
314,96,76177,2,0,L|275:103,1,29.9999990844727,0|0,0:0|0:0,0:0:0:0:
240,72,76263,2,0,L|201:79,1,29.9999990844727,0|0,3:2|3:2,0:0:0:0:
140,114,76349,2,0,L|101:121,1,29.9999990844727,0|0,3:2|0:0,0:0:0:0:
66,90,76434,2,0,L|27:97,2,29.9999990844727,2|0|0,3:2|0:0|3:2,0:0:0:0:
301,198,76606,5,8,3:2:0:0:
391,191,76691,2,0,L|457:197,2,59.9999981689454,0|2|0,3:2|3:2|3:2,0:0:0:0:
56,320,76949,6,0,B|108:333|151:288|151:288|189:298|189:298|221:278|221:278|276:312|329:286,1,284.999992389679,6|0,3:2|1:0,0:0:0:0:
84,167,77291,6,0,P|78:240|84:260,1,75.0000028610231,10|0,0:2|1:0,0:0:0:0:
243,360,77463,2,0,P|236:299|214:265,1,69.9999978637696,2|0,0:2|1:0,0:0:0:0:
212,142,77634,6,0,P|169:169|158:189,1,59.9999981689454,2|0,0:2|1:0,0:0:0:0:
302,125,77806,2,0,P|296:85|287:65,1,50,2|0,3:2|1:0,0:0:0:0:
274,217,77977,6,0,B|343:212,1,67.5000002574921,10|0,0:2|1:0,0:0:0:0:
480,278,78149,2,0,L|432:276,1,40,2|0,0:2|1:0,0:0:0:0:
390,110,78320,6,0,L|460:114,1,50,0|0,0:0|1:0,0:0:0:0:
357,289,78491,2,0,L|270:295,1,69.9999978637696,0|0,3:2|1:0,0:0:0:0:
156,174,78663,6,0,P|182:216|179:271,1,75.0000028610231,10|0,0:2|1:0,0:0:0:0:
142,350,78834,2,0,P|161:326|172:300,1,44.999998626709,2|0,0:2|1:0,0:0:0:0:
142,166,79006,6,0,P|188:181|221:225,1,75.0000028610231,2|0,0:2|1:0,0:0:0:0:
275,363,79177,2,0,P|274:332|265:305,1,44.999998626709,2|0,3:2|1:0,0:0:0:0:
380,150,79349,6,0,P|342:162|312:192,1,80,10|0,0:2|1:0,0:0:0:0:
142,350,79520,2,0,P|105:348|84:339,1,50,2|0,0:2|1:0,0:0:0:0:
384,236,79691,6,0,P|431:292|418:372,1,129.999994049073,2|0,3:2|0:2,0:0:0:0:
295,314,79949,1,0,0:0:0:0:
295,314,80034,6,0,L|371:318,1,55.0000016784668,10|0,0:2|1:0,0:0:0:0:
227,119,80206,2,0,L|290:114,1,44.999998626709,2|0,0:2|1:0,0:0:0:0:
174,303,80377,6,0,L|221:306,1,34.9999989318848,2|0,0:2|1:0,0:0:0:0:
398,102,80549,2,0,L|331:110,1,50,2|0,3:2|1:0,0:0:0:0:
324,231,80720,6,0,L|409:237,1,59.9999981689454,10|0,0:2|1:0,0:0:0:0:
132,148,80891,2,0,B|87:105|87:105|244:120,1,202.500000772476,2|0,0:2|1:0,0:0:0:0:
398,102,81234,6,0,P|409:143|400:193,1,67.5000002574921,0|0,3:2|1:0,0:0:0:0:
250,267,81406,2,0,P|297:245|267:336,1,199.499991780854,10|0,0:2|1:0,0:0:0:0:
141,197,81749,6,0,L|98:202,1,36.5000010025025,2|0,0:2|1:0,0:0:0:0:
245,31,81920,2,0,L|301:37,1,50,2|0,3:2|1:0,0:0:0:0:
105,120,82091,6,0,L|10:127,1,75.0000028610231,10|0,0:2|0:0,0:0:0:0:
244,230,82263,2,0,L|306:238,3,37.5000014305115,0|0|0|0,3:2|3:0|3:2|3:0,0:0:0:0:
152,348,82434,5,14,3:2:0:0:
141,197,82606,1,0,0:2:0:0:
235,314,82777,5,10,0:2:0:0:
223,216,82949,1,2,0:2:0:0:
333,252,83120,5,8,0:2:0:0:
321,350,83292,1,0,0:2:0:0:
415,233,83463,5,10,0:2:0:0:
404,384,83635,1,2,0:2:0:0:
333,252,83806,5,8,0:2:0:0:
404,384,83977,1,2,3:2:0:0:
415,233,84149,5,8,0:2:0:0:
321,350,84320,1,2,3:2:0:0:
223,216,84491,5,8,0:2:0:0:
152,348,84662,1,0,3:2:0:0:
141,197,84834,5,8,0:2:0:0:
235,314,85006,2,0,L|296:310,1,50,0|0,3:2|3:2,0:0:0:0:
63,258,85177,5,14,3:2:0:0:
374,302,85349,1,8,3:2:0:0:
69,242,85520,5,10,3:2:0:0:
396,215,85691,1,10,3:2:0:0:
75,226,85863,5,8,3:2:0:0:
418,128,86034,1,10,3:2:0:0:
81,210,86206,5,8,3:2:0:0:
440,41,86377,1,10,3:2:0:0:
440,357,86549,5,10,0:2:0:0:
404,381,86634,1,0,3:2:0:0:
361,385,86720,1,0,3:2:0:0:
321,367,86806,1,0,3:2:0:0:
295,333,86891,1,10,0:2:0:0:
268,298,86977,1,0,3:2:0:0:
229,281,87063,1,0,3:0:0:0:
186,284,87149,1,0,3:0:0:0:
150,309,87234,5,10,0:2:0:0:
209,304,87319,1,0,3:2:0:0:
268,298,87405,1,0,3:2:0:0:
327,293,87491,1,0,3:2:0:0:
386,287,87577,1,14,3:2:0:0:
386,287,87920,6,0,B|322:279|322:279|291:292|291:292|229:283,1,150,6|0,3:2|1:0,0:0:0:0:
151,176,88263,6,0,P|166:210|164:247,1,59.9999981689454,10|0,0:2|1:0,0:0:0:0:
118,360,88434,2,0,P|139:330|172:313,1,59.9999981689454,2|0,0:2|1:0,0:0:0:0:
296,299,88606,2,0,P|259:294|228:274,1,59.9999981689454,2|0,0:2|1:0,0:0:0:0:
86,222,88777,2,0,P|49:226|18:246,1,59.9999981689454,2|0,3:2|1:0,0:0:0:0:
290,214,88949,6,0,B|338:103|256:140|299:8,1,200,14|0,0:2|0:0,0:0:0:0:
385,167,89463,2,0,P|382:121|373:99,1,50,0|0,3:2|1:0,0:0:0:0:
212,27,89634,2,0,P|205:94|224:157,1,120,10|0,0:2|1:0,0:0:0:0:
295,232,89977,6,0,L|353:228,1,50,2|0,0:2|1:0,0:0:0:0:
171,297,90149,2,0,L|113:293,1,50,2|0,3:2|1:0,0:0:0:0:
290,372,90320,2,0,L|381:368,1,89.9999972534181,10|2,0:2|0:2,0:0:0:0:
121,293,90663,6,0,B|26:299|26:299|69:263,1,134.999995880127,6|0,3:2|1:0,0:0:0:0:
200,254,91006,6,0,P|208:304|200:331,1,55.0000016784668,10|0,0:2|1:0,0:0:0:0:
326,325,91177,2,0,P|286:356|259:363,1,55.0000016784668,2|0,0:2|1:0,0:0:0:0:
127,205,91349,6,0,L|121:142,1,55.0000016784668,2|0,0:2|1:0,0:0:0:0:
302,197,91520,2,0,L|296:260,1,55.0000016784668,2|0,3:2|1:0,0:0:0:0:
44,189,91691,2,0,L|38:126,1,55.0000016784668,14|0,0:2|1:0,0:0:0:0:
177,20,91863,6,0,P|242:37|202:97,1,150,0|0,0:0|1:0,0:0:0:0:
182,108,92206,2,0,L|122:104,1,50,0|0,3:2|1:0,0:0:0:0:
280,33,92377,6,0,B|416:16|416:16|474:48,1,179.999994506836,10|0,0:2|1:0,0:0:0:0:
453,36,92720,6,0,P|438:2|440:-44,1,62.5,2|0,0:0|1:0,0:0:0:0:
424,122,92891,2,0,P|401:152|360:174,1,62.5,2|0,0:0|1:0,0:0:0:0:
512,104,93063,2,0,P|535:132|487:249,1,150.000005722046,10|0,0:2|3:2,0:0:0:0:
421,281,93320,2,0,L|364:276,2,37.5000014305115,0|0|6,3:2|3:2|3:2,0:0:0:0:
310,203,93577,5,2,0:2:0:0:
325,355,93749,1,8,3:2:0:0:
325,355,94091,5,0,3:2:0:0:
310,203,94263,1,2,0:2:0:0:
171,301,94434,1,12,3:2:0:0:
171,301,94777,5,0,3:2:0:0:
314,365,94949,1,2,0:2:0:0:
92,384,95120,1,8,3:2:0:0:
92,384,95463,5,0,3:2:0:0:
171,301,95634,1,2,0:2:0:0:
66,131,95806,1,8,3:2:0:0:
66,131,96149,5,4,3:2:0:0:
92,384,96320,1,2,3:2:0:0:
134,15,96491,5,8,3:2:0:0:
232,253,96663,1,2,3:2:0:0:
225,145,96834,1,0,3:2:0:0:
134,305,97006,1,2,3:2:0:0:
476,225,97177,5,8,3:2:0:0:
225,145,97349,1,2,3:2:0:0:
232,253,97520,1,0,3:2:0:0:
236,247,98377,6,0,P|235:206|211:165,1,75.0000028610231,0|0,3:2|1:0,0:0:0:0:
69,225,98549,2,0,P|89:286|210:186,1,300,8|0,0:2|1:0,0:0:0:0:
176,384,98891,5,4,3:2:0:0:
