osu file format v14

[General]
AudioFilename: Audio.mp3
AudioLeadIn: 0
PreviewTime: 98536
Countdown: 0
SampleSet: Soft
StackLeniency: 0.7
Mode: 0
LetterboxInBreaks: 0
WidescreenStoryboard: 1

[Editor]
Bookmarks: 53869,67203,77869,80036,88536
DistanceSpacing: 2
BeatDivisor: 4
GridSize: 4
TimelineZoom: 1.1

[Metadata]
Title:SUPERORBITAL (kamome sano remix)
TitleUnicode:SUPERORBITAL (kamome sano remix)
Artist:tomatomerde & kamome sano
ArtistUnicode:tomatomerde & kamome sano
Creator:a_point
Version:Insane
Source:J-DnB Mix (Master) - Asterisk
Tags:J-DNB Mix SUPERORBITAL おかえりなさい okaerinasai welcome back kamome sano tomatomerde 沙野カモメ カモメサノ DNB drum'n'bass drum and bass drum n and bass remix a_point
BeatmapID:1521510
BeatmapSetID:719514

[Difficulty]
HPDrainRate:6
CircleSize:4
OverallDifficulty:7.5
ApproachRate:9
SliderMultiplier:1.6
SliderTickRate:1

[Events]
//Background and Video events
0,0,"BG (2).jpg",0,0
//Break Periods
2,78069,85269
//Storyboard Layer 0 (Background)
//Storyboard Layer 1 (Fail)
//Storyboard Layer 2 (Pass)
//Storyboard Layer 3 (Foreground)
//Storyboard Sound Samples

[TimingPoints]
52,340.909090909091,4,2,1,10,1,0
52,-125,4,2,1,20,0,0
222,-125,4,2,1,10,0,0
2779,-125,4,2,1,15,0,0
5506,-125,4,2,1,20,0,0
8233,-125,4,2,1,25,0,0
10961,-125,4,2,1,30,0,0
13688,-125,4,2,1,35,0,0
16415,-125,4,2,1,40,0,0
19142,-125,4,2,1,45,0,0
21529,-100,4,2,2,60,0,0
21870,333.333333333333,4,2,2,60,1,0
56536,-166.666666666667,4,2,2,60,0,0
85869,-166.666666666667,4,2,2,20,0,0
87869,-166.666666666667,4,2,2,60,0,0
88536,-125,4,2,2,60,0,0
95203,-156.25,4,2,2,60,0,0
96536,-125,4,2,2,60,0,0
99203,-83.3333333333333,4,2,2,60,0,1
120536,-100,4,2,1,60,0,0
130869,-100,4,2,2,60,0,0
131036,-100,4,2,1,60,0,0

[Colours]
Combo1 : 170,170,255
Combo2 : 128,255,150
Combo3 : 128,252,255
Combo4 : 255,128,143

[HitObjects]
88,188,52,6,0,L|244:180,1,128,0|8,3:0|0:0,0:0:0:0:
328,224,563,1,2,0:0:0:0:
328,224,648,1,0,0:0:0:0:
327,224,733,2,0,P|316:253|317:285,1,64,2|4,0:0|0:0,0:0:0:0:
416,175,1074,2,0,P|395:151|368:136,1,64,8|2,0:0|0:0,0:0:0:0:
416,272,1415,6,0,P|467:256|487:235,1,64,4|2,0:0|0:0,0:0:0:0:
416,176,1756,1,8,0:0:0:0:
328,224,1927,1,2,0:0:0:0:
328,224,2012,1,2,0:0:0:0:
328,224,2097,1,2,0:0:0:0:
252,151,2267,2,0,P|260:121|259:89,1,64,4|8,0:0|0:0,0:0:0:0:
180,108,2608,1,0,0:0:0:0:
244,232,2779,5,4,0:0:0:0:
260,76,2949,1,2,0:0:0:0:
180,108,3120,2,0,L|177:172,1,64,8|2,0:0|0:0,0:0:0:0:
132,40,3461,1,2,0:0:0:0:
88,124,3631,2,0,L|84:200,1,64,4|8,0:0|0:0,0:0:0:0:
180,276,3972,1,2,0:0:0:0:
108,332,4142,6,0,L|36:328,2,64,4|2|8,0:0|0:0|0:0,0:0:0:0:
252,324,4654,1,2,0:0:0:0:
252,324,4739,1,2,0:0:0:0:
252,324,4824,1,2,0:0:0:0:
164,192,4995,1,4,0:0:0:0:
260,300,5165,1,8,0:0:0:0:
180,276,5336,1,0,0:0:0:0:
248,220,5506,5,4,0:0:0:0:
424,304,5847,1,8,0:0:0:0:
356,224,6017,2,0,P|360:188|352:152,1,64,2|2,0:0|0:0,0:0:0:0:
264,64,6358,2,0,P|260:100|268:136,1,64,4|8,0:0|0:0,0:0:0:0:
352,36,6699,1,2,0:0:0:0:
176,92,6870,6,0,P|132:88|104:92,1,64,4|2,0:0|0:0,0:0:0:0:
8,192,7211,2,0,P|52:196|80:192,1,64,8|2,0:0|0:0,0:0:0:0:
71,193,7466,1,2,0:0:0:0:
71,193,7552,1,0,0:0:0:0:
177,200,7722,2,0,L|172:264,1,64,4|8,0:0|0:0,0:0:0:0:
176,92,8063,1,2,0:0:0:0:
288,200,8233,5,4,0:0:0:0:
268,112,8404,2,0,L|272:40,1,64,2|8,0:0|0:0,0:0:0:0:
352,132,8745,1,2,0:0:0:0:
352,132,8830,1,2,0:0:0:0:
352,132,8915,1,2,0:0:0:0:
176,92,9086,1,4,0:0:0:0:
288,200,9256,2,0,L|292:284,1,64,8|2,0:0|0:0,0:0:0:0:
368,320,9597,6,0,P|412:332|448:320,2,64,4|2|8,0:0|0:0|0:0,0:0:0:0:
216,316,10108,1,2,0:0:0:0:
216,316,10194,1,2,0:0:0:0:
216,316,10279,1,4,0:0:0:0:
288,200,10449,1,4,0:0:0:0:
292,280,10620,1,8,0:0:0:0:
216,232,10790,1,4,0:0:0:0:
360,236,10961,6,0,B|368:144|368:144|352:96,1,128,4|8,3:0|0:0,0:0:0:0:
248,72,11472,2,0,P|208:72|168:96,1,64,2|2,0:0|0:0,0:0:0:0:
160,168,11813,2,0,P|180:202|220:225,1,64,4|8,0:0|0:0,0:0:0:0:
288,200,12154,2,0,P|308:165|307:118,1,64,2|4,0:0|0:0,0:0:0:0:
216,316,12665,5,8,0:0:0:0:
232,148,12836,1,2,0:0:0:0:
232,148,12921,1,2,0:0:0:0:
232,148,13006,1,2,0:0:0:0:
296,236,13177,2,0,P|336:248|360:248,1,64,4|8,0:0|0:0,0:0:0:0:
428,184,13517,1,2,0:0:0:0:
348,172,13688,6,0,P|336:136|344:92,1,64,4|2,0:0|0:0,0:0:0:0:
416,40,14029,2,0,P|428:76|420:120,1,64,8|2,0:0|0:0,0:0:0:0:
426,101,14284,1,2,0:0:0:0:
426,101,14370,1,2,0:0:0:0:
300,76,14540,1,4,0:0:0:0:
348,172,14711,1,8,0:0:0:0:
288,240,14881,1,2,0:0:0:0:
236,136,15052,6,0,L|168:132,1,64,4|2,0:0|0:0,0:0:0:0:
116,68,15392,2,0,L|40:64,1,64,8|2,0:0|0:0,0:0:0:0:
52,64,15648,1,2,0:0:0:0:
52,64,15734,1,2,0:0:0:0:
24,152,15904,2,0,P|20:200|24:220,1,64,4|8,0:0|0:0,0:0:0:0:
84,288,16245,1,2,0:0:0:0:
104,184,16415,6,0,P|144:184|168:204,1,64,4|2,0:0|0:0,0:0:0:0:
216,276,16756,2,0,P|243:291|274:289,1,64,8|2,0:0|0:0,0:0:0:0:
274,289,17012,1,2,0:0:0:0:
274,289,17097,1,2,0:0:0:0:
276,212,17267,1,4,0:0:0:0:
224,360,17438,1,8,0:0:0:0:
352,320,17608,1,2,0:0:0:0:
435,284,17779,6,0,L|432:348,1,64,4|2,0:0|0:0,0:0:0:0:
352,240,18120,2,0,L|356:164,1,64,8|2,0:0|0:0,0:0:0:0:
472,44,18461,1,2,0:0:0:0:
376,152,18631,1,4,0:0:0:0:
448,72,18802,1,8,0:0:0:0:
320,20,18972,1,2,0:0:0:0:
360,200,19142,5,4,0:0:0:0:
364,188,19483,1,4,0:0:0:0:
368,176,19824,1,4,0:0:0:0:
372,164,20165,1,4,0:0:0:0:
376,152,20506,5,4,0:0:0:0:
260,192,20677,1,4,0:0:0:0:
400,144,20847,1,4,0:0:0:0:
360,256,21017,1,4,0:0:0:0:
304,100,21188,1,4,0:0:0:0:
368,276,21358,1,4,0:0:0:0:
240,200,21529,5,8,0:0:0:0:
432,136,21699,1,2,0:0:0:0:
368,276,21870,6,0,B|328:304|328:304|208:284,1,160,4|8,3:0|0:0,0:0:0:0:
152,220,22370,2,0,P|144:176|144:136,1,80,2|2,0:0|0:0,0:0:0:0:
232,168,22703,1,4,0:0:0:0:
80,272,22870,1,8,0:0:0:0:
80,272,23036,2,0,P|72:228|72:188,1,80,2|2,0:0|0:0,0:0:0:0:
152,220,23370,5,4,0:0:0:0:
0,168,23536,1,8,0:0:0:0:
104,108,23703,1,2,0:0:0:0:
104,108,23869,2,0,L|108:28,1,80,2|4,0:0|0:0,0:0:0:0:
232,168,24203,2,0,L|228:248,1,80,8|2,0:0|0:0,0:0:0:0:
304,304,24536,6,0,L|316:128,1,160,4|8,3:0|0:0,0:0:0:0:
392,176,25036,2,0,L|388:256,1,80,2|2,0:0|0:0,0:0:0:0:
324,60,25369,1,4,0:0:0:0:
232,168,25536,2,0,P|184:184|144:168,1,80,8|2,0:0|0:0,0:0:0:0:
157,176,25786,1,2,0:0:0:0:
157,176,25869,1,2,0:0:0:0:
56,116,26036,5,4,0:0:0:0:
48,240,26203,2,0,P|32:292|40:320,1,80,8|2,0:0|0:0,0:0:0:0:
164,184,26536,1,4,0:0:0:0:
188,296,26703,1,8,0:0:0:0:
204,292,26786,1,8,0:0:0:0:
220,288,26869,1,8,0:0:0:0:
236,284,26953,1,8,0:0:0:0:
252,280,27036,1,4,0:0:0:0:
328,344,27203,6,0,B|340:300|340:300|316:176,1,160,4|8,3:0|0:0,0:0:0:0:
256,280,27703,2,0,L|176:300,1,80,2|2,0:0|0:0,0:0:0:0:
88,244,28036,1,4,0:0:0:0:
164,184,28203,1,8,0:0:0:0:
256,196,28369,2,0,L|336:176,1,80,2|2,0:0|0:0,0:0:0:0:
424,204,28703,6,0,P|424:152|408:116,1,80,4|8,0:0|0:0,0:0:0:0:
308,100,29036,1,2,0:0:0:0:
307,99,29203,2,0,P|268:96|234:114,1,80,2|4,0:0|0:0,0:0:0:0:
231,267,29536,2,0,P|254:235|256:196,1,80,8|2,0:0|0:0,0:0:0:0:
126,119,29869,6,0,P|142:155|176:176,1,80,4|2,3:0|0:0,0:0:0:0:
216,92,30203,1,8,0:0:0:0:
280,156,30369,1,2,0:0:0:0:
280,156,30536,1,2,0:0:0:0:
380,76,30703,2,0,L|388:164,1,80,4|8,0:0|0:0,0:0:0:0:
336,248,31036,1,2,0:0:0:0:
336,248,31119,1,2,0:0:0:0:
336,248,31203,1,2,0:0:0:0:
232,232,31369,5,4,0:0:0:0:
432,260,31536,1,8,0:0:0:0:
336,248,31703,1,2,0:0:0:0:
364,160,31869,1,4,0:0:0:0:
312,336,32036,1,8,0:0:0:0:
336,248,32203,1,8,0:0:0:0:
336,248,32286,1,2,0:0:0:0:
336,248,32369,1,4,0:0:0:0:
232,232,32536,6,0,L|60:224,1,160,4|8,3:0|0:0,0:0:0:0:
24,148,33036,2,0,P|20:104|32:56,1,80,2|2,0:0|0:0,0:0:0:0:
104,112,33369,1,4,0:0:0:0:
20,64,33536,1,8,0:0:0:0:
104,112,33703,1,2,0:0:0:0:
104,112,33786,1,2,0:0:0:0:
104,112,33869,1,2,0:0:0:0:
172,64,34036,2,0,L|256:56,1,80,4|8,0:0|0:0,0:0:0:0:
364,92,34369,1,0,0:0:0:0:
284,168,34536,5,2,0:0:0:0:
456,152,34703,1,4,0:0:0:0:
356,40,34869,1,8,0:0:0:0:
384,232,35036,1,2,0:0:0:0:
284,168,35203,6,0,B|244:156|244:156|100:192,1,160,4|8,3:0|0:0,0:0:0:0:
64,248,35703,2,0,P|100:272|152:272,1,80,2|2,0:0|0:0,0:0:0:0:
116,92,36036,1,4,0:0:0:0:
244,232,36203,1,8,0:0:0:0:
228,120,36369,1,2,0:0:0:0:
228,120,36453,1,2,0:0:0:0:
228,120,36536,1,2,0:0:0:0:
128,192,36703,5,4,0:0:0:0:
244,232,36869,2,0,P|304:244|344:228,1,80,8|2,0:0|0:0,0:0:0:0:
292,164,37203,1,4,0:0:0:0:
356,320,37369,1,8,0:0:0:0:
440,276,37536,2,0,P|448:236|432:188,1,80,2|4,0:0|0:0,0:0:0:0:
352,96,37869,6,0,P|328:152|372:248,1,160,4|8,3:0|0:0,0:0:0:0:
356,320,38369,2,0,P|312:328|252:312,1,80,2|2,0:0|0:0,0:0:0:0:
152,240,38703,1,4,0:0:0:0:
264,316,38869,1,8,0:0:0:0:
248,224,39036,1,2,0:0:0:0:
248,224,39119,1,2,0:0:0:0:
248,224,39203,1,2,0:0:0:0:
168,332,39369,6,0,P|128:344|84:332,1,80,4|8,0:0|0:0,0:0:0:0:
24,252,39703,1,2,0:0:0:0:
24,252,39869,2,0,L|32:168,1,80,2|4,0:0|0:0,0:0:0:0:
136,56,40203,2,0,L|128:140,1,80,8|2,0:0|0:0,0:0:0:0:
176,212,40536,6,0,P|224:236|316:176,1,160,4|8,3:0|0:0,0:0:0:0:
236,156,41036,2,0,B|224:116|224:116|224:72,1,80,2|2,0:0|0:0,0:0:0:0:
296,24,41369,1,4,0:0:0:0:
412,104,41536,1,8,0:0:0:0:
316,116,41703,1,2,0:0:0:0:
316,116,41786,1,2,0:0:0:0:
316,116,41869,1,4,0:0:0:0:
196,64,42036,5,2,0:0:0:0:
196,64,42119,1,2,0:0:0:0:
196,64,42203,1,4,0:0:0:0:
236,156,42369,5,2,0:0:0:0:
236,156,42453,1,2,0:0:0:0:
236,156,42536,1,4,0:0:0:0:
296,24,42703,5,2,0:0:0:0:
296,24,42786,1,2,0:0:0:0:
296,24,42869,1,8,0:0:0:0:
128,144,43036,2,0,L|80:144,1,40,4|4,0:0|0:0,0:0:0:0:
48,152,43203,6,0,P|36:200|96:296,1,160,4|8,3:0|0:0,0:0:0:0:
177,273,43703,2,0,P|174:312|156:348,1,80,2|2,0:0|0:0,0:0:0:0:
128,144,44036,1,4,0:0:0:0:
288,192,44203,2,0,P|332:208|372:188,1,80,8|2,0:0|0:0,0:0:0:0:
388,188,44453,1,2,0:0:0:0:
416,188,44536,2,0,P|456:176|504:196,1,80,2|4,0:0|0:0,0:0:0:0:
364,288,44869,5,8,0:0:0:0:
336,124,45036,2,0,B|344:72|344:72|336:40,1,80,2|2,0:0|0:0,0:0:0:0:
128,144,45369,2,0,B|120:196|120:196|128:228,1,80,4|8,0:0|0:0,0:0:0:0:
216,180,45703,1,2,0:0:0:0:
216,180,45786,1,2,0:0:0:0:
216,180,45869,6,0,L|208:8,1,160,4|8,3:0|0:0,0:0:0:0:
128,64,46369,2,0,L|48:68,1,80,2|2,0:0|0:0,0:0:0:0:
296,60,46703,2,0,L|376:64,1,80,4|8,0:0|0:0,0:0:0:0:
214,155,47036,1,2,0:0:0:0:
214,155,47119,1,2,0:0:0:0:
214,155,47203,1,2,0:0:0:0:
212,76,47369,6,0,L|216:184,1,80,4|8,0:0|0:0,0:0:0:0:
316,216,47703,2,0,P|360:216|400:240,1,80,2|4,0:0|0:0,0:0:0:0:
368,344,48036,2,0,P|324:344|284:320,1,80,8|8,0:0|0:0,0:0:0:0:
292,327,48286,1,8,0:0:0:0:
292,327,48369,1,4,0:0:0:0:
208,268,48536,6,0,B|160:252|160:252|48:284,1,160,4|8,3:0|0:0,0:0:0:0:
88,356,49036,2,0,L|168:332,1,80,2|2,0:0|0:0,0:0:0:0:
54,282,49369,1,4,0:0:0:0:
200,188,49536,2,0,P|208:148|196:108,1,80,8|2,0:0|0:0,0:0:0:0:
120,40,49869,1,2,0:0:0:0:
200,188,50036,5,4,0:0:0:0:
64,148,50203,1,8,0:0:0:0:
224,84,50369,2,0,B|276:72|276:72|336:88,1,80,2|2,0:0|0:0,0:0:0:0:
408,188,50703,2,0,B|356:200|356:200|296:184,1,80,4|8,0:0|0:0,0:0:0:0:
224,84,51036,1,2,0:0:0:0:
200,188,51203,6,0,B|176:288|176:288|204:344,1,160,4|8,3:0|0:0,0:0:0:0:
264,276,51703,2,0,P|304:288|348:272,1,80,4|2,0:0|0:0,0:0:0:0:
200,188,52036,1,4,0:0:0:0:
72,292,52203,2,0,L|76:248,1,40,8|4,0:0|0:0,0:0:0:0:
100,176,52369,2,0,L|104:136,1,40,8|4,0:0|0:0,0:0:0:0:
72,48,52536,5,4,0:0:0:0:
72,48,52703,1,4,0:0:0:0:
184,160,52869,1,8,0:0:0:0:
192,56,53036,5,4,0:0:0:0:
100,176,53203,1,8,0:0:0:0:
264,140,53369,5,4,0:0:0:0:
252,256,53536,1,8,0:0:0:0:
212,268,53619,1,8,0:0:0:0:
172,280,53703,1,4,0:0:0:0:
136,292,53786,1,8,0:0:0:0:
96,304,53869,5,8,0:0:0:0:
184,160,54036,1,8,0:0:0:0:
252,256,54203,1,4,0:0:0:0:
252,256,54286,1,4,0:0:0:0:
252,256,54369,5,12,0:0:0:0:
100,176,54536,1,8,0:0:0:0:
212,56,54703,1,4,0:0:0:0:
212,56,54786,1,4,0:0:0:0:
212,56,54869,1,12,0:0:0:0:
264,140,55036,5,8,0:0:0:0:
116,76,55203,1,4,0:0:0:0:
116,76,55286,1,4,0:0:0:0:
116,76,55369,5,12,0:0:0:0:
184,160,55536,1,8,0:0:0:0:
296,36,55703,5,2,0:0:0:0:
408,104,55869,2,0,P|416:152|408:184,1,80,2|2,0:0|0:0,0:0:0:0:
324,300,56203,2,0,P|316:252|324:220,1,80,4|2,1:0|0:0,0:0:0:0:
408,264,56536,6,0,L|508:268,1,95.9999970703126,8|2,1:0|0:0,0:0:0:0:
464,180,57036,1,2,0:0:0:0:
408,104,57203,2,0,L|308:100,1,95.9999970703126,2|2,0:0|0:0,0:0:0:0:
280,172,57703,5,2,0:0:0:0:
164,168,57869,2,0,L|264:172,1,95.9999970703126,2|2,0:0|0:0,0:0:0:0:
292,260,58369,1,2,0:0:0:0:
408,264,58535,2,0,L|308:260,1,95.9999970703126,2|2,0:0|0:0,0:0:0:0:
182,300,59036,5,2,0:0:0:0:
182,300,59203,2,0,B|170:260|170:260|182:232|182:232|170:192|170:192|198:160|226:140|230:108|210:72|174:52|130:68|110:104|122:140|130:160|176:172,1,383.99998828125,4|2,1:0|0:0,0:0:0:0:
163,167,61203,1,8,1:0:0:0:
240,92,61536,6,0,P|280:104|304:96,1,47.9999985351563,2|2,0:0|0:0,0:0:0:0:
376,48,61869,1,4,1:0:0:0:
376,48,62203,1,2,0:0:0:0:
392,160,62369,2,0,P|352:172|328:164,1,47.9999985351563,2|0,0:0|0:0,0:0:0:0:
264,176,62703,2,0,L|268:244,1,47.9999985351563,2|0,0:0|0:0,0:0:0:0:
356,276,63036,5,2,0:0:0:0:
436,236,63203,1,2,0:0:0:0:
500,300,63369,1,2,0:0:0:0:
356,276,63703,2,0,P|312:272|288:276,1,47.9999985351563,2|0,0:0|0:0,0:0:0:0:
219,331,64036,2,0,P|195:331|172:328,1,47.9999985351563,2|0,0:0|0:0,0:0:0:0:
200,252,64369,5,2,0:0:0:0:
248,176,64536,1,4,1:0:0:0:
192,104,64703,1,2,0:0:0:0:
199,252,65036,2,0,P|176:253|152:250,1,47.9999985351563,2|0,0:0|0:0,0:0:0:0:
54,356,65369,2,0,P|65:334|80:316,1,47.9999985351563,2|0,0:0|0:0,0:0:0:0:
37,177,65703,2,0,P|50:197|60:220,1,47.9999985351563,2|0,0:0|0:0,0:0:0:0:
144,172,66036,6,0,L|140:112,1,47.9999985351563,2|0,0:0|0:0,0:0:0:0:
236,108,66369,2,0,L|232:48,1,47.9999985351563,2|0,0:0|0:0,0:0:0:0:
324,32,66703,1,2,0:0:0:0:
408,80,66869,1,2,0:0:0:0:
496,36,67036,1,2,0:0:0:0:
492,132,67203,6,0,P|496:200|484:228,1,95.9999970703126,4|2,1:0|0:0,0:0:0:0:
396,184,67703,1,2,0:0:0:0:
396,184,67786,1,2,0:0:0:0:
396,184,67869,2,0,P|392:252|404:280,1,95.9999970703126,2|2,0:0|0:0,0:0:0:0:
456,352,68369,5,2,0:0:0:0:
348,344,68536,2,0,B|320:360|320:360|248:344,1,95.9999970703126,2|2,0:0|0:0,0:0:0:0:
192,264,69036,1,2,0:0:0:0:
192,264,69203,2,0,B|220:248|220:248|292:264,1,95.9999970703126,2|2,0:0|0:0,0:0:0:0:
328,168,69703,5,2,0:0:0:0:
328,168,69869,2,0,P|328:128|320:112,1,47.9999985351563,4|0,1:0|0:0,0:0:0:0:
244,28,70203,2,0,P|244:68|252:84,1,47.9999985351563,2|0,0:0|0:0,0:0:0:0:
372,40,70536,2,0,P|332:40|316:48,1,47.9999985351563,2|0,0:0|0:0,0:0:0:0:
200,156,70869,2,0,P|240:155|256:147,1,47.9999985351563,2|0,0:0|0:0,0:0:0:0:
325,42,71203,5,2,0:0:0:0:
325,42,71536,1,2,0:0:0:0:
325,42,71869,1,8,1:0:0:0:
325,42,72203,6,2,L|328:108,1,47.9999985351563
404,152,72536,1,4,1:0:0:0:
404,152,72869,1,2,0:0:0:0:
404,152,73036,2,0,P|376:172|352:176,1,47.9999985351563,2|0,0:0|0:0,0:0:0:0:
208,152,73369,2,0,P|236:172|260:176,1,47.9999985351563,2|0,0:0|0:0,0:0:0:0:
248,175,73703,1,2,0:0:0:0:
312,264,73869,5,2,0:0:0:0:
312,264,74203,1,2,0:0:0:0:
312,264,74536,1,8,1:0:0:0:
312,264,74869,6,0,L|308:324,1,47.9999985351563,2|2,0:0|0:0,0:0:0:0:
168,276,75203,2,0,L|172:220,1,47.9999985351563,4|0,1:0|0:0,0:0:0:0:
80,260,75536,1,2,0:0:0:0:
80,260,75703,2,0,P|56:264|20:252,1,47.9999985351563,2|0,0:0|0:0,0:0:0:0:
56,128,76036,2,0,L|60:176,2,47.9999985351563,2|2|0,0:0|0:0|0:0,0:0:0:0:
140,72,76536,6,0,B|184:64|184:64|240:80|240:80|292:64,1,143.999995605469,2|0,0:0|0:0,0:0:0:0:
472,176,77203,2,0,B|428:168|428:168|372:184|372:184|320:168,1,143.999995605469,2|0,0:0|0:0,0:0:0:0:
279,67,77869,5,4,3:0:0:0:
256,192,85869,12,8,87869,0:0:0:0:
132,132,88536,6,0,P|192:144|216:132,1,64,4|0,3:0|0:0,0:0:0:0:
309,103,88869,2,0,P|249:91|225:103,1,64,2|0,0:0|0:0,0:0:0:0:
271,175,89203,2,0,P|267:228|273:245,1,64,2|0,0:0|0:0,0:0:0:0:
356,265,89536,2,0,P|361:233|354:202,1,64,2|0,0:0|0:0,0:0:0:0:
412,124,89869,6,0,P|406:86|415:54,1,64,2|0,0:0|0:0,0:0:0:0:
488,88,90203,1,2,0:0:0:0:
484,172,90369,5,4,0:0:0:0:
412,32,90536,1,8,0:0:0:0:
336,80,90703,2,0,P|296:80|276:64,1,64,0|2,0:0|0:0,0:0:0:0:
120,132,91036,2,0,P|160:132|180:148,1,64,4|2,0:0|0:0,0:0:0:0:
124,216,91369,5,0,0:0:0:0:
192,292,91536,1,2,0:0:0:0:
280,240,91703,1,0,0:0:0:0:
324,332,91869,1,2,0:0:0:0:
348,156,92036,1,0,0:0:0:0:
392,252,92203,1,2,0:0:0:0:
220,236,92369,5,4,0:0:0:0:
220,236,92536,2,0,L|208:108,1,128,2|2,0:0|0:0,0:0:0:0:
220,236,93036,5,4,0:0:0:0:
348,156,93203,1,8,0:0:0:0:
392,252,93369,2,0,L|396:324,1,64,0|2,0:0|0:0,0:0:0:0:
320,360,93703,1,0,0:0:0:0:
268,300,93869,6,0,B|232:312|232:312|192:304,1,64,6|2,0:0|0:0,0:0:0:0:
76,248,94203,2,0,B|112:236|112:236|152:244,1,64,2|2,0:0|0:0,0:0:0:0:
206,306,94536,1,10,0:0:0:0:
124,320,94703,2,0,L|120:384,2,64,2|2|6,0:0|0:0|0:0,0:0:0:0:
176,192,95203,6,0,P|180:156|176:128,1,51.2,2|2,0:0|0:0,0:0:0:0:
136,68,95536,2,0,P|132:32|136:8,1,51.2,2|6,0:0|0:0,0:0:0:0:
216,40,95869,1,10,0:0:0:0:
96,148,96036,2,0,L|40:144,2,51.2,2|2|2,0:0|0:0|0:0,0:0:0:0:
196,116,96536,5,6,0:0:0:0:
196,116,96703,1,2,0:0:0:0:
280,188,96869,1,2,0:0:0:0:
280,188,97036,1,2,0:0:0:0:
296,84,97203,5,6,0:0:0:0:
296,84,97370,1,2,0:0:0:0:
380,156,97536,1,2,0:0:0:0:
380,156,97703,1,2,0:0:0:0:
280,188,97869,5,4,0:0:0:0:
268,184,97953,1,0,0:0:0:0:
256,180,98036,1,0,0:0:0:0:
244,176,98119,1,0,0:0:0:0:
200,184,98203,5,4,0:0:0:0:
188,180,98286,1,0,0:0:0:0:
176,176,98369,1,0,0:0:0:0:
164,172,98453,1,0,0:0:0:0:
116,180,98536,5,6,0:0:0:0:
140,96,98703,1,2,0:0:0:0:
88,260,98869,1,4,1:0:0:0:
116,180,99036,1,2,0:0:0:0:
164,304,99203,6,0,P|212:320|260:308,1,95.9999970703126,4|4,0:0|0:0,0:0:0:0:
352,240,99536,1,8,0:0:0:0:
216,244,99703,1,2,0:0:0:0:
216,244,99786,1,2,0:0:0:0:
216,244,99869,2,0,B|220:180|220:180|240:152,1,95.9999970703126,2|4,0:0|0:0,0:0:0:0:
356,92,100203,1,8,0:0:0:0:
352,240,100369,1,2,0:0:0:0:
352,240,100453,1,2,0:0:0:0:
352,240,100536,2,0,B|348:304|348:304|328:332,1,95.9999970703126,2|4,0:0|0:0,0:0:0:0:
216,244,100869,5,8,0:0:0:0:
272,156,101036,1,2,0:0:0:0:
120,216,101203,1,2,0:0:0:0:
172,128,101369,2,0,P|180:84|144:36,1,95.9999970703126,4|8,0:0|0:0,0:0:0:0:
92,108,101703,1,2,0:0:0:0:
92,108,101786,1,2,0:0:0:0:
92,108,101869,6,0,P|104:172|216:196,1,191.999994140625,4|8,0:0|0:0,0:0:0:0:
260,120,102369,2,0,B|320:104|320:104|368:112,1,95.9999970703126,2|2,0:0|0:0,0:0:0:0:
440,48,102703,1,4,0:0:0:0:
420,196,102869,1,8,0:0:0:0:
332,192,103036,1,2,0:0:0:0:
332,192,103119,1,2,0:0:0:0:
332,192,103203,2,0,P|340:244|320:296,1,95.9999970703126,2|4,0:0|0:0,0:0:0:0:
173,244,103536,6,0,P|214:221|260:232,1,95.9999970703126,8|2,0:0|0:0,0:0:0:0:
327,284,103869,1,4,0:0:0:0:
152,240,104036,1,8,0:0:0:0:
264,128,104203,1,8,0:0:0:0:
264,128,104286,1,8,0:0:0:0:
264,128,104369,1,4,0:0:0:0:
332,192,104536,6,0,B|356:56|356:56|324:4,1,191.999994140625,4|8,0:0|0:0,0:0:0:0:
236,40,105036,1,2,0:0:0:0:
212,36,105119,1,2,0:0:0:0:
188,36,105203,1,2,0:0:0:0:
168,44,105286,1,2,0:0:0:0:
148,60,105369,1,4,0:0:0:0:
64,20,105536,2,0,P|60:88|88:132,1,95.9999970703126,8|2,0:0|0:0,0:0:0:0:
71,111,105786,1,2,0:0:0:0:
71,111,105869,1,2,0:0:0:0:
216,216,106036,6,0,P|220:148|192:104,1,95.9999970703126,4|8,0:0|0:0,0:0:0:0:
132,180,106369,2,0,P|128:248|156:292,1,95.9999970703126,2|2,0:0|0:0,0:0:0:0:
296,248,106703,1,4,0:0:0:0:
132,180,106869,1,8,0:0:0:0:
216,216,107036,1,0,0:0:0:0:
220,220,107203,6,0,B|232:156|232:156|220:100,1,95.9999970703126,4|2,0:0|0:0,0:0:0:0:
176,40,107536,1,8,0:0:0:0:
72,104,107703,2,0,L|80:220,1,95.9999970703126,2|2,0:0|0:0,0:0:0:0:
226,315,108036,2,0,L|218:199,1,95.9999970703126,4|8,0:0|0:0,0:0:0:0:
264,120,108369,1,2,0:0:0:0:
264,120,108453,1,2,0:0:0:0:
264,120,108536,1,2,0:0:0:0:
228,316,108703,5,4,0:0:0:0:
244,220,108869,2,0,B|312:228|312:228|352:220,1,95.9999970703126,8|2,0:0|0:0,0:0:0:0:
264,120,109203,1,4,0:0:0:0:
448,180,109369,1,8,0:0:0:0:
338,222,109536,1,4,1:0:0:0:
338,222,109619,1,8,0:0:0:0:
338,222,109703,1,4,0:0:0:0:
384,32,109869,6,0,B|364:92|364:92|368:136,1,95.9999970703126,4|2,0:0|0:0,0:0:0:0:
496,212,110203,1,8,0:0:0:0:
428,296,110369,1,2,0:0:0:0:
428,296,110453,1,2,0:0:0:0:
428,296,110536,2,0,B|412:232|412:232|420:176,1,95.9999970703126,2|4,0:0|0:0,0:0:0:0:
472,116,110869,1,8,0:0:0:0:
312,200,111036,1,2,0:0:0:0:
312,200,111119,1,2,0:0:0:0:
312,200,111203,2,0,P|264:220|220:204,1,95.9999970703126,2|4,0:0|0:0,0:0:0:0:
264,124,111536,5,8,0:0:0:0:
180,292,111703,1,2,0:0:0:0:
180,292,111786,1,2,0:0:0:0:
180,292,111869,1,2,0:0:0:0:
52,192,112036,2,0,B|116:184|116:184|184:208,1,95.9999970703126,4|8,0:0|0:0,0:0:0:0:
88,276,112369,1,2,0:0:0:0:
108,108,112536,5,4,0:0:0:0:
88,296,112703,1,4,0:0:0:0:
172,208,112869,1,4,0:0:0:0:
16,188,113036,1,8,0:0:0:0:
204,212,113203,1,8,0:0:0:0:
104,200,113369,1,4,0:0:0:0:
256,116,113536,2,0,P|300:124|352:104,1,95.9999970703126,4|2,3:0|0:0,0:0:0:0:
372,92,113869,5,2,0:0:0:0:
376,108,113953,1,2,0:0:0:0:
380,120,114036,1,6,0:0:0:0:
384,132,114119,1,2,0:0:0:0:
372,160,114203,5,10,0:0:0:0:
376,172,114286,1,2,0:0:0:0:
380,188,114369,1,6,0:0:0:0:
384,204,114453,1,2,0:0:0:0:
408,224,114536,5,6,0:0:0:0:
412,236,114619,1,2,0:0:0:0:
416,252,114702,1,10,0:0:0:0:
420,268,114786,1,2,0:0:0:0:
412,296,114869,6,2,L|356:292,1,47.9999985351563,6|2,0:0|0:0,0:0:0:0:
296,264,115036,2,2,L|240:260,1,47.9999985351563,6|2,0:0|0:0,0:0:0:0:
224,276,115203,6,0,L|216:156,2,95.9999970703126,4|2|8,0:0|0:0|0:0,0:0:0:0:
160,332,115703,1,2,0:0:0:0:
132,340,115786,1,2,0:0:0:0:
104,340,115869,1,2,0:0:0:0:
76,332,115953,1,2,0:0:0:0:
52,312,116036,1,4,0:0:0:0:
120,248,116203,1,8,0:0:0:0:
224,276,116369,2,0,B|228:204|228:204|248:172,1,95.9999970703126,2|2,0:0|0:0,0:0:0:0:
316,224,116703,6,0,P|364:240|412:224,1,95.9999970703126,4|8,0:0|0:0,0:0:0:0:
364,144,117036,1,2,0:0:0:0:
416,68,117203,1,2,0:0:0:0:
296,80,117369,2,0,L|176:72,1,95.9999970703126,4|8,0:0|0:0,0:0:0:0:
112,120,117703,1,2,0:0:0:0:
220,160,117869,6,0,L|204:352,1,191.999994140625,4|8,0:0|0:0,0:0:0:0:
120,244,118369,1,2,0:0:0:0:
120,244,118453,1,2,0:0:0:0:
120,244,118536,1,2,0:0:0:0:
312,256,118703,2,0,P|352:260|412:236,1,95.9999970703126,4|8,0:0|0:0,0:0:0:0:
220,160,119036,1,8,0:0:0:0:
220,160,119119,1,8,0:0:0:0:
220,160,119203,5,4,0:0:0:0:
320,56,119369,1,2,0:0:0:0:
324,84,119453,1,2,0:0:0:0:
328,112,119536,1,4,0:0:0:0:
400,156,119703,5,2,0:0:0:0:
396,184,119786,1,2,0:0:0:0:
392,212,119869,1,4,0:0:0:0:
432,296,120036,5,2,0:0:0:0:
401,298,120119,1,2,0:0:0:0:
373,293,120203,1,4,1:0:0:0:
347,285,120286,1,2,0:0:0:0:
323,268,120369,1,2,0:0:0:0:
220,160,120536,6,0,B|232:280|232:280|208:328,1,160,4|8,0:0|0:0,0:0:0:0:
148,252,121036,1,2,0:0:0:0:
148,252,121119,1,2,0:0:0:0:
148,252,121203,1,2,0:0:0:0:
320,188,121369,2,0,P|364:184|404:220,1,80,4|8,0:0|0:0,0:0:0:0:
340,264,121703,1,2,0:0:0:0:
304,108,121869,5,4,0:0:0:0:
220,160,122036,2,0,P|168:160|132:136,1,80,2|8,0:0|0:0,0:0:0:0:
196,80,122369,2,0,B|200:24|200:24|216:4,1,80,2|2,0:0|0:0,0:0:0:0:
312,124,122703,1,4,0:0:0:0:
228,24,122869,1,8,0:0:0:0:
424,68,123036,1,2,0:0:0:0:
424,68,123119,1,2,0:0:0:0:
424,68,123203,6,0,L|416:260,1,160,4|8,0:0|0:0,0:0:0:0:
336,292,123703,1,2,0:0:0:0:
312,288,123786,1,2,0:0:0:0:
288,284,123869,1,2,0:0:0:0:
264,280,123953,1,2,0:0:0:0:
240,276,124036,1,4,0:0:0:0:
312,176,124203,1,8,0:0:0:0:
356,296,124369,1,2,0:0:0:0:
300,140,124536,6,0,L|308:56,2,80,4|2|8,0:0|0:0|0:0,0:0:0:0:
212,272,125036,1,2,0:0:0:0:
212,272,125119,1,2,0:0:0:0:
212,272,125203,1,2,0:0:0:0:
136,128,125369,2,0,P|124:80|144:40,1,80,4|8,0:0|0:0,0:0:0:0:
272,92,125703,1,2,0:0:0:0:
218,192,125869,6,0,L|210:284,1,80,4|2,0:0|0:0,0:0:0:0:
84,332,126203,2,0,L|92:240,1,80,8|2,0:0|0:0,0:0:0:0:
90,252,126453,1,2,0:0:0:0:
90,252,126536,1,2,0:0:0:0:
196,128,126703,5,4,0:0:0:0:
260,276,126869,1,8,0:0:0:0:
160,232,127036,1,2,0:0:0:0:
160,232,127203,5,4,0:0:0:0:
272,92,127369,5,2,0:0:0:0:
400,168,127536,1,8,0:0:0:0:
304,180,127703,1,2,0:0:0:0:
304,180,127869,5,2,0:0:0:0:
344,52,128036,5,4,0:0:0:0:
400,168,128203,1,8,0:0:0:0:
344,276,128369,1,2,0:0:0:0:
304,180,128536,6,0,L|208:168,2,80,4|2|8,0:0|0:0|0:0,0:0:0:0:
444,240,129036,2,0,P|452:284|444:328,1,80,2|2,0:0|0:0,0:0:0:0:
228,342,129369,5,4,0:0:0:0:
231,211,129536,1,8,0:0:0:0:
344,276,129703,1,2,0:0:0:0:
344,276,129869,5,4,0:0:0:0:
231,211,130036,5,2,0:0:0:0:
234,80,130203,1,8,0:0:0:0:
347,145,130370,1,2,0:0:0:0:
347,145,130536,5,0,0:0:0:0:
231,211,130703,5,4,0:0:0:0:
109,259,130870,1,4,1:0:0:0:
123,129,131037,1,2,0:0:0:0:
231,211,131203,6,0,L|312:208,2,80,4|2|8,0:0|0:0|0:0,0:0:0:0:
109,259,131703,2,0,L|20:264,1,80,2|2,0:0|0:0,0:0:0:0:
264,76,132036,5,4,0:0:0:0:
363,178,132203,1,8,0:0:0:0:
225,215,132370,1,2,0:0:0:0:
225,215,132536,5,4,0:0:0:0:
363,178,132703,5,2,0:0:0:0:
462,281,132870,1,8,0:0:0:0:
324,318,133037,1,2,0:0:0:0:
324,318,133203,5,0,0:0:0:0:
363,178,133370,5,4,0:0:0:0:
509,157,133537,1,8,0:0:0:0:
419,47,133703,1,2,0:0:0:0:
363,178,133869,5,4,0:0:0:0:
191,112,134036,1,2,0:0:0:0:
292,267,134203,1,8,0:0:0:0:
301,83,134369,1,2,0:0:0:0:
185,226,134536,1,2,0:0:0:0:
363,178,134703,1,4,0:0:0:0:
268,172,134869,5,8,0:0:0:0:
268,172,134953,1,2,0:0:0:0:
268,172,135036,1,2,0:0:0:0:
268,172,135119,1,2,0:0:0:0:
268,172,135203,6,2,L|220:168,3,40,4|2|2|2,0:0|0:0|0:0|0:0,0:0:0:0:
191,112,135536,6,2,L|143:108,3,40,8|2|2|2,0:0|0:0|0:0|0:0,0:0:0:0:
100,156,135869,6,2,L|52:152,3,40,2|2|4|2,0:0|0:0|0:0|0:0,0:0:0:0:
40,84,136203,6,2,L|-8:80,3,40,8|2|2|2,0:0|0:0|0:0|0:0,0:0:0:0:
0,80,136536,6,0,L|4:256,1,160,4|8,0:0|0:0,0:0:0:0:
88,304,137036,1,2,0:0:0:0:
108,312,137119,1,2,0:0:0:0:
132,316,137203,1,2,0:0:0:0:
156,316,137286,1,2,0:0:0:0:
180,312,137369,1,4,0:0:0:0:
140,228,137536,2,0,L|144:136,1,80,8|2,0:0|0:0,0:0:0:0:
232,100,137869,6,0,P|280:80|356:152,1,160,4|8,0:0|0:0,0:0:0:0:
380,236,138369,1,2,0:0:0:0:
404,244,138453,1,2,0:0:0:0:
428,248,138536,1,2,0:0:0:0:
452,244,138619,1,2,0:0:0:0:
476,236,138703,1,4,0:0:0:0:
428,156,138869,1,8,0:0:0:0:
356,224,139036,1,2,0:0:0:0:
236,100,139203,6,0,L|152:96,2,80,4|2|8,0:0|0:0|0:0,0:0:0:0:
264,188,139703,2,0,P|276:244|256:288,1,80,2|2,0:0|0:0,0:0:0:0:
172,232,140036,1,4,0:0:0:0:
288,176,140203,1,8,0:0:0:0:
292,300,140369,1,2,0:0:0:0:
100,180,140536,5,4,0:0:0:0:
100,180,140703,1,4,0:0:0:0:
288,176,140869,1,8,0:0:0:0:
204,256,141036,1,4,0:0:0:0:
160,104,141203,2,8,L|208:96,1,40
264,52,141369,2,4,L|312:44,1,40
344,40,141536,2,0,P|380:88|360:200,1,160,8|4,0:0|3:0,0:0:0:0:
256,192,142036,12,0,145369,0:0:0:0:
