osu file format v14

[General]
AudioFilename: toby fox - UNDERTALE Soundtrack - 03 Your Best Friend.mp3
AudioLeadIn: 0
PreviewTime: 24
Countdown: 0
SampleSet: Soft
StackLeniency: 0.7
Mode: 0
LetterboxInBreaks: 0
WidescreenStoryboard: 0

[Editor]
DistanceSpacing: 0.88
BeatDivisor: 2
GridSize: 4
TimelineZoom: 1.9

[Metadata]
Title:Your Best Friend
TitleUnicode:Your Best Friend
Artist:toby fox
ArtistUnicode:toby fox
Creator:Stefan
Version:Hard
Source:UNDERTALE
Tags:tng thenutritiousguy radiation chiptune flowey the flower i hate you
BeatmapID:912585
BeatmapSetID:422018

[Difficulty]
HPDrainRate:6.6
CircleSize:5.5
OverallDifficulty:6.6
ApproachRate:6.6
SliderMultiplier:1.66
SliderTickRate:1

[Events]
//Background and Video events
0,0,"lumber this shit.jpg",0,0
//Break Periods
//Storyboard Layer 0 (Background)
//Storyboard Layer 1 (Fail)
//Storyboard Layer 2 (Pass)
//Storyboard Layer 3 (Foreground)
//Storyboard Sound Samples

[TimingPoints]
24,483.870967741935,4,2,1,70,1,0
23183,483.870967741935,4,2,1,70,1,0

[Colours]
Combo1 : 255,255,128
Combo2 : 128,255,128
Combo3 : 128,255,255
Combo4 : 255,128,128

[HitObjects]
32,96,24,6,0,P|96:48|172:72,1,166,0|2,0:0|0:0,0:0:0:0:
256,192,991,1,0,0:0:0:0:
340,72,1475,1,2,0:0:0:0:
424,192,1959,5,0,0:0:0:0:
340,312,2443,1,2,0:0:0:0:
256,192,2927,2,0,P|304:128|280:52,1,166,0|2,0:0|0:0,0:0:0:0:
132,52,3894,6,0,P|84:116|108:192,1,166,0|2,0:0|0:0,0:0:0:0:
256,192,4862,1,0,0:0:0:0:
404,192,5346,1,2,0:0:0:0:
332,320,5830,5,0,0:0:0:0:
185,320,6314,1,2,0:0:0:0:
48,268,6798,2,0,P|24:192|48:112,1,166,0|2,0:0|0:0,0:0:0:0:
184,60,7765,6,0,L|348:32,1,166,0|2,0:0|0:0,0:0:0:0:
408,72,8491,1,0,0:0:0:0:
368,132,8733,2,0,P|348:192|388:292,1,166,2|2,0:0|0:0,0:0:0:0:
256,364,9701,5,0,0:0:0:0:
128,296,10185,1,2,0:0:0:0:
88,236,10427,1,0,0:0:0:0:
108,72,10669,2,0,P|176:24|256:32,1,166,2|2,0:0|0:0,0:0:0:0:
254,177,11636,6,0,P|334:183|400:136,1,166,0|2,0:0|0:0,0:0:0:0:
432,68,12362,1,0,0:0:0:0:
492,112,12604,2,0,L|452:276,1,166,2|2,0:0|0:0,0:0:0:0:
332,356,13572,5,2,0:0:0:0:
256,72,14540,2,0,P|176:52|96:72,1,166,0|2,0:0|0:0,0:0:0:0:
12,192,15507,6,0,P|-8:272|12:352,1,166,0|2,0:0|0:0,0:0:0:0:
84,372,16233,1,0,0:0:0:0:
156,368,16475,2,0,L|320:348,1,166,2|2,0:0|0:0,0:0:0:0:
424,244,17443,5,0,0:0:0:0:
396,100,17927,1,2,0:0:0:0:
352,44,18169,1,0,0:0:0:0:
188,24,18411,2,0,P|115:57|107:136,1,166,2|2,0:0|0:0,0:0:0:0:
200,248,19378,6,0,P|191:326|119:360,1,166,0|2,0:0|0:0,0:0:0:0:
48,332,20104,1,0,0:0:0:0:
0,276,20346,2,0,P|9:198|81:164,1,166,2|2,0:0|0:0,0:0:0:0:
256,192,21314,12,2,22282,0:0:0:0:
256,24,23183,6,0,L|392:120,1,166,0|2,0:0|0:0,0:0:0:0:
444,172,23908,1,0,0:0:0:0:
392,224,24150,2,0,L|256:128,1,166,2|2,0:0|0:0,0:0:0:0:
136,44,25118,5,0,0:0:0:0:
28,140,25602,1,2,0:0:0:0:
28,213,25844,1,0,0:0:0:0:
128,344,26086,2,0,P|204:316|268:364,1,166,2|2,0:0|0:0,0:0:0:0:
392,288,27053,6,0,P|363:213|410:148,1,166,0|2,0:0|0:0,0:0:0:0:
468,108,27779,1,0,0:0:0:0:
432,44,28021,2,0,P|364:-4|288:16,1,166,2|2,0:0|0:0,0:0:0:0:
192,124,28989,6,0,B|180:161|130:187|130:187|81:161|61:113|69:86|101:60|130:82|130:82|160:60|189:92,1,332,2|0,0:0|0:0,0:0:0:0:
256,224,30441,1,2,0:0:0:0:
323,92,30924,6,0,L|455:192,1,166,0|2,0:0|0:0,0:0:0:0:
452,264,31650,1,0,0:0:0:0:
388,296,31892,2,0,L|256:196,1,166,2|2,0:0|0:0,0:0:0:0:
140,108,32860,5,0,0:0:0:0:
244,4,33344,1,2,0:0:0:0:
300,52,33586,1,0,0:0:0:0:
460,8,33828,2,0,P|515:63|493:140,1,166,2|2,0:0|0:0,0:0:0:0:
380,232,34795,6,0,P|304:264|222:257,1,166,0|2,0:0|0:0,0:0:0:0:
168,208,35521,1,0,0:0:0:0:
220,156,35763,2,0,P|259:84|262:1,1,166,2|2,0:0|0:0,0:0:0:0:
256,192,36731,12,2,37699,0:0:0:0:
