osu file format v14

[General]
AudioFilename: toby fox - UNDERTALE Soundtrack - 59 Spider Dance.mp3
AudioLeadIn: 0
PreviewTime: 31208
Countdown: 0
SampleSet: Normal
StackLeniency: 0.9
Mode: 0
LetterboxInBreaks: 0
SkinPreference:Muffet
EpilepsyWarning: 1
WidescreenStoryboard: 1

[Editor]
Bookmarks: 56868
DistanceSpacing: 1
BeatDivisor: 4
GridSize: 8
TimelineZoom: 2.4

[Metadata]
Title:Spider Dance
TitleUnicode:Spider Dance
Artist:toby fox
ArtistUnicode:toby fox
Creator:kiwibikercookie
Version:Midnight Snack
Source:UNDERTALE
Tags:undertale spider muffet rpg game dance
BeatmapID:835605
BeatmapSetID:382070

[Difficulty]
HPDrainRate:8
CircleSize:4.5
OverallDifficulty:8
ApproachRate:8
SliderMultiplier:2.99999990463257
SliderTickRate:4

[Events]
//Background and Video events
Video,16434,"Spider Dance.avi"
0,0,"dis one of muffet.png",0,0
//Break Periods
2,66459,74378
//Storyboard Layer 0 (Background)
//Storyboard Layer 1 (Fail)
//Storyboard Layer 2 (Pass)
//Storyboard Layer 3 (Foreground)
//Storyboard Sound Samples

[TimingPoints]
0.473893263576199,521.720689655172,4,1,1,100,1,0
33390,-100,4,1,1,100,0,1
49563,-100,4,1,1,100,0,0
66780,-100,4,2,1,100,0,0
83345,-100,4,1,1,100,0,0

[Colours]
Combo1 : 176,0,221
Combo2 : 128,0,128
Combo3 : 64,0,64

[HitObjects]
96,96,0,5,0,0:0:0:0:
240,120,261,1,0,0:0:0:0:
96,160,522,1,0,0:0:0:0:
240,200,783,1,0,0:0:0:0:
416,64,1174,1,0,0:0:0:0:
432,152,1304,1,0,0:0:0:0:
384,296,1565,1,0,0:0:0:0:
312,320,1696,1,0,0:0:0:0:
240,328,1826,1,0,0:0:0:0:
168,328,1956,1,0,0:0:0:0:
64,224,2217,5,0,0:0:0:0:
80,152,2348,1,0,0:0:0:0:
104,80,2478,1,0,0:0:0:0:
176,48,2609,1,0,0:0:0:0:
232,96,2739,1,0,0:0:0:0:
296,56,2869,1,0,0:0:0:0:
304,128,3000,1,0,0:0:0:0:
248,176,3130,1,0,0:0:0:0:
192,224,3261,1,0,0:0:0:0:
256,264,3391,1,0,0:0:0:0:
296,328,3522,6,0,B|352:272|352:272|280:200|280:200|352:96|352:96|288:32|288:32,1,374.999988079071
168,112,4435,1,0,0:0:0:0:
80,232,4695,1,0,0:0:0:0:
104,256,4761,1,0,0:0:0:0:
128,280,4826,1,0,0:0:0:0:
160,304,4891,1,0,0:0:0:0:
192,320,4956,1,0,0:0:0:0:
344,312,5217,5,0,0:0:0:0:
416,184,5478,1,0,0:0:0:0:
320,72,5739,1,0,0:0:0:0:
280,72,5804,1,0,0:0:0:0:
240,80,5869,1,0,0:0:0:0:
208,96,5935,1,0,0:0:0:0:
176,112,6000,1,0,0:0:0:0:
48,184,6261,2,0,L|48:352,3,149.999995231629
200,336,7304,2,0,L|200:176,2,149.999995231629
416,128,8348,6,0,P|328:200|256:168,3,149.999995231629
104,320,9391,1,0,0:0:0:0:
64,256,9521,1,0,0:0:0:0:
112,192,9652,1,0,0:0:0:0:
176,232,9782,1,0,0:0:0:0:
216,296,9913,1,0,0:0:0:0:
256,232,10043,1,0,0:0:0:0:
312,288,10174,1,0,0:0:0:0:
368,240,10304,1,0,0:0:0:0:
400,96,10565,6,0,P|376:48|272:136,2,224.999992847443
384,168,11478,1,0,0:0:0:0:
360,240,11608,1,0,0:0:0:0:
328,304,11739,1,0,0:0:0:0:
264,272,11869,1,0,0:0:0:0:
192,224,12000,1,0,0:0:0:0:
136,176,12130,2,0,P|160:80|272:144,1,224.999992847443
112,104,12782,1,0,0:0:0:0:
72,248,13043,1,0,0:0:0:0:
200,320,13304,1,0,0:0:0:0:
336,256,13565,1,0,0:0:0:0:
440,144,13826,1,0,0:0:0:0:
312,64,14086,2,0,L|168:152,2,149.999995231629
440,144,14869,5,0,0:0:0:0:
424,296,15130,1,0,0:0:0:0:
280,336,15391,1,0,0:0:0:0:
128,320,15652,1,0,0:0:0:0:
56,192,15912,1,0,0:0:0:0:
256,192,16173,1,0,0:0:0:0:
352,320,16695,6,0,P|432:320|440:264,1,149.999995231629
448,112,17217,2,0,P|416:40|352:104,1,149.999995231629
224,112,17738,1,0,0:0:0:0:
160,152,17869,1,0,0:0:0:0:
104,200,17999,1,0,0:0:0:0:
80,272,18130,1,0,0:0:0:0:
136,320,18260,1,0,0:0:0:0:
208,320,18391,1,0,0:0:0:0:
280,320,18521,1,0,0:0:0:0:
352,304,18651,1,0,0:0:0:0:
456,200,18912,5,0,0:0:0:0:
408,144,19043,1,0,0:0:0:0:
360,200,19173,1,0,0:0:0:0:
304,144,19304,1,0,0:0:0:0:
352,88,19434,1,0,0:0:0:0:
280,88,19564,1,0,0:0:0:0:
232,144,19695,1,0,0:0:0:0:
272,208,19825,2,0,P|344:248|352:232,1,74.9999976158143
384,272,20086,1,0,0:0:0:0:
360,200,20217,2,0,P|416:144|288:152,1,299.999990463257
208,152,20869,6,0,P|176:232|200:288,1,149.999995231629
352,280,21391,1,0,0:0:0:0:
488,216,21651,2,0,P|512:120|448:24,1,149.999995231629
344,88,22173,1,0,0:0:0:0:
192,88,22434,2,0,P|120:128|80:216,1,149.999995231629
256,192,22956,12,0,24521,0:0:0:0:
112,48,25043,6,0,P|80:136|80:192,1,149.999995231629,0|8,0:0|0:0,0:0:0:0:
176,312,25564,2,0,P|256:304|320:256,1,149.999995231629,0|8,0:0|0:0,0:0:0:0:
464,248,26086,1,0,0:0:0:0:
408,112,26347,2,0,P|336:48|256:64,1,149.999995231629,8|0,0:0|0:0,0:0:0:0:
144,88,26869,2,0,P|88:176|88:232,1,149.999995231629,8|0,0:0|0:0,0:0:0:0:
144,264,27260,5,0,0:0:0:0:
216,296,27390,1,8,0:0:0:0:
280,256,27521,1,0,0:0:0:0:
344,296,27651,1,0,0:0:0:0:
400,240,27782,1,0,0:0:0:0:
448,184,27912,1,8,0:0:0:0:
400,128,28042,1,0,0:0:0:0:
336,160,28173,1,0,0:0:0:0:
272,128,28303,1,0,0:0:0:0:
216,176,28434,1,8,0:0:0:0:
280,256,28564,2,0,B|344:296|344:296|400:240|448:184,1,224.999992847443,0|8,0:0|0:0,0:0:0:0:
440,40,29216,6,0,P|360:32|264:64,1,149.999995231629,0|8,0:0|0:0,0:0:0:0:
296,200,29738,2,0,P|384:240|424:200,1,149.999995231629,0|8,0:0|0:0,0:0:0:0:
320,96,30260,2,0,B|288:168|192:72|160:168,1,149.999995231629,0|8,0:0|0:0,0:0:0:0:
128,272,30781,2,0,P|224:328|288:296,1,149.999995231629,0|8,0:0|0:0,0:0:0:0:
408,320,31303,2,0,B|400:320|400:320|408:312|408:312|392:312|392:312|400:304|400:304|384:304|384:304|392:296|392:296|376:296|376:296|384:288|384:288|368:288|368:288|376:280|376:280|360:280|360:280|368:272|368:272|352:272|352:272|360:264|360:264|344:264|344:264|352:256|352:256|336:256|336:256|344:248|344:248|328:248|328:248|336:240|336:240|320:240|320:240|328:232|328:232|312:232|312:232|320:224|320:224|304:224|304:224|312:216|312:216|296:216|296:216|304:208|304:208|288:208|288:208|296:200|296:200|280:200|280:200|288:192|288:192|272:192|272:192|280:184|280:184|264:184|264:184|272:176|272:176|256:176|256:176|264:168|264:168,2,449.999985694885,0|8|8,0:0|0:0|0:0,0:0:0:0:
184,120,33390,6,0,P|136:200|176:296,1,149.999995231629,0|8,0:0|0:0,0:0:0:0:
280,320,33912,2,0,P|352:288|368:224,1,149.999995231629,0|8,0:0|0:0,0:0:0:0:
464,112,34434,1,0,0:0:0:0:
464,112,34564,1,0,0:0:0:0:
464,112,34694,1,8,0:0:0:0:
464,112,34825,1,0,0:0:0:0:
400,80,34955,2,2,B|376:152|248:104,1,149.999995231629,2|10,0:0|0:0,0:0:0:0:
184,240,35477,5,0,0:0:0:0:
184,240,35607,1,0,0:0:0:0:
184,240,35738,1,8,0:0:0:0:
184,240,35868,1,0,0:0:0:0:
256,224,35999,2,2,P|232:296|160:312,1,149.999995231629,2|10,0:0|0:0,0:0:0:0:
320,320,36520,5,0,0:0:0:0:
320,320,36651,1,0,0:0:0:0:
320,320,36781,1,8,0:0:0:0:
320,320,36912,1,0,0:0:0:0:
392,312,37042,2,2,L|480:160,1,149.999995231629,2|10,0:0|0:0,0:0:0:0:
352,80,37564,6,0,P|392:152|344:256,1,149.999995231629,0|8,0:0|0:0,0:0:0:0:
232,224,38086,2,0,P|240:144|192:72,1,149.999995231629,0|8,0:0|0:0,0:0:0:0:
128,208,38608,1,0,0:0:0:0:
128,208,38738,1,0,0:0:0:0:
128,208,38868,1,8,0:0:0:0:
128,208,38999,1,0,0:0:0:0:
200,176,39129,2,2,B|176:248|200:304|216:312|224:320,1,149.999995231629,2|10,0:0|0:0,0:0:0:0:
336,216,39651,5,0,0:0:0:0:
336,216,39781,1,0,0:0:0:0:
336,216,39912,1,8,0:0:0:0:
336,216,40042,1,0,0:0:0:0:
408,240,40173,2,2,P|384:312|312:328,1,149.999995231629,2|10,0:0|0:0,0:0:0:0:
256,192,40694,5,0,0:0:0:0:
224,264,40825,1,0,0:0:0:0:
152,280,40955,1,8,0:0:0:0:
80,256,41086,1,0,0:0:0:0:
128,200,41216,2,2,P|176:144|248:136,1,149.999995231629,2|10,0:0|0:0,0:0:0:0:
368,40,41738,6,0,L|488:224,1,149.999995231629,0|8,0:0|0:0,0:0:0:0:
312,224,42259,2,0,L|240:88,1,149.999995231629,0|8,0:0|0:0,0:0:0:0:
91,97,42781,2,0,P|71:148|88:170,3,74.9999976158143,0|0|8|0,0:0|0:0|0:0|0:0,0:0:0:0:
153,171,43303,1,2,0:0:0:0:
275,84,43564,1,10,0:0:0:0:
412,144,43825,6,0,L|369:217,3,74.9999976158143,0|0|8|0,0:0|0:0|0:0|0:0,0:0:0:0:
300,223,44346,1,2,0:0:0:0:
300,223,44607,1,10,0:0:0:0:
150,216,44868,2,0,P|149:263|168:260,3,74.9999976158143,0|0|8|0,0:0|0:0|0:0|0:0,0:0:0:0:
192,195,45390,1,2,0:0:0:0:
284,76,45651,1,10,0:0:0:0:
136,104,45911,6,0,P|160:216|192:248,1,149.999995231629,0|8,0:0|0:0,0:0:0:0:
320,296,46433,1,0,0:0:0:0:
384,256,46564,1,0,0:0:0:0:
432,200,46694,1,8,0:0:0:0:
464,136,46824,1,0,0:0:0:0:
416,72,46955,2,0,P|384:80|344:136,1,74.9999976158143
312,176,47216,2,0,P|288:216|240:224,1,74.9999976158143,8|0,0:0|0:0,0:0:0:0:
48,168,47737,2,0,P|32:200|48:240,2,74.9999976158143,8|0|0,0:0|0:0|0:0,0:0:0:0:
120,168,48129,1,0,0:0:0:0:
192,168,48259,1,8,0:0:0:0:
328,96,48520,1,0,0:0:0:0:
328,96,48781,1,8,0:0:0:0:
328,96,49042,1,0,0:0:0:0:
328,96,49303,1,8,0:0:0:0:
328,96,49563,1,4,0:0:0:0:
384,72,50085,5,0,0:0:0:0:
384,224,50346,1,8,0:0:0:0:
232,224,50607,2,0,P|200:208|184:168,3,74.9999976158143,0|0|8|0,0:0|0:0|0:0|0:0,0:0:0:0:
120,136,51129,2,2,P|160:72|240:40,1,149.999995231629,0|8,0:0|0:0,0:0:0:0:
344,128,51650,1,0,0:0:0:0:
344,128,51781,1,0,0:0:0:0:
344,128,51911,1,8,0:0:0:0:
344,128,52042,1,0,0:0:0:0:
400,176,52172,2,2,L|400:256,1,74.9999976158143
328,248,52433,2,2,L|328:168,1,74.9999976158143,10|2,0:0|0:0,0:0:0:0:
256,176,52694,2,0,L|256:256,1,74.9999976158143
184,248,52955,2,0,L|184:168,1,74.9999976158143,8|0,0:0|0:0,0:0:0:0:
136,120,53215,2,2,L|136:32,1,74.9999976158143
208,40,53476,2,2,L|320:40,1,74.9999976158143,10|2,0:0|0:0,0:0:0:0:
360,40,53737,2,0,L|360:136,1,74.9999976158143
256,144,53998,1,8,0:0:0:0:
408,128,54259,6,0,B|424:136|424:136|408:144|408:144|424:152|424:152|408:160|408:160|424:168|424:168|408:176|408:176|424:184|424:184|408:192|408:192,1,74.9999976158143
408,240,54520,2,0,B|424:248|424:248|408:256|408:256|424:264|424:264|408:272|408:272|424:280|424:280|408:288|408:288|424:296|424:296|408:304|408:304,1,74.9999976158143,8|0,0:0|0:0,0:0:0:0:
344,240,54781,2,0,B|360:248|360:248|344:256|344:256|360:264|360:264|344:272|344:272|360:280|360:280|344:288|344:288|360:296|360:296|344:304|344:304,1,74.9999976158143
272,272,55042,2,0,B|288:280|288:280|272:288|272:288|288:296|288:296|272:304|272:304|288:312|288:312|272:320|272:320|288:328|288:328|272:336|272:336,1,74.9999976158143,8|0,0:0|0:0,0:0:0:0:
208,272,55302,2,0,B|224:280|224:280|208:288|208:288|224:296|224:296|208:304|208:304|224:312|224:312|208:320|208:320|224:328|224:328|208:336|208:336,1,74.9999976158143
144,272,55563,2,0,B|160:280|160:280|144:288|144:288|160:296|160:296|144:304|144:304|160:312|160:312|144:320|144:320|160:328|160:328|144:336|144:336,1,74.9999976158143,8|0,0:0|0:0,0:0:0:0:
112,240,55824,1,0,0:0:0:0:
80,176,55955,1,0,0:0:0:0:
136,128,56085,1,8,0:0:0:0:
192,80,56215,1,0,0:0:0:0:
256,192,56346,6,0,P|256:144|224:112,1,74.9999976158143
256,192,56607,2,0,P|208:192|176:224,1,74.9999976158143,8|0,0:0|0:0,0:0:0:0:
256,192,56868,2,0,P|256:240|288:272,1,74.9999976158143
256,192,57128,2,0,P|304:192|336:160,1,74.9999976158143,8|0,0:0|0:0,0:0:0:0:
256,192,57389,2,0,P|256:144|224:112,1,74.9999976158143
256,192,57650,2,0,P|208:192|176:224,2,74.9999976158143,8|0|0,0:0|0:0|0:0,0:0:0:0:
256,64,58433,6,2,L|408:168,1,149.999995231629,2|10,0:0|0:0,0:0:0:0:
232,160,58954,2,0,L|296:208,4,74.9999976158143,0|0|8|0|0,0:0|0:0|0:0|0:0|0:0,0:0:0:0:
120,264,59737,1,8,0:0:0:0:
120,264,59867,1,0,0:0:0:0:
256,320,60128,1,0,0:0:0:0:
256,320,60259,1,8,0:0:0:0:
392,264,60520,2,0,L|392:176,3,74.9999976158143,0|0|8|0,0:0|0:0|0:0|0:0,0:0:0:0:
248,160,61172,1,0,0:0:0:0:
248,160,61302,1,8,0:0:0:0:
104,112,61563,2,0,P|64:136|64:192,3,74.9999976158143,0|0|8|0,0:0|0:0|0:0|0:0,0:0:0:0:
136,288,62215,1,0,0:0:0:0:
136,288,62346,1,8,0:0:0:0:
256,192,62606,12,4,66259,0:0:0:0:
72,48,75128,6,0,P|64:136|120:176,1,149.999995231629,0|2,0:0|0:0,0:0:0:0:
208,64,75649,1,0,0:0:0:0:
344,48,75910,2,0,P|352:136|296:176,1,149.999995231629,2|0,0:0|0:0,0:0:0:0:
208,280,76432,1,2,0:0:0:0:
104,176,76693,1,0,0:0:0:0:
104,176,76823,1,0,0:0:0:0:
104,176,76954,1,2,0:0:0:0:
240,112,77215,1,0,0:0:0:0:
240,112,77280,1,0,0:0:0:0:
240,112,77345,1,0,0:0:0:0:
240,112,77410,2,0,L|288:160,1,37.4999988079071,0|2,0:0|0:0,0:0:0:0:
392,56,77736,1,0,0:0:0:0:
392,208,77997,1,2,0:0:0:0:
240,208,78258,1,0,0:0:0:0:
240,208,78389,1,0,0:0:0:0:
240,208,78519,1,2,0:0:0:0:
360,304,78780,1,0,0:0:0:0:
360,304,79041,1,2,0:0:0:0:
408,160,79302,6,0,P|400:248|456:288,1,149.999995231629,0|2,0:0|0:0,0:0:0:0:
296,312,79823,1,0,0:0:0:0:
224,176,80084,2,0,P|232:264|176:304,1,149.999995231629,2|0,0:0|0:0,0:0:0:0:
48,256,80606,1,2,0:0:0:0:
80,112,80867,1,0,0:0:0:0:
80,112,80997,1,0,0:0:0:0:
80,112,81128,1,2,0:0:0:0:
136,248,81389,1,0,0:0:0:0:
272,304,81649,1,2,0:0:0:0:
320,184,81910,1,0,0:0:0:0:
320,184,82041,1,0,0:0:0:0:
432,80,82301,1,0,0:0:0:0:
432,80,82432,1,0,0:0:0:0:
448,232,82693,1,2,0:0:0:0:
360,304,82954,1,0,0:0:0:0:
360,304,83215,1,2,0:0:0:0:
256,192,83475,5,0,0:0:0:0:
152,296,83736,1,0,0:0:0:0:
304,296,83997,1,0,0:0:0:0:
408,192,84258,1,0,0:0:0:0:
328,64,84519,1,0,0:0:0:0:
176,64,84780,1,0,0:0:0:0:
72,176,85040,1,0,0:0:0:0:
160,296,85301,1,0,0:0:0:0:
312,296,85562,2,0,L|416:184,1,149.999995231629
414,186,86084,2,0,L|320:48,1,149.999995231629
329,62,86606,2,0,L|176:64,1,149.999995231629
176,64,87127,2,0,L|45:201,1,149.999995231629
72,172,87649,2,0,L|168:296,3,149.999995231629
248,168,88692,2,0,L|368:312,3,149.999995231629
256,192,89606,12,0,91301,0:0:0:0:
72,48,91823,6,0,L|72:208,1,149.999995231629,0|8,0:0|0:0,0:0:0:0:
72,352,92344,1,0,0:0:0:0:
160,232,92605,2,0,L|328:232,1,149.999995231629,8|0,0:0|0:0,0:0:0:0:
416,128,93127,1,8,0:0:0:0:
288,48,93388,1,0,0:0:0:0:
288,48,93518,1,0,0:0:0:0:
288,48,93649,1,8,0:0:0:0:
144,96,93910,1,0,0:0:0:0:
144,248,94171,1,8,0:0:0:0:
240,136,94431,1,0,0:0:0:0:
384,104,94692,1,8,0:0:0:0:
432,248,94953,1,0,0:0:0:0:
368,208,95084,1,0,0:0:0:0:
296,232,95214,1,8,0:0:0:0:
160,168,95475,1,0,0:0:0:0:
64,288,95736,1,8,0:0:0:0:
256,56,96257,5,8,0:0:0:0:
256,128,96388,1,0,0:0:0:0:
200,184,96518,1,0,0:0:0:0:
136,144,96649,1,0,0:0:0:0:
184,88,96779,1,8,0:0:0:0:
112,72,96910,1,0,0:0:0:0:
64,128,97040,1,0,0:0:0:0:
88,200,97170,1,0,0:0:0:0:
152,240,97301,1,8,0:0:0:0:
88,280,97431,1,0,0:0:0:0:
152,312,97562,1,0,0:0:0:0:
216,280,97692,1,0,0:0:0:0:
264,224,97823,1,8,0:0:0:0:
200,184,97953,1,0,0:0:0:0:
136,144,98083,6,0,L|192:80,2,74.9999976158143,0|0|8,0:0|0:0|0:0,0:0:0:0:
208,128,98475,1,0,0:0:0:0:
272,80,98605,1,0,0:0:0:0:
272,80,98736,1,0,0:0:0:0:
344,104,98866,1,8,0:0:0:0:
408,144,98996,1,0,0:0:0:0:
456,200,99127,2,0,B|208:232|456:312|208:352,2,299.999990463257,0|0|4,0:0|0:0|0:0,0:0:0:0:
