osu file format v14

[General]
AudioFilename: toby fox - UNDERTALE Soundtrack - 59 Spider Dance.mp3
AudioLeadIn: 0
PreviewTime: 31208
Countdown: 0
SampleSet: Normal
StackLeniency: 0.7
Mode: 0
LetterboxInBreaks: 0
SkinPreference:Muffet
WidescreenStoryboard: 1

[Editor]
DistanceSpacing: 1
BeatDivisor: 4
GridSize: 8
TimelineZoom: 1.1

[Metadata]
Title:Spider Dance
TitleUnicode:Spider Dance
Artist:toby fox
ArtistUnicode:toby fox
Creator:kiwibikercookie
Version:Lunch
Source:UNDERTALE
Tags:undertale spider muffet rpg game dance
BeatmapID:835607
BeatmapSetID:382070

[Difficulty]
HPDrainRate:4
CircleSize:4
OverallDifficulty:4
ApproachRate:3
SliderMultiplier:1.99999990463257
SliderTickRate:2

[Events]
//Background and Video events
Video,16434,"Spider Dance.avi"
0,0,"dis one of muffet.png",0,0
//Break Periods
//Storyboard Layer 0 (Background)
//Storyboard Layer 1 (Fail)
//Storyboard Layer 2 (Pass)
//Storyboard Layer 3 (Foreground)
//Storyboard Sound Samples

[TimingPoints]
0,521.720689655172,4,1,1,100,1,0
33390,-100,4,1,1,100,0,1
49563,-100,4,1,1,100,0,0
66780,-100,4,2,1,100,0,0
83345,-100,4,1,1,100,0,0

[Colours]
Combo1 : 128,0,128
Combo2 : 79,0,98
Combo3 : 64,0,64

[HitObjects]
80,72,0,6,0,L|80:176,1,99.9999952316285
120,232,521,2,0,L|256:232,1,99.9999952316285
316,205,1043,1,0,0:0:0:0:
336,160,1174,2,0,L|336:96,1,49.9999976158143
240,104,1565,2,0,L|240:184,3,49.9999976158143
192,64,2217,6,0,L|144:96,1,49.9999976158143
112,120,2478,1,0,0:0:0:0:
72,152,2608,2,0,P|48:216|80:224,1,99.9999952316285
120,296,3130,2,0,P|176:312|216:280,1,99.9999952316285
320,280,3652,2,0,B|368:256|368:256|336:208,1,99.9999952316285
240,144,4173,6,0,P|208:184|160:136,3,99.9999952316285
224,88,5217,2,0,P|176:80|152:136,3,99.9999952316285
256,192,6261,12,0,7826,0:0:0:0:
256,56,8347,6,0,P|272:160|272:56,1,299.999985694885
144,112,9521,2,0,L|144:184,1,49.9999976158143
192,248,9913,2,0,L|192:192,3,49.9999976158143
288,224,10564,2,0,P|354:234|408:152,1,149.999992847443
451,216,11216,1,0,0:0:0:0:
404,304,11477,1,0,0:0:0:0:
312,344,11738,1,0,0:0:0:0:
213,329,11999,2,0,P|141:281|133:249,1,99.9999952316285
40,272,12521,2,0,L|176:120,1,199.999990463257
376,136,13564,2,0,L|512:296,1,199.999990463257
281,280,14608,6,0,B|273:168|177:96|65:56,2,299.999985694885
412,129,16695,6,0,B|404:137|404:137|412:145|412:145|404:153|404:153|412:161|412:161|404:169|404:169|412:177|412:177|404:185|404:185|412:193|412:193|404:201|404:201|412:209|412:209|404:217|404:217|412:225|412:225|404:233|404:233|412:241|412:241|404:249|404:249|412:257|412:257|404:265|404:265|412:273|412:273|404:281|404:281|412:289|412:289|404:297|404:297|412:305|412:305|404:313|404:313|412:321|412:321|404:329|404:329|412:337|412:337|404:345|404:345|412:353,1,299.999985694885
265,291,17869,2,0,L|233:243,1,49.9999976158143
336,240,18260,2,0,L|368:192,3,49.9999976158143
320,104,18912,1,0,0:0:0:0:
320,104,19042,2,0,B|184:64|48:208|216:336|360:208|272:64|72:104,1,499.999976158143
48,184,20607,1,0,0:0:0:0:
124,153,20868,5,0,0:0:0:0:
324,153,21391,1,0,0:0:0:0:
480,272,21912,2,0,L|248:272,1,199.999990463257
256,192,22956,12,0,24521,0:0:0:0:
120,144,25042,6,8,P|144:200|200:216,3,99.9999952316285
256,88,26216,1,0,0:0:0:0:
256,88,26346,1,0,0:0:0:0:
336,144,26607,2,0,L|416:192,3,49.9999976158143
376,272,27259,2,0,L|328:320,2,49.9999976158143
336,240,27651,2,0,B|192:216|192:216|232:128|232:128|104:24,1,399.999980926514
48,104,28955,1,0,0:0:0:0:
144,112,29216,5,0,0:0:0:0:
136,312,29738,1,0,0:0:0:0:
336,312,30260,1,0,0:0:0:0:
344,112,30781,1,0,0:0:0:0:
256,192,31303,12,0,32998,0:0:0:0:
56,48,33390,6,0,L|56:152,3,99.9999952316285
144,200,34433,2,2,B|240:304|240:304|296:256,1,199.999990463257
456,168,35477,2,2,B|376:64|376:64|304:104,1,199.999990463257
120,72,36520,2,2,B|64:200|64:200|144:248,1,199.999990463257
304,272,37563,6,0,P|384:264|424:160,1,199.999990463257
256,64,38607,2,0,P|152:64|88:152,1,199.999990463257,8|8,0:0|0:0,0:0:0:0:
88,328,39650,2,8,P|184:336|288:288,1,199.999990463257
112,176,40694,2,8,P|208:152|304:176,1,199.999990463257
119,99,41737,5,0,0:0:0:0:
319,100,42259,1,0,0:0:0:0:
291,298,42781,2,0,P|387:354|475:306,1,199.999990463257
277,244,43824,2,0,P|229:140|133:124,1,199.999990463257
342,186,44867,2,0,P|326:298|406:306,1,199.999990463257
372,113,45911,2,0,P|444:153|444:201,1,99.9999952316285,0|2,0:0|0:0,0:0:0:0:
405,254,46433,5,0,0:0:0:0:
205,261,46954,1,0,0:0:0:0:
66,116,47476,1,0,0:0:0:0:
264,104,47998,2,0,P|312:64|448:64,1,199.999990463257
432,264,49041,2,0,P|416:320|376:328,2,99.9999952316285
88,72,50085,6,0,L|88:192,1,99.9999952316285
168,120,50606,2,0,L|224:120,3,49.9999976158143
272,120,51128,2,0,L|272:248,1,99.9999952316285
376,224,51650,2,0,L|432:224,3,49.9999976158143
496,112,52172,2,0,B|488:120|488:120|480:112|480:112|472:120|472:120|464:112|464:112|456:120|456:120|448:112|448:112|440:120|440:120|432:112|432:112|424:120|424:120|416:112|416:112|408:120|408:120|400:112|400:112|392:120|392:120|384:112|384:112|376:120|376:120|368:112|368:112|360:120|360:120|352:112|352:112|344:120|344:120|336:112|336:112|328:120|328:120|318:111|318:111|312:120|312:120|304:112|304:112|296:120|296:120|288:112|288:112|280:120|280:120|272:112|272:112|264:120|264:120|256:112|256:112|248:120|248:120|240:112|240:112|232:120|232:120|224:112|224:112|216:120|216:120|208:112|208:112|200:120|200:120|192:112|192:112|184:120|184:120|176:112|176:112|168:120|168:120|160:112|160:112|152:120|152:120|144:112|144:112|136:120|136:120|128:112|128:112|120:120|120:120|112:112|112:112|104:120|104:120|96:112|96:112|88:120|88:120|80:112|80:112|72:120|72:120|64:112|64:112|56:120|56:120|48:112|48:112|40:120|40:120|32:112|32:112|24:120|24:120|16:112|16:112|8:120|8:120|0:112|0:112,1,699.999966621399
47,202,54258,6,0,L|111:298,1,99.9999952316285
164,246,54780,2,0,L|100:150,1,99.9999952316285
174,130,55302,2,0,L|238:226,1,99.9999952316285
295,180,55824,2,0,L|231:84,1,99.9999952316285
333,62,56345,2,0,P|365:46|453:78,1,99.9999952316285
433,154,56867,2,0,P|377:178|329:130,1,99.9999952316285
343,262,57389,2,0,P|399:286|455:254,2,99.9999952316285
160,184,58432,6,0,P|304:40|432:312,1,599.999971389771
296,168,60519,2,0,P|280:224|192:344,3,199.999990463257
256,192,62606,12,4,66258,0:0:0:0:
88,112,66780,5,0,0:0:0:0:
160,184,67041,2,0,L|208:224,1,49.9999976158143
264,136,67432,2,0,L|320:80,1,49.9999976158143
440,240,68084,6,0,L|376:192,1,49.9999976158143
304,232,68475,2,0,L|344:280,1,49.9999976158143
256,328,68867,2,0,B|376:208|96:144|264:40,2,299.999985694885
448,264,70954,5,0,0:0:0:0:
352,240,71214,2,0,P|384:232|376:192,1,49.9999976158143
296,192,71606,2,0,P|312:160|344:184,1,49.9999976158143
120,160,72258,2,0,L|80:192,1,49.9999976158143
112,288,72649,2,0,L|160:248,1,49.9999976158143
201,342,73040,2,0,L|201:214,1,99.9999952316285
301,242,73562,2,0,L|237:242,2,49.9999976158143
363,163,74084,2,0,B|307:131|227:195|131:139,1,199.999990463257
104,264,75127,6,0,P|189:313|304:336,2,199.999990463257
295,207,76692,1,0,0:0:0:0:
271,55,77214,2,0,P|369:65|461:127,2,199.999990463257
84,126,78779,1,0,0:0:0:0:
96,325,79301,2,0,B|143:257|203:333|296:261,2,199.999990463257
261,212,80866,1,0,0:0:0:0:
404,85,81388,2,0,B|359:5|287:145|198:70,2,199.999990463257
334,272,82953,1,8,0:0:0:0:
137,235,83474,5,0,0:0:0:0:
276,91,83997,2,0,L|418:246,2,199.999990463257
293,290,85562,1,0,0:0:0:0:
174,263,86083,2,0,L|11:99,2,199.999990463257
336,152,87649,2,0,P|184:16|112:296,1,599.999971389771
296,320,89735,2,0,P|416:288|376:56,1,399.999980926514
72,312,91822,5,0,0:0:0:0:
272,312,92343,1,0,0:0:0:0:
96,208,92865,1,0,0:0:0:0:
296,216,93387,1,0,0:0:0:0:
376,368,93909,2,0,L|512:216,1,199.999990463257
328,128,94953,2,0,L|176:288,1,199.999990463257
72,112,95996,6,0,P|128:232|88:296,1,199.999990463257
192,104,97040,2,0,P|248:224|208:288,1,199.999990463257
256,192,98083,12,4,100170,0:0:0:0:
