osu file format v14

[General]
AudioFilename: toby fox - UNDERTALE Soundtrack - 59 Spider Dance.mp3
AudioLeadIn: 0
PreviewTime: 31208
Countdown: 0
SampleSet: Soft
StackLeniency: 0.7
Mode: 0
LetterboxInBreaks: 0
SkinPreference:Muffet
EpilepsyWarning: 1
WidescreenStoryboard: 1

[Editor]
DistanceSpacing: 1
BeatDivisor: 4
GridSize: 4
TimelineZoom: 1.3

[Metadata]
Title:Spider Dance
TitleUnicode:Spider Dance
Artist:toby fox
ArtistUnicode:toby fox
Creator:kiwibikercookie
Version:Dinner
Source:UNDERTALE
Tags:undertale spider muffet rpg game dance
BeatmapID:835606
BeatmapSetID:382070

[Difficulty]
HPDrainRate:6
CircleSize:4
OverallDifficulty:6
ApproachRate:6
SliderMultiplier:1.99999990463257
SliderTickRate:2

[Events]
//Background and Video events
Video,16434,"Spider Dance.avi"
0,0,"dis one of muffet.png",0,0
//Break Periods
//Storyboard Layer 0 (Background)
//Storyboard Layer 1 (Fail)
//Storyboard Layer 2 (Pass)
//Storyboard Layer 3 (Foreground)
//Storyboard Sound Samples

[TimingPoints]
0.473893263576199,521.720689655172,4,1,1,100,1,0
33390,-100,4,1,1,100,0,1
49955,-100,4,1,1,100,0,0
66780,-100,4,2,1,100,0,0
83345,-100,4,1,1,100,0,0

[Colours]
Combo1 : 128,0,128
Combo2 : 79,0,98
Combo3 : 64,0,64

[HitObjects]
128,64,0,5,0,0:0:0:0:
227,62,262,1,0,0:0:0:0:
128,144,523,1,0,0:0:0:0:
232,144,784,1,0,0:0:0:0:
356,228,1175,2,0,L|396:196,1,49.9999976158143
312,256,1566,2,0,L|264:304,3,49.9999976158143
172,300,2218,6,0,L|140:248,2,49.9999976158143
148,256,2610,2,0,L|204:192,3,49.9999976158143
160,172,3131,1,2,0:0:0:0:
200,140,3262,1,0,0:0:0:0:
164,104,3392,1,0,0:0:0:0:
196,64,3523,2,0,L|256:0,4,49.9999976158143,2|0|2|0|2,0:0|0:0|0:0|0:0|0:0,0:0:0:0:
228,104,4174,6,0,L|152:184,2,99.9999952316285,0|8|0,0:0|0:0|0:0,0:0:0:0:
272,196,4956,2,0,L|332:112,2,99.9999952316285,8|0|8,0:0|0:0|0:0,0:0:0:0:
356,252,5739,2,0,L|428:324,1,99.9999952316285,0|8,0:0|0:0,0:0:0:0:
256,192,6262,12,0,7827,0:0:0:0:
224,132,8349,6,0,P|256:240|264:128,1,299.999985694885
404,220,9521,2,0,P|412:256|388:280,1,49.9999976158143
324,324,9914,1,0,0:0:0:0:
276,336,10044,1,0,0:0:0:0:
224,340,10175,1,0,0:0:0:0:
180,316,10305,1,0,0:0:0:0:
112,340,10566,6,0,B|72:292|80:300,1,49.9999976158143
60,256,10827,2,0,L|108:215,1,49.9999976158143
108,176,11088,2,0,L|62:104,1,49.9999976158143
80,84,11348,2,0,L|125:38,1,49.9999976158143
160,76,11609,2,0,B|184:128|184:128|300:64|300:64|312:132|312:132,1,249.999988079071
352,216,12521,2,0,P|256:296|168:268,1,199.999990463257
132,140,13565,2,0,L|336:144,1,199.999990463257
256,192,14609,12,0,16174,0:0:0:0:
56,56,16696,6,0,B|88:112|88:112|120:56|120:56|152:112|152:112|224:8,1,299.999985694885
360,52,17869,2,0,L|432:72,1,49.9999976158143
420,164,18261,2,0,B|380:204|348:164|316:196,1,99.9999952316285
216,84,18912,6,0,L|264:124,2,49.9999976158143
192,128,19304,2,0,L|140:184,2,49.9999976158143
216,172,19695,2,0,L|264:220,2,49.9999976158143
200,220,20086,1,0,0:0:0:0:
224,264,20217,2,0,B|352:216|236:76|336:32,1,249.999988079071
112,76,21392,5,0,0:0:0:0:
96,276,21913,1,0,0:0:0:0:
280,352,22435,1,0,0:0:0:0:
256,192,22957,12,0,24522,0:0:0:0:
120,76,25043,6,0,P|156:116|164:60,2,99.9999952316285
220,92,25825,1,0,0:0:0:0:
340,180,26216,2,0,P|324:232|260:232,1,99.9999952316285
284,192,26608,2,0,P|248:192|224:256,1,99.9999952316285
100,300,27261,6,0,L|128:356,2,49.9999976158143
148,296,27652,2,0,L|120:228,2,49.9999976158143
192,272,28043,2,0,L|220:336,2,49.9999976158143
240,260,28435,2,0,L|292:160,1,99.9999952316285
408,104,28956,1,0,0:0:0:0:
312,64,29217,5,8,0:0:0:0:
120,128,29739,1,8,0:0:0:0:
248,280,30261,1,8,0:0:0:0:
256,80,30782,1,8,0:0:0:0:
256,192,31174,12,0,32869,0:0:0:0:
80,48,33391,6,0,P|40:88|72:128,1,99.9999952316285
120,196,33913,2,0,L|224:292,1,99.9999952316285
280,296,34435,2,8,B|360:240|360:240|440:304,1,199.999990463257
448,104,35478,2,8,B|368:56|368:56|272:104,1,199.999990463257
80,104,36521,2,8,B|32:160|32:160|80:192|80:192|32:256,1,199.999990463257
224,328,37564,5,0,0:0:0:0:
424,300,38086,1,0,0:0:0:0:
276,168,38608,2,8,B|236:136|236:136|196:168|196:168|196:192|196:192|236:224|236:224|276:192,3,199.999990463257
72,296,40694,1,0,0:0:0:0:
268,344,41216,6,0,L|324:296,3,49.9999976158143
304,256,41739,1,0,0:0:0:0:
368,184,41999,1,0,0:0:0:0:
432,104,42260,1,0,0:0:0:0:
328,104,42521,1,0,0:0:0:0:
240,64,42782,6,2,P|152:152|192:240,1,199.999990463257
364,168,43825,2,2,P|452:256|412:344,1,199.999990463257
236,344,44869,2,2,B|180:264|180:264|236:168,1,199.999990463257
240,128,45520,2,0,L|176:128,5,49.9999976158143,0|0|0|0|0|2,0:0|0:0|0:0|0:0|0:0|0:0,0:0:0:0:
88,124,46434,1,0,0:0:0:0:
84,324,46956,1,0,0:0:0:0:
284,328,47478,1,0,0:0:0:0:
256,192,47999,12,0,49564,0:0:0:0:
256,136,50086,6,8,B|200:40|144:40|88:80|120:144|152:240|208:264|256:280|256:280|304:264|360:240|392:144|424:80|368:40|312:40|256:136,2,799.999961853028
168,80,54521,1,0,0:0:0:0:
88,144,54782,1,0,0:0:0:0:
88,248,55043,1,0,0:0:0:0:
168,312,55303,1,0,0:0:0:0:
264,320,55564,1,0,0:0:0:0:
360,312,55825,1,0,0:0:0:0:
440,256,56086,1,0,0:0:0:0:
440,152,56347,2,0,B|392:80|392:80|344:152|344:152|288:80|288:80|248:144|248:144|200:80|200:80|152:144|152:144|96:56,1,599.999971389771,2|2,0:0|0:0,0:0:0:0:
296,40,58434,6,0,L|296:352,1,299.999985694885,8|8,0:0|0:0,0:0:0:0:
192,344,59477,2,0,L|192:32,1,299.999985694885,8|8,0:0|0:0,0:0:0:0:
296,40,60521,2,0,L|296:200,1,149.999992847443,0|2,0:0|0:0,0:0:0:0:
96,336,61564,2,0,L|96:176,1,149.999992847443,0|2,0:0|0:0,0:0:0:0:
40,104,62216,6,0,L|112:80,3,49.9999976158143
176,40,62868,1,0,0:0:0:0:
208,136,63129,2,0,L|96:160,1,99.9999952316285
64,248,63651,2,0,L|192:296,1,99.9999952316285
256,312,64173,2,0,L|256:200,1,99.9999952316285
344,168,64694,2,0,L|408:88,1,99.9999952316285
312,64,65216,1,0,0:0:0:0:
216,88,65477,1,0,0:0:0:0:
120,56,65738,1,0,0:0:0:0:
24,96,65999,1,0,0:0:0:0:
88,168,66260,1,4,0:0:0:0:
368,56,67042,6,0,L|424:104,1,49.9999976158143
416,184,67433,2,0,L|368:232,1,49.9999976158143
184,192,68086,2,0,L|224:152,1,49.9999976158143
128,192,68477,2,0,L|80:144,1,49.9999976158143
64,64,68868,1,0,0:0:0:0:
160,72,69129,1,0,0:0:0:0:
256,64,69390,1,0,0:0:0:0:
352,72,69651,1,0,0:0:0:0:
352,120,69781,2,2,B|376:192|344:248|376:328,1,199.999990463257,0|0,0:0|0:0,0:0:0:0:
96,104,71216,6,0,L|152:104,1,49.9999976158143
144,208,71607,2,0,L|72:208,1,49.9999976158143
296,208,72259,2,0,L|296:152,1,49.9999976158143
400,160,72651,2,0,L|400:224,1,49.9999976158143
400,312,73042,1,0,0:0:0:0:
296,312,73303,1,0,0:0:0:0:
196,316,73563,2,0,L|144:292,1,49.9999976158143
152,208,73955,1,0,0:0:0:0:
200,208,74085,2,2,B|256:280|304:192|392:240,1,199.999990463257,0|0,0:0|0:0,0:0:0:0:
164,60,75129,6,0,L|336:184,1,199.999990463257
504,88,76172,2,0,L|332:216,1,199.999990463257
152,264,77216,1,0,0:0:0:0:
120,56,77737,1,0,0:0:0:0:
272,188,78259,2,0,P|344:124|468:160,1,199.999990463257
256,192,79563,12,0,82955,0:0:0:0:
56,48,83737,6,0,L|80:96,1,49.9999976158143
176,96,84128,2,0,L|200:32,1,49.9999976158143
392,48,84781,2,0,L|320:72,1,49.9999976158143
328,160,85172,2,0,L|384:136,1,49.9999976158143
320,56,85563,2,0,L|200:56,1,99.9999952316285
120,56,86085,1,0,0:0:0:0:
120,152,86346,1,0,0:0:0:0:
120,256,86607,1,0,0:0:0:0:
272,256,86998,2,0,L|312:224,5,49.9999976158143
408,256,87911,6,0,L|408:200,1,49.9999976158143
304,208,88302,2,0,L|304:272,1,49.9999976158143
104,256,88954,2,0,L|104:200,1,49.9999976158143
208,200,89346,2,0,L|208:264,1,49.9999976158143
288,312,89737,1,0,0:0:0:0:
352,240,89998,1,0,0:0:0:0:
356,140,90258,2,0,L|296:136,1,49.9999976158143
208,128,90650,1,0,0:0:0:0:
160,128,90780,2,0,B|112:176|112:176|160:232|160:232|112:296,1,199.999990463257
384,128,92085,5,0,0:0:0:0:
384,176,92215,1,0,0:0:0:0:
280,176,92476,1,0,0:0:0:0:
280,128,92606,1,0,0:0:0:0:
88,184,93127,2,0,L|88:124,1,49.9999976158143
188,120,93518,2,0,L|188:184,1,49.9999976158143
272,128,93911,5,0,0:0:0:0:
272,232,94172,1,0,0:0:0:0:
368,232,94432,1,0,0:0:0:0:
368,128,94693,1,0,0:0:0:0:
264,128,94954,1,0,0:0:0:0:
168,144,95215,2,0,L|184:216,6,49.9999976158143
88,208,96258,6,0,L|120:248,1,49.9999976158143
216,216,96650,2,0,L|256:280,1,49.9999976158143
224,56,97302,2,0,L|272:112,1,49.9999976158143
352,56,97693,2,0,L|392:128,1,49.9999976158143
472,88,98084,1,0,0:0:0:0:
472,192,98345,1,0,0:0:0:0:
468,292,98605,2,0,P|424:336|312:300,1,149.999992847443
256,192,99128,12,4,100171,0:0:0:0:
