osu file format v14

[General]
AudioFilename: toby fox - UNDERTALE Soundtrack - 59 Spider Dance.mp3
AudioLeadIn: 0
PreviewTime: 31208
Countdown: 0
SampleSet: Normal
StackLeniency: 0.7
Mode: 0
LetterboxInBreaks: 0
SkinPreference:Muffet
WidescreenStoryboard: 1

[Editor]
DistanceSpacing: 1
BeatDivisor: 4
GridSize: 8
TimelineZoom: 1

[Metadata]
Title:Spider Dance
TitleUnicode:Spider Dance
Artist:toby fox
ArtistUnicode:toby fox
Creator:kiwibikercookie
Version:Breakfast
Source:UNDERTALE
Tags:undertale spider muffet rpg game dance
BeatmapID:835604
BeatmapSetID:382070

[Difficulty]
HPDrainRate:2
CircleSize:3
OverallDifficulty:2
ApproachRate:4
SliderMultiplier:0.999999904632566
SliderTickRate:1

[Events]
//Background and Video events
Video,16434,"Spider Dance.avi"
0,0,"dis one of muffet.png",0,0
//Break Periods
2,66459,73808
//Storyboard Layer 0 (Background)
//Storyboard Layer 1 (Fail)
//Storyboard Layer 2 (Pass)
//Storyboard Layer 3 (Foreground)
//Storyboard Sound Samples

[TimingPoints]
0.473893263576199,521.720689655172,4,1,1,100,1,0
33390,-100,4,1,1,100,0,1
49563,-100,4,1,1,100,0,0
66780,-100,4,2,1,100,0,0
83345,-100,4,1,1,100,0,0

[Colours]
Combo1 : 128,0,128
Combo2 : 79,0,98
Combo3 : 64,0,64

[HitObjects]
40,80,0,6,0,B|40:184|96:272|216:320,1,299.99997138977
240,224,2087,1,0,0:0:0:0:
280,312,2609,2,0,B|374:260|414:172|414:60,1,299.99997138977
344,112,4695,5,0,0:0:0:0:
256,72,5217,1,0,0:0:0:0:
168,40,5739,1,0,0:0:0:0:
64,40,6261,2,0,P|64:184|208:296,1,299.99997138977
152,192,8348,6,0,L|256:192,3,99.9999904632566
352,192,10434,1,0,0:0:0:0:
312,104,10956,1,0,0:0:0:0:
216,80,11478,1,0,0:0:0:0:
120,112,12000,1,0,0:0:0:0:
56,40,12521,2,0,P|64:200|272:272,1,399.999961853026
56,48,16695,6,0,L|144:120,1,99.9999904632566
208,176,17738,2,0,L|288:88,1,99.9999904632566
360,48,18782,2,0,L|440:112,1,99.9999904632566
392,200,19825,2,0,P|344:240|288:232,1,99.9999904632566
272,144,20869,5,0,0:0:0:0:
179,157,21391,1,0,0:0:0:0:
212,250,21912,1,0,0:0:0:0:
264,328,22434,1,0,0:0:0:0:
256,192,22956,12,0,25043,0:0:0:0:
72,64,26086,5,0,0:0:0:0:
72,168,26608,1,0,0:0:0:0:
72,264,27129,1,0,0:0:0:0:
72,64,28173,1,0,0:0:0:0:
176,64,28695,1,0,0:0:0:0:
272,64,29216,2,0,L|272:168,3,99.9999904632566
280,264,31303,6,0,B|328:320|328:320|376:256|376:256|424:320|424:320|480:256,1,299.99997138977
456,168,33390,1,0,0:0:0:0:
360,168,33912,1,0,0:0:0:0:
264,168,34434,2,2,L|152:168,1,99.9999904632566
64,176,35477,2,2,L|64:64,1,99.9999904632566
168,72,36520,2,2,P|248:96|240:144,1,99.9999904632566
344,72,37564,5,0,0:0:0:0:
328,168,38086,1,0,0:0:0:0:
296,264,38607,2,8,L|184:264,1,99.9999904632566
144,184,39651,2,8,B|152:128|152:128|224:128,1,99.9999904632566
288,88,40694,2,8,B|336:136|336:136|376:88,1,99.9999904632566
456,104,41738,6,0,B|400:152|400:152|465:204|465:204|464:208|400:264|400:264|464:312,1,299.99997138977
344,280,43825,2,0,L|344:184,2,49.9999952316283
256,232,44868,2,0,L|256:304,2,49.9999952316283
168,288,45911,6,0,P|160:152|280:24,1,299.99997138977
360,56,47998,6,0,P|376:168|448:216,1,199.999980926513
416,304,49563,1,0,0:0:0:0:
423,204,50085,6,0,B|342:133|342:133|297:233|221:217|221:217|156:98,2,399.999961853026
441,105,54781,5,0,0:0:0:0:
366,38,55302,1,0,0:0:0:0:
289,102,55824,1,0,0:0:0:0:
216,171,56346,2,0,B|292:135|379:290|498:177,1,299.99997138977
485,279,58433,2,0,B|437:343|437:343|389:271|389:271|349:343|349:343|309:271|309:271|269:343|269:343|205:263,1,499.999952316283
176,192,61563,2,0,L|32:192,1,99.9999904632566
256,192,62606,12,4,66259,0:0:0:0:
104,96,75128,6,0,B|88:192|112:256|152:280|216:320|256:328,1,299.99997138977
336,280,77215,2,0,P|336:192|200:40,1,299.99997138977
104,40,79302,2,0,L|104:360,1,299.99997138977
200,336,81388,2,0,L|200:32,1,299.99997138977
104,64,83475,5,0,0:0:0:0:
120,160,83997,2,0,P|144:216|192:216,1,99.9999904632566
280,224,85040,5,0,0:0:0:0:
367,146,85562,1,0,0:0:0:0:
448,208,86084,2,0,P|440:272|400:296,1,99.9999904632566
315,289,87127,6,0,P|269:265|225:305,1,99.9999904632566
131,287,88171,1,0,0:0:0:0:
31,285,88692,2,0,L|31:173,4,99.9999904632566
206,188,91823,5,0,0:0:0:0:
283,124,92345,2,0,L|363:188,1,99.9999904632566
434,254,93388,2,0,L|362:334,1,99.9999904632566
268,312,94431,2,0,L|268:208,1,99.9999904632566
348,152,95475,1,0,0:0:0:0:
277,88,95997,1,0,0:0:0:0:
180,113,96518,6,0,B|252:201|252:201|188:273,1,199.999980926513
256,192,98083,12,4,100170,0:0:0:0:
