osu file format v14

[General]
AudioFilename: Undertale OST- 059 - Spider Dance.mp3
AudioLeadIn: 0
PreviewTime: 31349
Countdown: 0
SampleSet: Normal
StackLeniency: 0.7
Mode: 1
LetterboxInBreaks: 0
WidescreenStoryboard: 1

[Editor]
DistanceSpacing: 1.2
BeatDivisor: 4
GridSize: 8
TimelineZoom: 2.599999

[Metadata]
Title:Spider Dance
TitleUnicode:Spider Dance
Artist:toby fox
ArtistUnicode:toby fox
Creator:OzzyOzrock
Version:Spider Donut 9999G
Source:Undertale
Tags:radiation muffet donut cider
BeatmapID:818080
BeatmapSetID:373414

[Difficulty]
HPDrainRate:6
CircleSize:5
OverallDifficulty:7
ApproachRate:6
SliderMultiplier:1.4
SliderTickRate:1

[Events]
//Background and Video events
0,0,"spiderdance.jpg",0,65
//Break Periods
//Storyboard Layer 0 (Background)
//Storyboard Layer 1 (Fail)
//Storyboard Layer 2 (Pass)
//Storyboard Layer 3 (Foreground)
//Storyboard Sound Samples

[TimingPoints]
78,260.869565217391,4,1,0,80,1,0
33469,-100,4,1,0,90,0,1
50164,-100,4,1,0,80,0,0
66860,-125,4,1,0,60,0,0
75208,-111.111111111111,4,1,0,60,0,0
83556,-100,4,1,0,70,0,0

[HitObjects]
336,272,78,5,8,0:0:0:0:
336,272,208,1,8,0:0:0:0:
192,288,338,1,0,0:0:0:0:
144,312,469,1,0,0:0:0:0:
384,296,599,1,8,0:0:0:0:
384,296,664,1,8,0:0:0:0:
192,328,730,1,0,0:0:0:0:
352,312,860,1,8,0:0:0:0:
192,328,991,1,0,0:0:0:0:
304,288,1251,1,8,0:0:0:0:
304,288,1317,1,8,0:0:0:0:
304,288,1382,1,8,0:0:0:0:
120,296,1512,1,0,0:0:0:0:
336,288,1643,1,8,0:0:0:0:
176,320,1773,1,0,0:0:0:0:
176,320,1904,1,0,0:0:0:0:
320,288,2034,1,8,0:0:0:0:
312,288,2295,1,8,0:0:0:0:
144,304,2425,1,0,0:0:0:0:
144,304,2556,1,0,0:0:0:0:
144,304,2621,1,0,0:0:0:0:
360,296,2686,1,8,0:0:0:0:
360,296,2817,1,8,0:0:0:0:
208,312,2947,1,0,0:0:0:0:
192,264,3077,1,0,0:0:0:0:
320,280,3208,1,8,0:0:0:0:
320,280,3273,1,8,0:0:0:0:
208,296,3338,1,0,0:0:0:0:
208,296,3469,1,0,0:0:0:0:
328,280,3599,1,8,0:0:0:0:
352,288,3860,1,8,0:0:0:0:
352,288,3991,1,8,0:0:0:0:
352,288,4056,1,8,0:0:0:0:
128,304,4121,1,0,0:0:0:0:
128,304,4251,1,0,0:0:0:0:
120,304,4382,1,0,0:0:0:0:
320,296,4512,1,8,0:0:0:0:
320,296,4643,1,8,0:0:0:0:
152,312,4773,1,0,0:0:0:0:
152,312,4904,1,0,0:0:0:0:
320,312,5034,1,8,0:0:0:0:
104,320,5295,1,0,0:0:0:0:
312,304,5425,1,8,0:0:0:0:
312,304,5556,1,8,0:0:0:0:
312,304,5686,1,8,0:0:0:0:
200,312,5817,1,0,0:0:0:0:
128,328,5947,1,0,0:0:0:0:
312,296,6077,1,8,0:0:0:0:
160,304,6338,1,0,0:0:0:0:
144,312,6599,1,0,0:0:0:0:
304,288,6860,1,8,0:0:0:0:
160,304,7121,1,0,0:0:0:0:
312,296,7382,1,8,0:0:0:0:
312,296,7643,1,8,0:0:0:0:
128,312,7904,1,0,0:0:0:0:
296,296,8034,1,8,0:0:0:0:
320,288,8164,1,8,0:0:0:0:
176,304,8295,1,0,0:0:0:0:
320,288,8425,1,8,0:0:0:0:
168,304,8556,1,0,0:0:0:0:
168,304,8621,1,0,0:0:0:0:
272,296,8686,1,8,0:0:0:0:
168,312,8817,1,0,0:0:0:0:
272,304,8947,1,8,0:0:0:0:
272,304,9077,1,8,0:0:0:0:
168,320,9208,1,0,0:0:0:0:
152,312,9469,1,0,0:0:0:0:
280,296,9599,1,8,0:0:0:0:
280,296,9664,1,8,0:0:0:0:
280,296,9730,1,8,0:0:0:0:
160,320,9860,1,0,0:0:0:0:
328,280,9991,1,8,0:0:0:0:
168,320,10121,1,0,0:0:0:0:
168,320,10251,1,0,0:0:0:0:
344,280,10382,1,8,0:0:0:0:
384,296,10643,1,8,0:0:0:0:
120,304,10773,1,0,0:0:0:0:
128,304,10904,1,0,0:0:0:0:
128,304,10969,1,0,0:0:0:0:
336,296,11034,1,8,0:0:0:0:
336,296,11164,1,8,0:0:0:0:
184,304,11295,1,0,0:0:0:0:
184,304,11425,1,0,0:0:0:0:
376,280,11556,1,8,0:0:0:0:
376,280,11621,1,8,0:0:0:0:
232,304,11686,1,0,0:0:0:0:
224,304,11817,1,0,0:0:0:0:
352,288,11947,1,8,0:0:0:0:
352,288,12208,1,8,0:0:0:0:
352,288,12338,1,8,0:0:0:0:
352,288,12404,1,8,0:0:0:0:
152,304,12469,1,0,0:0:0:0:
152,304,12599,1,0,0:0:0:0:
136,312,12730,1,0,0:0:0:0:
304,280,12860,1,8,0:0:0:0:
320,280,12991,1,8,0:0:0:0:
224,296,13121,1,0,0:0:0:0:
216,296,13251,1,0,0:0:0:0:
344,288,13382,1,8,0:0:0:0:
136,304,13643,1,0,0:0:0:0:
312,304,13773,1,8,0:0:0:0:
344,296,13904,1,8,0:0:0:0:
344,296,14034,1,8,0:0:0:0:
200,312,14164,1,0,0:0:0:0:
200,312,14295,1,0,0:0:0:0:
336,304,14425,1,8,0:0:0:0:
128,304,14686,1,0,0:0:0:0:
144,320,14947,1,0,0:0:0:0:
320,288,15208,1,8,0:0:0:0:
128,312,15469,1,0,0:0:0:0:
304,296,15730,1,8,0:0:0:0:
312,296,15991,1,8,0:0:0:0:
120,320,16251,1,0,0:0:0:0:
344,312,16382,1,8,0:0:0:0:
112,312,16512,1,0,0:0:0:0:
112,312,16643,1,0,0:0:0:0:
336,272,16773,1,8,0:0:0:0:
336,272,16903,1,8,0:0:0:0:
192,288,17033,1,0,0:0:0:0:
144,312,17164,1,0,0:0:0:0:
56,272,17230,1,0,0:0:0:0:
384,296,17294,1,8,0:0:0:0:
384,296,17359,1,8,0:0:0:0:
192,328,17425,1,0,0:0:0:0:
352,312,17555,1,8,0:0:0:0:
192,328,17686,1,0,0:0:0:0:
304,288,17946,1,8,0:0:0:0:
304,288,18012,1,8,0:0:0:0:
304,288,18077,1,8,0:0:0:0:
120,296,18207,1,0,0:0:0:0:
336,288,18338,1,8,0:0:0:0:
176,320,18468,1,0,0:0:0:0:
176,320,18599,1,0,0:0:0:0:
320,288,18729,1,8,0:0:0:0:
312,288,18990,1,8,0:0:0:0:
144,304,19120,1,0,0:0:0:0:
352,272,19186,1,8,0:0:0:0:
144,304,19251,1,0,0:0:0:0:
144,304,19316,1,0,0:0:0:0:
360,296,19381,1,8,0:0:0:0:
360,296,19512,1,8,0:0:0:0:
208,312,19642,1,0,0:0:0:0:
192,264,19772,1,0,0:0:0:0:
320,280,19903,1,8,0:0:0:0:
320,280,19968,1,8,0:0:0:0:
208,296,20033,1,0,0:0:0:0:
208,296,20164,1,0,0:0:0:0:
328,280,20294,1,8,0:0:0:0:
352,288,20555,1,8,0:0:0:0:
352,288,20686,1,8,0:0:0:0:
352,288,20751,1,8,0:0:0:0:
128,304,20816,1,0,0:0:0:0:
128,304,20946,1,0,0:0:0:0:
120,304,21077,1,0,0:0:0:0:
320,296,21207,1,8,0:0:0:0:
320,296,21338,1,8,0:0:0:0:
152,312,21468,1,0,0:0:0:0:
152,312,21599,1,0,0:0:0:0:
320,312,21729,1,8,0:0:0:0:
288,272,21860,1,8,0:0:0:0:
104,320,21990,1,0,0:0:0:0:
312,304,22120,1,8,0:0:0:0:
312,304,22251,1,8,0:0:0:0:
312,304,22381,1,8,0:0:0:0:
200,312,22512,1,0,0:0:0:0:
304,256,22643,1,8,0:0:0:0:
312,296,22772,1,8,0:0:0:0:
304,280,22904,1,8,0:0:0:0:
160,304,23033,1,0,0:0:0:0:
144,312,23294,1,0,0:0:0:0:
304,288,23555,1,8,0:0:0:0:
160,304,23816,1,0,0:0:0:0:
312,296,24077,1,8,0:0:0:0:
312,296,24338,1,8,0:0:0:0:
128,312,24599,1,0,0:0:0:0:
296,296,24729,1,8,0:0:0:0:
320,288,24859,1,8,0:0:0:0:
176,304,24990,1,0,0:0:0:0:
320,288,25120,1,8,0:0:0:0:
168,304,25251,1,0,0:0:0:0:
168,304,25316,1,0,0:0:0:0:
272,296,25381,1,8,0:0:0:0:
293,250,25447,1,8,0:0:0:0:
168,312,25512,1,0,0:0:0:0:
272,304,25642,1,8,0:0:0:0:
272,304,25772,1,8,0:0:0:0:
168,320,25903,1,0,0:0:0:0:
152,312,26164,1,0,0:0:0:0:
280,296,26294,1,8,0:0:0:0:
280,296,26359,1,8,0:0:0:0:
280,296,26425,1,8,0:0:0:0:
160,320,26555,1,0,0:0:0:0:
328,280,26686,1,8,0:0:0:0:
168,320,26816,1,0,0:0:0:0:
362,290,26882,1,8,0:0:0:0:
168,320,26946,1,0,0:0:0:0:
344,280,27077,1,8,0:0:0:0:
384,296,27338,1,8,0:0:0:0:
120,304,27468,1,0,0:0:0:0:
128,304,27599,1,0,0:0:0:0:
128,304,27664,1,0,0:0:0:0:
336,296,27729,1,8,0:0:0:0:
336,296,27859,1,8,0:0:0:0:
184,304,27990,1,0,0:0:0:0:
184,304,28120,1,0,0:0:0:0:
376,280,28251,1,8,0:0:0:0:
376,280,28316,1,8,0:0:0:0:
232,304,28381,1,0,0:0:0:0:
93,302,28447,1,0,0:0:0:0:
224,304,28512,1,0,0:0:0:0:
352,288,28642,1,8,0:0:0:0:
352,288,28903,1,8,0:0:0:0:
352,288,29033,1,8,0:0:0:0:
352,288,29099,1,8,0:0:0:0:
152,304,29164,1,0,0:0:0:0:
152,304,29294,1,0,0:0:0:0:
136,312,29425,1,0,0:0:0:0:
304,280,29555,1,8,0:0:0:0:
320,280,29686,1,8,0:0:0:0:
224,296,29816,1,0,0:0:0:0:
216,296,29946,1,0,0:0:0:0:
344,288,30077,1,8,0:0:0:0:
312,288,30208,1,8,0:0:0:0:
136,304,30338,1,0,0:0:0:0:
312,304,30468,1,8,0:0:0:0:
344,296,30599,1,8,0:0:0:0:
344,296,30729,1,8,0:0:0:0:
200,312,30859,1,0,0:0:0:0:
336,296,30991,1,8,0:0:0:0:
336,304,31120,1,8,0:0:0:0:
336,304,31251,1,8,0:0:0:0:
352,104,33077,1,12,0:0:0:0:
160,120,33208,1,4,0:0:0:0:
344,120,33338,1,12,0:0:0:0:
352,128,33469,5,12,0:0:0:0:
104,312,33599,1,0,0:0:0:0:
104,312,33664,1,0,0:0:0:0:
416,272,33730,1,8,0:0:0:0:
104,320,33860,1,0,0:0:0:0:
408,264,33991,1,8,0:0:0:0:
408,264,34056,1,8,0:0:0:0:
192,288,34121,1,0,0:0:0:0:
384,280,34251,1,8,0:0:0:0:
176,312,34382,1,0,0:0:0:0:
168,296,34447,1,0,0:0:0:0:
408,264,34512,1,8,0:0:0:0:
408,264,34577,1,8,0:0:0:0:
176,304,34643,1,0,0:0:0:0:
176,304,34773,1,0,0:0:0:0:
360,264,34904,1,8,0:0:0:0:
384,264,34969,1,8,0:0:0:0:
360,264,35034,1,8,0:0:0:0:
184,240,35164,1,0,0:0:0:0:
368,232,35295,1,8,0:0:0:0:
368,232,35360,1,8,0:0:0:0:
136,280,35425,1,0,0:0:0:0:
144,280,35491,1,0,0:0:0:0:
416,248,35556,1,8,0:0:0:0:
416,264,35621,1,8,0:0:0:0:
152,288,35686,1,0,0:0:0:0:
152,288,35817,1,0,0:0:0:0:
360,264,35947,1,8,0:0:0:0:
360,264,36012,1,8,0:0:0:0:
360,264,36077,1,8,0:0:0:0:
168,296,36208,1,0,0:0:0:0:
392,248,36338,1,8,0:0:0:0:
152,304,36469,1,0,0:0:0:0:
152,304,36534,1,0,0:0:0:0:
368,264,36599,1,8,0:0:0:0:
400,296,36664,1,8,0:0:0:0:
192,280,36730,1,0,0:0:0:0:
192,280,36860,1,0,0:0:0:0:
368,272,36991,1,8,0:0:0:0:
368,272,37056,1,8,0:0:0:0:
368,272,37121,1,8,0:0:0:0:
336,280,37251,1,8,0:0:0:0:
352,264,37317,1,8,0:0:0:0:
176,304,37382,1,0,0:0:0:0:
200,304,37447,1,0,0:0:0:0:
352,296,37512,1,8,0:0:0:0:
360,280,37643,1,8,0:0:0:0:
104,312,37773,1,0,0:0:0:0:
104,312,37838,1,0,0:0:0:0:
416,272,37904,1,8,0:0:0:0:
104,320,38034,1,0,0:0:0:0:
408,264,38165,1,8,0:0:0:0:
408,264,38230,1,8,0:0:0:0:
192,288,38295,1,0,0:0:0:0:
336,312,38425,1,8,0:0:0:0:
176,312,38556,1,0,0:0:0:0:
168,296,38621,1,0,0:0:0:0:
408,264,38686,1,8,0:0:0:0:
408,264,38751,1,8,0:0:0:0:
392,272,38817,1,8,0:0:0:0:
176,304,38947,1,0,0:0:0:0:
360,264,39078,1,8,0:0:0:0:
384,264,39143,1,8,0:0:0:0:
168,304,39208,1,0,0:0:0:0:
184,240,39338,1,0,0:0:0:0:
368,232,39469,1,8,0:0:0:0:
368,232,39534,1,8,0:0:0:0:
136,280,39599,1,0,0:0:0:0:
144,280,39665,1,0,0:0:0:0:
416,248,39730,1,8,0:0:0:0:
416,264,39795,1,8,0:0:0:0:
400,272,39860,1,8,0:0:0:0:
152,288,39991,1,0,0:0:0:0:
360,264,40121,1,8,0:0:0:0:
360,264,40186,1,8,0:0:0:0:
168,304,40251,1,0,0:0:0:0:
168,296,40382,1,0,0:0:0:0:
392,248,40512,1,8,0:0:0:0:
152,304,40643,1,0,0:0:0:0:
152,304,40708,1,0,0:0:0:0:
368,264,40773,1,8,0:0:0:0:
400,296,40838,1,8,0:0:0:0:
392,296,40904,1,8,0:0:0:0:
144,288,41034,1,0,0:0:0:0:
336,304,41165,1,8,0:0:0:0:
368,272,41230,1,8,0:0:0:0:
176,304,41295,1,0,0:0:0:0:
176,288,41360,1,0,0:0:0:0:
336,280,41425,1,8,0:0:0:0:
352,264,41491,1,8,0:0:0:0:
368,272,41556,1,8,0:0:0:0:
200,304,41621,1,0,0:0:0:0:
352,296,41686,1,8,0:0:0:0:
400,304,41817,1,8,0:0:0:0:
104,312,41947,1,0,0:0:0:0:
104,312,42012,1,0,0:0:0:0:
416,272,42078,1,8,0:0:0:0:
104,320,42208,1,0,0:0:0:0:
408,264,42339,1,8,0:0:0:0:
408,264,42404,1,8,0:0:0:0:
192,288,42469,1,0,0:0:0:0:
384,280,42599,1,8,0:0:0:0:
176,312,42730,1,0,0:0:0:0:
168,296,42795,1,0,0:0:0:0:
408,264,42860,1,8,0:0:0:0:
408,264,42925,1,8,0:0:0:0:
176,304,42991,1,0,0:0:0:0:
176,304,43121,1,0,0:0:0:0:
360,264,43252,1,8,0:0:0:0:
384,264,43317,1,8,0:0:0:0:
360,264,43382,1,8,0:0:0:0:
184,240,43512,1,0,0:0:0:0:
368,232,43643,1,8,0:0:0:0:
368,232,43708,1,8,0:0:0:0:
136,280,43773,1,0,0:0:0:0:
144,280,43839,1,0,0:0:0:0:
416,248,43904,1,8,0:0:0:0:
416,264,43969,1,8,0:0:0:0:
152,288,44034,1,0,0:0:0:0:
152,288,44165,1,0,0:0:0:0:
360,264,44295,1,8,0:0:0:0:
360,264,44360,1,8,0:0:0:0:
360,264,44425,1,8,0:0:0:0:
168,296,44556,1,0,0:0:0:0:
392,248,44686,1,8,0:0:0:0:
152,304,44817,1,0,0:0:0:0:
152,304,44882,1,0,0:0:0:0:
368,264,44947,1,8,0:0:0:0:
400,296,45012,1,8,0:0:0:0:
192,280,45078,1,0,0:0:0:0:
192,280,45208,1,0,0:0:0:0:
368,272,45339,1,8,0:0:0:0:
368,272,45404,1,8,0:0:0:0:
368,272,45469,1,8,0:0:0:0:
336,280,45599,1,8,0:0:0:0:
352,264,45665,1,8,0:0:0:0:
176,304,45730,1,0,0:0:0:0:
200,304,45795,1,0,0:0:0:0:
352,296,45860,1,8,0:0:0:0:
144,296,45991,1,0,0:0:0:0:
144,296,46121,1,0,0:0:0:0:
144,296,46186,1,0,0:0:0:0:
392,280,46251,1,8,0:0:0:0:
184,304,46382,1,0,0:0:0:0:
184,304,46447,1,0,0:0:0:0:
368,288,46512,1,8,0:0:0:0:
368,288,46577,1,8,0:0:0:0:
200,304,46643,1,0,0:0:0:0:
336,304,46773,1,8,0:0:0:0:
200,288,46904,1,0,0:0:0:0:
368,288,47034,1,8,0:0:0:0:
368,288,47099,1,8,0:0:0:0:
136,280,47164,1,0,0:0:0:0:
104,280,47230,1,0,0:0:0:0:
192,288,47295,1,0,0:0:0:0:
304,288,47425,1,8,0:0:0:0:
304,288,47491,1,8,0:0:0:0:
320,288,47556,1,8,0:0:0:0:
168,288,47686,1,0,0:0:0:0:
320,288,47817,1,8,0:0:0:0:
104,272,47882,1,0,0:0:0:0:
168,288,47947,1,0,0:0:0:0:
112,272,48012,1,0,0:0:0:0:
336,272,48077,1,8,0:0:0:0:
360,256,48143,1,8,0:0:0:0:
88,272,48208,1,0,0:0:0:0:
304,280,48338,1,8,0:0:0:0:
120,272,48469,1,0,0:0:0:0:
328,272,48599,1,8,0:0:0:0:
344,296,48664,1,8,0:0:0:0:
184,280,48730,1,0,0:0:0:0:
184,288,48795,1,0,0:0:0:0:
328,272,48860,1,8,0:0:0:0:
144,304,48925,1,0,0:0:0:0:
152,296,48991,1,0,0:0:0:0:
160,112,49121,1,4,0:0:0:0:
160,256,49251,1,0,0:0:0:0:
416,104,49382,1,12,0:0:0:0:
120,304,49512,1,0,0:0:0:0:
400,136,49643,1,12,0:0:0:0:
160,288,49773,1,0,0:0:0:0:
176,288,49838,1,0,0:0:0:0:
344,280,49904,1,8,0:0:0:0:
392,288,50164,5,8,0:0:0:0:
392,288,50230,1,8,0:0:0:0:
392,288,50295,1,8,0:0:0:0:
192,304,50425,1,0,0:0:0:0:
344,272,50556,1,8,0:0:0:0:
184,296,50686,1,0,0:0:0:0:
184,296,50751,1,0,0:0:0:0:
314,305,50817,1,0,0:0:0:0:
312,288,50947,1,8,0:0:0:0:
376,288,51012,1,8,0:0:0:0:
184,312,51077,1,0,0:0:0:0:
320,288,51208,1,8,0:0:0:0:
320,288,51273,1,8,0:0:0:0:
320,288,51338,1,8,0:0:0:0:
176,304,51469,1,0,0:0:0:0:
336,280,51599,1,8,0:0:0:0:
208,304,51730,1,0,0:0:0:0:
208,304,51795,1,0,0:0:0:0:
208,304,51860,1,0,0:0:0:0:
336,288,51991,1,8,0:0:0:0:
184,288,52056,1,0,0:0:0:0:
184,296,52121,1,0,0:0:0:0:
352,272,52251,1,8,0:0:0:0:
160,312,52382,1,0,0:0:0:0:
96,320,52447,1,0,0:0:0:0:
392,304,52512,1,8,0:0:0:0:
352,328,52643,1,8,0:0:0:0:
320,328,52708,1,8,0:0:0:0:
336,320,52773,1,8,0:0:0:0:
120,336,52904,1,0,0:0:0:0:
8,264,52969,1,0,0:0:0:0:
336,280,53034,1,8,0:0:0:0:
368,288,53164,1,8,0:0:0:0:
368,288,53230,1,8,0:0:0:0:
152,304,53295,1,0,0:0:0:0:
168,320,53425,1,0,0:0:0:0:
168,320,53491,1,0,0:0:0:0:
320,288,53556,1,8,0:0:0:0:
344,288,53686,1,8,0:0:0:0:
344,304,53751,1,8,0:0:0:0:
320,304,53816,1,8,0:0:0:0:
360,288,53946,1,8,0:0:0:0:
360,288,54012,1,8,0:0:0:0:
208,328,54077,1,0,0:0:0:0:
328,288,54208,1,8,0:0:0:0:
328,288,54338,1,8,0:0:0:0:
168,304,54404,1,0,0:0:0:0:
160,304,54469,1,0,0:0:0:0:
152,312,54534,1,0,0:0:0:0:
336,304,54599,1,8,0:0:0:0:
144,328,54664,1,0,0:0:0:0:
368,296,54730,1,8,0:0:0:0:
232,296,54795,1,0,0:0:0:0:
328,288,54860,1,8,0:0:0:0:
328,288,54925,1,8,0:0:0:0:
168,288,54991,1,0,0:0:0:0:
168,288,55056,1,0,0:0:0:0:
368,296,55121,1,8,0:0:0:0:
224,320,55186,1,0,0:0:0:0:
384,296,55251,1,8,0:0:0:0:
152,312,55317,1,0,0:0:0:0:
360,296,55382,1,8,0:0:0:0:
360,296,55447,1,8,0:0:0:0:
152,320,55512,1,0,0:0:0:0:
350,325,55577,1,8,0:0:0:0:
176,296,55643,1,0,0:0:0:0:
176,304,55708,1,0,0:0:0:0:
384,296,55773,1,8,0:0:0:0:
184,296,55838,1,0,0:0:0:0:
360,288,55904,1,8,0:0:0:0:
381,310,55969,1,8,0:0:0:0:
192,304,56034,1,0,0:0:0:0:
352,288,56099,1,8,0:0:0:0:
137,312,56164,1,0,0:0:0:0:
176,304,56230,1,0,0:0:0:0:
424,304,56295,1,8,0:0:0:0:
128,304,56360,1,0,0:0:0:0:
456,304,56425,1,8,0:0:0:0:
160,288,56556,1,0,0:0:0:0:
160,288,56621,1,0,0:0:0:0:
440,304,56686,1,8,0:0:0:0:
192,296,56817,1,0,0:0:0:0:
192,296,56882,1,0,0:0:0:0:
440,304,56947,1,8,0:0:0:0:
432,304,57012,1,8,0:0:0:0:
128,312,57077,1,0,0:0:0:0:
440,296,57208,1,8,0:0:0:0:
440,296,57273,1,8,0:0:0:0:
184,288,57338,1,0,0:0:0:0:
440,296,57469,1,8,0:0:0:0:
192,288,57599,1,0,0:0:0:0:
192,288,57664,1,0,0:0:0:0:
384,304,57730,1,8,0:0:0:0:
384,304,57795,1,8,0:0:0:0:
152,288,57860,1,0,0:0:0:0:
144,280,57925,1,0,0:0:0:0:
344,288,57991,1,8,0:0:0:0:
64,280,58121,1,0,0:0:0:0:
144,272,58186,1,0,0:0:0:0:
432,304,58251,1,8,0:0:0:0:
328,296,58382,1,8,0:0:0:0:
384,288,58512,1,8,0:0:0:0:
120,280,58643,1,0,0:0:0:0:
120,280,58708,1,0,0:0:0:0:
352,280,58773,1,8,0:0:0:0:
120,288,58904,1,0,0:0:0:0:
336,296,58969,1,8,0:0:0:0:
392,296,59034,1,8,0:0:0:0:
152,288,59099,1,0,0:0:0:0:
128,232,59164,1,0,0:0:0:0:
352,264,59295,1,8,0:0:0:0:
208,280,59425,1,0,0:0:0:0:
336,288,59556,1,8,0:0:0:0:
336,288,59621,1,8,0:0:0:0:
344,288,59686,1,8,0:0:0:0:
112,280,59817,1,0,0:0:0:0:
344,272,59947,1,8,0:0:0:0:
344,272,60012,1,8,0:0:0:0:
152,280,60077,1,0,0:0:0:0:
152,280,60208,1,0,0:0:0:0:
344,272,60338,1,8,0:0:0:0:
184,288,60469,1,0,0:0:0:0:
336,288,60599,1,8,0:0:0:0:
336,288,60664,1,8,0:0:0:0:
344,288,60729,1,8,0:0:0:0:
112,280,60860,1,0,0:0:0:0:
88,269,60925,1,0,0:0:0:0:
344,272,60990,1,8,0:0:0:0:
344,272,61055,1,8,0:0:0:0:
152,280,61120,1,0,0:0:0:0:
152,280,61251,1,0,0:0:0:0:
344,272,61381,1,8,0:0:0:0:
184,288,61512,1,0,0:0:0:0:
336,288,61643,1,8,0:0:0:0:
336,288,61708,1,8,0:0:0:0:
344,288,61773,1,8,0:0:0:0:
356,264,61838,1,8,0:0:0:0:
112,280,61904,1,0,0:0:0:0:
122,273,61969,1,0,0:0:0:0:
344,272,62034,1,8,0:0:0:0:
344,272,62099,1,8,0:0:0:0:
152,280,62164,1,0,0:0:0:0:
344,272,62295,1,8,0:0:0:0:
152,280,62425,1,0,0:0:0:0:
349,266,62556,1,8,0:0:0:0:
138,284,62686,1,0,0:0:0:0:
138,284,62817,1,0,0:0:0:0:
138,284,62882,1,0,0:0:0:0:
360,271,62947,1,8,0:0:0:0:
223,271,63077,1,0,0:0:0:0:
312,271,63208,1,8,0:0:0:0:
312,271,63273,1,8,0:0:0:0:
200,275,63338,1,0,0:0:0:0:
325,283,63469,1,8,0:0:0:0:
154,273,63599,1,0,0:0:0:0:
154,273,63664,1,0,0:0:0:0:
348,278,63730,1,8,0:0:0:0:
176,288,63795,1,0,0:0:0:0:
193,288,63860,1,0,0:0:0:0:
193,288,63991,1,0,0:0:0:0:
354,279,64121,1,8,0:0:0:0:
354,279,64186,1,8,0:0:0:0:
375,272,64251,1,8,0:0:0:0:
176,267,64382,1,0,0:0:0:0:
360,271,64512,1,8,0:0:0:0:
204,273,64577,1,0,0:0:0:0:
360,273,64643,1,8,0:0:0:0:
360,273,64708,1,8,0:0:0:0:
360,273,64773,1,8,0:0:0:0:
185,275,64904,1,0,0:0:0:0:
217,277,64969,1,0,0:0:0:0:
343,276,65034,1,8,0:0:0:0:
158,290,65164,1,0,0:0:0:0:
327,279,65295,1,8,0:0:0:0:
360,297,65360,1,8,0:0:0:0:
158,290,65425,1,0,0:0:0:0:
394,301,65556,1,8,0:0:0:0:
206,296,65686,1,0,0:0:0:0:
124,104,65817,1,4,0:0:0:0:
163,271,65947,1,0,0:0:0:0:
374,97,66077,1,12,0:0:0:0:
373,278,66208,1,8,0:0:0:0:
124,104,66338,1,4,0:0:0:0:
110,268,66860,1,0,0:0:0:0:
110,268,66991,1,0,0:0:0:0:
355,272,67121,1,8,0:0:0:0:
355,272,67251,1,8,0:0:0:0:
162,293,67382,1,0,0:0:0:0:
340,290,67512,1,8,0:0:0:0:
340,290,67643,1,8,0:0:0:0:
57,292,67773,1,0,0:0:0:0:
72,292,67904,1,0,0:0:0:0:
72,292,68034,1,0,0:0:0:0:
354,285,68164,1,8,0:0:0:0:
354,285,68295,1,8,0:0:0:0:
185,304,68425,1,0,0:0:0:0:
336,293,68556,1,8,0:0:0:0:
336,293,68686,1,8,0:0:0:0:
146,312,68817,1,0,0:0:0:0:
385,306,68947,1,8,0:0:0:0:
385,306,69077,1,8,0:0:0:0:
405,288,69143,1,8,0:0:0:0:
212,322,69208,1,0,0:0:0:0:
159,330,69338,1,0,0:0:0:0:
434,284,69469,1,8,0:0:0:0:
222,318,69599,1,0,0:0:0:0:
371,284,69730,1,8,0:0:0:0:
51,219,69860,2,0,P|132:227|288:186,1,224
143,304,70512,1,0,0:0:0:0:
376,287,70773,1,8,0:0:0:0:
110,268,71034,1,0,0:0:0:0:
110,268,71165,1,0,0:0:0:0:
355,272,71295,1,8,0:0:0:0:
355,272,71425,1,8,0:0:0:0:
162,293,71556,1,0,0:0:0:0:
340,290,71686,1,8,0:0:0:0:
340,290,71817,1,8,0:0:0:0:
57,292,71947,1,0,0:0:0:0:
72,292,72078,1,0,0:0:0:0:
72,292,72208,1,0,0:0:0:0:
354,285,72338,1,8,0:0:0:0:
354,285,72469,1,8,0:0:0:0:
185,304,72599,1,0,0:0:0:0:
336,293,72730,1,8,0:0:0:0:
336,293,72860,1,8,0:0:0:0:
146,312,72991,1,0,0:0:0:0:
385,306,73121,1,8,0:0:0:0:
212,322,73251,1,0,0:0:0:0:
385,306,73382,1,8,0:0:0:0:
159,330,73512,1,0,0:0:0:0:
434,284,73643,1,8,0:0:0:0:
380,294,73773,1,8,0:0:0:0:
172,329,73904,1,0,0:0:0:0:
422,284,74034,1,8,0:0:0:0:
68,205,74164,2,0,L|294:221,1,224
352,280,74947,1,8,0:0:0:0:
110,268,75208,1,0,0:0:0:0:
110,268,75339,1,0,0:0:0:0:
355,272,75469,1,8,0:0:0:0:
355,272,75599,1,8,0:0:0:0:
162,293,75730,1,0,0:0:0:0:
340,290,75860,1,8,0:0:0:0:
340,290,75991,1,8,0:0:0:0:
57,292,76121,1,0,0:0:0:0:
72,292,76252,1,0,0:0:0:0:
72,292,76382,1,0,0:0:0:0:
354,285,76512,1,8,0:0:0:0:
354,285,76643,1,8,0:0:0:0:
185,304,76773,1,0,0:0:0:0:
336,293,76904,1,8,0:0:0:0:
336,293,77034,1,8,0:0:0:0:
146,312,77165,1,0,0:0:0:0:
385,306,77295,1,8,0:0:0:0:
385,306,77425,1,8,0:0:0:0:
405,288,77491,1,8,0:0:0:0:
212,322,77556,1,0,0:0:0:0:
159,330,77686,1,0,0:0:0:0:
434,284,77817,1,8,0:0:0:0:
222,318,77947,1,0,0:0:0:0:
371,284,78078,1,8,0:0:0:0:
415,274,78208,1,8,0:0:0:0:
152,314,78338,1,0,0:0:0:0:
408,270,78469,1,8,0:0:0:0:
412,290,78599,1,8,0:0:0:0:
412,290,78730,1,8,0:0:0:0:
143,304,78860,1,0,0:0:0:0:
375,298,78991,1,8,0:0:0:0:
376,287,79121,1,8,0:0:0:0:
417,278,79251,1,8,0:0:0:0:
110,268,79382,1,0,0:0:0:0:
110,268,79513,1,0,0:0:0:0:
355,272,79643,1,8,0:0:0:0:
355,272,79773,1,8,0:0:0:0:
162,293,79904,1,0,0:0:0:0:
340,290,80034,1,8,0:0:0:0:
340,290,80165,1,8,0:0:0:0:
57,292,80295,1,0,0:0:0:0:
72,292,80426,1,0,0:0:0:0:
72,292,80556,1,0,0:0:0:0:
354,285,80686,1,8,0:0:0:0:
354,285,80817,1,8,0:0:0:0:
185,304,80947,1,0,0:0:0:0:
336,293,81078,1,8,0:0:0:0:
336,293,81208,1,8,0:0:0:0:
146,312,81339,1,0,0:0:0:0:
385,306,81469,1,8,0:0:0:0:
212,322,81599,1,0,0:0:0:0:
385,306,81730,1,8,0:0:0:0:
159,330,81860,1,0,0:0:0:0:
434,284,81991,1,8,0:0:0:0:
380,294,82121,1,8,0:0:0:0:
172,329,82252,1,0,0:0:0:0:
422,284,82382,1,8,0:0:0:0:
435,315,82512,1,8,0:0:0:0:
154,319,82643,1,0,0:0:0:0:
422,279,82773,1,8,0:0:0:0:
422,279,82904,1,8,0:0:0:0:
142,317,83034,1,0,0:0:0:0:
142,317,83164,1,0,0:0:0:0:
410,289,83295,1,8,0:0:0:0:
410,289,83425,1,8,0:0:0:0:
159,302,83556,1,0,0:0:0:0:
421,289,83817,1,8,0:0:0:0:
421,289,83882,1,8,0:0:0:0:
86,308,83947,1,0,0:0:0:0:
124,324,84077,1,0,0:0:0:0:
434,284,84208,1,8,0:0:0:0:
434,284,84273,1,8,0:0:0:0:
170,319,84338,1,0,0:0:0:0:
404,297,84469,1,8,0:0:0:0:
194,321,84599,1,0,0:0:0:0:
421,289,84860,1,8,0:0:0:0:
421,289,84925,1,8,0:0:0:0:
86,308,84990,1,0,0:0:0:0:
120,315,85121,1,0,0:0:0:0:
434,284,85251,1,8,0:0:0:0:
386,294,85317,1,8,0:0:0:0:
170,319,85381,1,0,0:0:0:0:
412,321,85512,1,8,0:0:0:0:
194,321,85642,1,0,0:0:0:0:
416,286,85773,1,8,0:0:0:0:
208,301,85838,1,0,0:0:0:0:
207,302,85904,1,0,0:0:0:0:
372,281,86164,1,8,0:0:0:0:
188,309,86425,1,0,0:0:0:0:
90,209,86556,2,0,L|329:199,1,210
388,293,87142,1,8,0:0:0:0:
280,300,87207,1,0,0:0:0:0:
355,290,87272,1,8,0:0:0:0:
213,307,87338,1,0,0:0:0:0:
396,294,87403,1,8,0:0:0:0:
261,304,87468,1,0,0:0:0:0:
390,296,87533,1,8,0:0:0:0:
232,303,87598,1,0,0:0:0:0:
396,296,87664,1,8,0:0:0:0:
159,302,87730,1,0,0:0:0:0:
421,289,87991,1,8,0:0:0:0:
421,289,88056,1,8,0:0:0:0:
86,308,88121,1,0,0:0:0:0:
124,324,88251,1,0,0:0:0:0:
434,284,88382,1,8,0:0:0:0:
434,284,88447,1,8,0:0:0:0:
170,319,88512,1,0,0:0:0:0:
404,297,88643,1,8,0:0:0:0:
194,321,88773,1,0,0:0:0:0:
421,289,89034,1,8,0:0:0:0:
421,289,89099,1,8,0:0:0:0:
86,308,89164,1,0,0:0:0:0:
120,315,89295,1,0,0:0:0:0:
434,284,89425,1,8,0:0:0:0:
386,294,89491,1,8,0:0:0:0:
170,319,89555,1,0,0:0:0:0:
412,321,89686,1,8,0:0:0:0:
194,321,89816,1,0,0:0:0:0:
416,286,90077,1,8,0:0:0:0:
134,293,90208,1,0,0:0:0:0:
372,281,90338,1,8,0:0:0:0:
134,293,90469,1,0,0:0:0:0:
188,309,90599,1,0,0:0:0:0:
361,283,90729,1,8,0:0:0:0:
92,225,90860,2,0,L|522:131,1,420
159,302,91904,1,0,0:0:0:0:
157,316,92034,1,0,0:0:0:0:
421,289,92165,1,8,0:0:0:0:
421,289,92230,1,8,0:0:0:0:
86,308,92295,1,0,0:0:0:0:
124,324,92425,1,0,0:0:0:0:
434,284,92556,1,8,0:0:0:0:
434,284,92621,1,8,0:0:0:0:
170,319,92686,1,0,0:0:0:0:
404,297,92817,1,8,0:0:0:0:
194,321,92947,1,0,0:0:0:0:
178,312,93077,1,0,0:0:0:0:
421,289,93208,1,8,0:0:0:0:
421,289,93273,1,8,0:0:0:0:
86,308,93338,1,0,0:0:0:0:
120,315,93469,1,0,0:0:0:0:
434,284,93599,1,8,0:0:0:0:
386,294,93665,1,8,0:0:0:0:
170,319,93729,1,0,0:0:0:0:
412,321,93860,1,8,0:0:0:0:
194,321,93990,1,0,0:0:0:0:
416,286,94121,1,8,0:0:0:0:
208,301,94186,1,0,0:0:0:0:
207,302,94252,1,0,0:0:0:0:
152,317,94382,1,0,0:0:0:0:
372,281,94512,1,8,0:0:0:0:
194,300,94643,1,0,0:0:0:0:
132,291,94773,1,0,0:0:0:0:
27,274,94904,2,0,L|249:197,1,210
388,293,95490,1,8,0:0:0:0:
280,300,95555,1,0,0:0:0:0:
355,290,95620,1,8,0:0:0:0:
140,313,95686,1,0,0:0:0:0:
396,294,95751,1,8,0:0:0:0:
188,310,95816,1,0,0:0:0:0:
390,296,95881,1,8,0:0:0:0:
159,309,95946,1,0,0:0:0:0:
396,296,96012,1,8,0:0:0:0:
86,308,96077,1,0,0:0:0:0:
71,272,96208,1,0,0:0:0:0:
421,289,96338,1,8,0:0:0:0:
421,289,96403,1,8,0:0:0:0:
86,308,96468,1,0,0:0:0:0:
124,324,96598,1,0,0:0:0:0:
434,284,96729,1,8,0:0:0:0:
434,284,96794,1,8,0:0:0:0:
97,325,96859,1,0,0:0:0:0:
404,297,96990,1,8,0:0:0:0:
121,327,97120,1,0,0:0:0:0:
119,330,97251,1,0,0:0:0:0:
458,296,97382,1,8,0:0:0:0:
458,296,97447,1,8,0:0:0:0:
164,308,97512,1,0,0:0:0:0:
179,329,97643,1,0,0:0:0:0:
179,329,97708,1,0,0:0:0:0:
397,297,97773,1,8,0:0:0:0:
141,314,97838,1,0,0:0:0:0:
430,290,97904,1,8,0:0:0:0:
430,290,97969,1,8,0:0:0:0:
430,290,98034,1,8,0:0:0:0:
100,128,98164,1,4,0:0:0:0:
129,136,98425,1,4,0:0:0:0:
305,117,98686,1,12,0:0:0:0:
160,120,98817,1,4,0:0:0:0:
160,120,99077,1,4,0:0:0:0:
504,313,99208,1,8,0:0:0:0:
187,305,99273,1,0,0:0:0:0:
397,313,99338,1,8,0:0:0:0:
177,313,99404,1,0,0:0:0:0:
353,312,99469,1,8,0:0:0:0:
202,310,99534,1,0,0:0:0:0:
323,298,99599,1,8,0:0:0:0:
360,304,99664,1,8,0:0:0:0:
350,280,99730,1,8,0:0:0:0:
211,280,99795,1,0,0:0:0:0:
344,275,99860,1,8,0:0:0:0:
211,279,99925,1,0,0:0:0:0:
362,278,99991,1,8,0:0:0:0:
185,278,100056,1,0,0:0:0:0:
427,282,100121,1,8,0:0:0:0:
155,92,100251,1,4,0:0:0:0:
