osu file format v14

[General]
AudioFilename: Undertale OST- 059 - Spider Dance.mp3
AudioLeadIn: 0
PreviewTime: 31349
Countdown: 0
SampleSet: Normal
StackLeniency: 0.7
Mode: 1
LetterboxInBreaks: 0
WidescreenStoryboard: 1

[Editor]
DistanceSpacing: 1.2
BeatDivisor: 4
GridSize: 8
TimelineZoom: 1.7

[Metadata]
Title:Spider Dance
TitleUnicode:Spider Dance
Artist:toby fox
ArtistUnicode:toby fox
Creator:OzzyOzrock
Version:Muzukashii
Source:Undertale
Tags:radiation muffet donut cider
BeatmapID:818078
BeatmapSetID:373414

[Difficulty]
HPDrainRate:6
CircleSize:5
OverallDifficulty:5
ApproachRate:6
SliderMultiplier:1.4
SliderTickRate:1

[Events]
//Background and Video events
0,0,"spiderdance.jpg",0,65
//Break Periods
//Storyboard Layer 0 (Background)
//Storyboard Layer 1 (Fail)
//Storyboard Layer 2 (Pass)
//Storyboard Layer 3 (Foreground)
//Storyboard Sound Samples

[TimingPoints]
78,260.869565217391,4,1,0,80,1,0
33469,-100,4,1,0,90,0,1
50164,-100,4,1,0,80,0,0
66860,-125,4,1,0,60,0,0
75208,-111.111111111111,4,1,0,60,0,0
83556,-100,4,1,0,70,0,0

[HitObjects]
464,256,78,5,8,0:0:0:0:
144,296,338,1,0,0:0:0:0:
440,248,599,1,8,0:0:0:0:
160,280,860,1,0,0:0:0:0:
445,243,1251,1,8,0:0:0:0:
413,241,1643,1,8,0:0:0:0:
122,286,1904,1,0,0:0:0:0:
409,246,2034,1,8,0:0:0:0:
128,296,2425,1,0,0:0:0:0:
328,272,2686,1,8,0:0:0:0:
160,288,2947,1,0,0:0:0:0:
160,288,3077,1,0,0:0:0:0:
128,288,3208,1,0,0:0:0:0:
128,288,3469,1,0,0:0:0:0:
360,248,3599,1,8,0:0:0:0:
392,240,3860,1,8,0:0:0:0:
432,240,3991,1,8,0:0:0:0:
80,304,4121,1,0,0:0:0:0:
144,296,4251,1,0,0:0:0:0:
400,264,4773,1,8,0:0:0:0:
144,264,5295,1,0,0:0:0:0:
448,272,5817,1,8,0:0:0:0:
120,264,6338,1,0,0:0:0:0:
128,272,7121,1,0,0:0:0:0:
128,272,7382,1,0,0:0:0:0:
144,264,8425,1,0,0:0:0:0:
432,256,8686,1,8,0:0:0:0:
432,256,8947,1,8,0:0:0:0:
112,264,9208,1,0,0:0:0:0:
440,264,9599,1,8,0:0:0:0:
472,224,9991,1,8,0:0:0:0:
144,280,10251,1,0,0:0:0:0:
360,240,10382,1,8,0:0:0:0:
224,264,10773,1,0,0:0:0:0:
336,248,11034,1,8,0:0:0:0:
336,248,11164,1,8,0:0:0:0:
144,272,11295,1,0,0:0:0:0:
352,240,11556,1,8,0:0:0:0:
176,272,11817,1,0,0:0:0:0:
304,248,11947,1,8,0:0:0:0:
384,248,12208,1,8,0:0:0:0:
384,248,12338,1,8,0:0:0:0:
224,264,12469,1,0,0:0:0:0:
192,264,12599,1,0,0:0:0:0:
392,256,13121,1,8,0:0:0:0:
136,280,13643,1,0,0:0:0:0:
384,256,14164,1,8,0:0:0:0:
184,288,14686,1,0,0:0:0:0:
168,288,15469,1,0,0:0:0:0:
168,288,15730,1,0,0:0:0:0:
136,288,16773,1,0,0:0:0:0:
384,256,17034,1,8,0:0:0:0:
144,312,17295,1,0,0:0:0:0:
384,256,17556,1,8,0:0:0:0:
384,240,17947,1,8,0:0:0:0:
376,256,18338,1,8,0:0:0:0:
176,288,18469,1,0,0:0:0:0:
176,288,18599,1,0,0:0:0:0:
336,248,18730,1,8,0:0:0:0:
176,272,19121,1,0,0:0:0:0:
152,280,19382,1,0,0:0:0:0:
168,264,19643,1,0,0:0:0:0:
152,264,19773,1,0,0:0:0:0:
328,240,19904,1,8,0:0:0:0:
168,264,20164,1,0,0:0:0:0:
296,232,20295,1,8,0:0:0:0:
320,232,20556,1,8,0:0:0:0:
320,232,20686,1,8,0:0:0:0:
128,272,20817,1,0,0:0:0:0:
128,272,20947,1,0,0:0:0:0:
336,248,21208,1,8,0:0:0:0:
104,280,21469,1,0,0:0:0:0:
304,248,21730,1,8,0:0:0:0:
120,272,21991,1,0,0:0:0:0:
320,256,22251,1,8,0:0:0:0:
128,280,22512,1,0,0:0:0:0:
320,256,22773,1,8,0:0:0:0:
104,280,23034,1,0,0:0:0:0:
112,280,23817,1,0,0:0:0:0:
112,280,24077,1,0,0:0:0:0:
96,272,25121,1,0,0:0:0:0:
336,264,25382,1,8,0:0:0:0:
336,264,25643,1,8,0:0:0:0:
112,272,25904,1,0,0:0:0:0:
344,280,26295,1,8,0:0:0:0:
112,264,26425,1,0,0:0:0:0:
112,264,26556,1,0,0:0:0:0:
328,280,26686,1,8,0:0:0:0:
184,280,26947,1,0,0:0:0:0:
328,272,27077,1,8,0:0:0:0:
144,280,27469,1,0,0:0:0:0:
352,256,27730,1,8,0:0:0:0:
152,280,27991,1,0,0:0:0:0:
152,280,28121,1,0,0:0:0:0:
352,248,28251,1,8,0:0:0:0:
112,272,28512,1,0,0:0:0:0:
344,240,28643,1,8,0:0:0:0:
344,240,28904,1,8,0:0:0:0:
344,240,29034,1,8,0:0:0:0:
120,272,29164,1,0,0:0:0:0:
112,272,29295,1,0,0:0:0:0:
360,288,29556,1,8,0:0:0:0:
184,280,29817,1,0,0:0:0:0:
368,272,30077,1,8,0:0:0:0:
80,280,30338,1,0,0:0:0:0:
344,272,30599,1,8,0:0:0:0:
136,296,30860,1,0,0:0:0:0:
352,272,31121,1,8,0:0:0:0:
392,208,33208,1,8,0:0:0:0:
104,104,33469,1,4,0:0:0:0:
400,272,33730,1,8,0:0:0:0:
344,272,33991,1,8,0:0:0:0:
200,280,34121,1,0,0:0:0:0:
344,272,34251,1,8,0:0:0:0:
216,296,34382,1,0,0:0:0:0:
360,264,34512,1,8,0:0:0:0:
144,256,34773,1,0,0:0:0:0:
384,248,34904,1,8,0:0:0:0:
400,264,35295,1,8,0:0:0:0:
128,304,35425,1,0,0:0:0:0:
376,248,35556,1,8,0:0:0:0:
176,296,35817,1,0,0:0:0:0:
392,264,35947,1,8,0:0:0:0:
376,280,36338,1,8,0:0:0:0:
160,304,36469,1,0,0:0:0:0:
376,256,36599,1,8,0:0:0:0:
184,288,36860,1,0,0:0:0:0:
336,248,36991,1,8,0:0:0:0:
328,256,37382,1,8,0:0:0:0:
144,288,37643,1,0,0:0:0:0:
400,272,37904,1,8,0:0:0:0:
344,272,38165,1,8,0:0:0:0:
200,280,38295,1,0,0:0:0:0:
344,272,38425,1,8,0:0:0:0:
216,296,38556,1,0,0:0:0:0:
360,264,38686,1,8,0:0:0:0:
384,248,38947,1,8,0:0:0:0:
144,256,39078,1,0,0:0:0:0:
400,264,39469,1,8,0:0:0:0:
128,304,39599,1,0,0:0:0:0:
376,248,39730,1,8,0:0:0:0:
392,264,39991,1,8,0:0:0:0:
176,296,40121,1,0,0:0:0:0:
376,280,40512,1,8,0:0:0:0:
160,304,40643,1,0,0:0:0:0:
376,256,40773,1,8,0:0:0:0:
184,288,41034,1,0,0:0:0:0:
336,248,41165,1,8,0:0:0:0:
328,256,41556,1,8,0:0:0:0:
144,288,41817,1,0,0:0:0:0:
400,272,42077,1,8,0:0:0:0:
344,272,42338,1,8,0:0:0:0:
200,280,42468,1,0,0:0:0:0:
344,272,42598,1,8,0:0:0:0:
216,296,42729,1,0,0:0:0:0:
360,264,42859,1,8,0:0:0:0:
144,256,43120,1,0,0:0:0:0:
384,248,43251,1,8,0:0:0:0:
400,264,43642,1,8,0:0:0:0:
128,304,43772,1,0,0:0:0:0:
376,248,43903,1,8,0:0:0:0:
176,296,44164,1,0,0:0:0:0:
392,264,44294,1,8,0:0:0:0:
376,280,44685,1,8,0:0:0:0:
160,304,44816,1,0,0:0:0:0:
376,256,44946,1,8,0:0:0:0:
184,288,45207,1,0,0:0:0:0:
336,248,45338,1,8,0:0:0:0:
328,256,45729,1,8,0:0:0:0:
144,288,45990,1,0,0:0:0:0:
336,248,46251,1,8,0:0:0:0:
336,248,46512,1,8,0:0:0:0:
104,288,46773,1,0,0:0:0:0:
336,248,47034,1,8,0:0:0:0:
128,288,47164,1,0,0:0:0:0:
336,256,47425,1,8,0:0:0:0:
152,296,47817,1,0,0:0:0:0:
112,288,47947,1,0,0:0:0:0:
304,256,48077,1,8,0:0:0:0:
336,280,48208,1,8,0:0:0:0:
168,288,48338,1,0,0:0:0:0:
376,256,48599,1,8,0:0:0:0:
176,288,48860,1,0,0:0:0:0:
176,288,49121,1,0,0:0:0:0:
376,256,49382,1,8,0:0:0:0:
376,256,49643,1,8,0:0:0:0:
360,256,50164,1,8,0:0:0:0:
152,296,50425,1,0,0:0:0:0:
392,272,50686,1,8,0:0:0:0:
200,296,50947,1,0,0:0:0:0:
320,280,51077,1,8,0:0:0:0:
352,272,51208,1,8,0:0:0:0:
144,304,51469,1,0,0:0:0:0:
384,304,51730,1,8,0:0:0:0:
192,304,51991,1,0,0:0:0:0:
192,296,52121,1,0,0:0:0:0:
320,280,52251,1,8,0:0:0:0:
336,280,52512,1,8,0:0:0:0:
304,264,52773,1,8,0:0:0:0:
320,264,53034,1,8,0:0:0:0:
144,304,53164,1,0,0:0:0:0:
296,272,53295,1,8,0:0:0:0:
160,296,53556,1,0,0:0:0:0:
312,272,53817,1,8,0:0:0:0:
184,296,54077,1,0,0:0:0:0:
368,272,54338,1,8,0:0:0:0:
200,272,54469,1,0,0:0:0:0:
352,272,54599,1,8,0:0:0:0:
192,288,54730,1,0,0:0:0:0:
368,288,54860,1,8,0:0:0:0:
328,288,55121,1,8,0:0:0:0:
376,296,55382,1,8,0:0:0:0:
160,272,55512,1,0,0:0:0:0:
328,280,55643,1,8,0:0:0:0:
192,288,55773,1,0,0:0:0:0:
368,288,55904,1,8,0:0:0:0:
192,304,56164,1,0,0:0:0:0:
336,264,56425,1,8,0:0:0:0:
192,296,56556,1,0,0:0:0:0:
344,288,56686,1,8,0:0:0:0:
344,288,56947,1,8,0:0:0:0:
168,288,57208,1,0,0:0:0:0:
360,288,57469,1,8,0:0:0:0:
168,280,57730,1,0,0:0:0:0:
304,280,57860,1,8,0:0:0:0:
336,280,57991,1,8,0:0:0:0:
160,320,58512,1,0,0:0:0:0:
400,272,58773,1,8,0:0:0:0:
344,272,59034,1,8,0:0:0:0:
344,272,59294,1,8,0:0:0:0:
216,288,59425,1,0,0:0:0:0:
360,264,59555,1,8,0:0:0:0:
144,256,59816,1,0,0:0:0:0:
384,248,59947,1,8,0:0:0:0:
400,264,60338,1,8,0:0:0:0:
200,288,60469,1,0,0:0:0:0:
376,248,60599,1,8,0:0:0:0:
176,296,60860,1,0,0:0:0:0:
392,264,60990,1,8,0:0:0:0:
376,280,61381,1,8,0:0:0:0:
184,288,61512,1,0,0:0:0:0:
376,256,61642,1,8,0:0:0:0:
184,288,61903,1,0,0:0:0:0:
336,248,62034,1,8,0:0:0:0:
328,256,62425,1,8,0:0:0:0:
32,280,62686,1,0,0:0:0:0:
360,256,62947,1,8,0:0:0:0:
360,256,63208,1,8,0:0:0:0:
336,272,63730,1,8,0:0:0:0:
328,264,64121,1,8,0:0:0:0:
136,288,64512,1,0,0:0:0:0:
320,256,64773,1,8,0:0:0:0:
320,256,64904,1,8,0:0:0:0:
112,288,65034,1,0,0:0:0:0:
336,240,65295,1,8,0:0:0:0:
120,288,65817,1,0,0:0:0:0:
320,256,66077,1,8,0:0:0:0:
320,256,66338,1,8,0:0:0:0:
448,312,67121,5,8,0:0:0:0:
208,312,67251,1,0,0:0:0:0:
416,288,67512,1,8,0:0:0:0:
160,312,67642,1,0,0:0:0:0:
448,312,68164,5,8,0:0:0:0:
208,312,68294,1,0,0:0:0:0:
416,288,68555,1,8,0:0:0:0:
160,312,68685,1,0,0:0:0:0:
424,288,68947,1,8,0:0:0:0:
424,288,69077,1,8,0:0:0:0:
224,304,69208,1,0,0:0:0:0:
408,272,69469,1,8,0:0:0:0:
152,304,69730,1,0,0:0:0:0:
448,280,69860,1,8,0:0:0:0:
448,312,71295,5,8,0:0:0:0:
208,312,71425,1,0,0:0:0:0:
416,288,71686,1,8,0:0:0:0:
160,312,71816,1,0,0:0:0:0:
448,312,72338,5,8,0:0:0:0:
208,312,72468,1,0,0:0:0:0:
416,288,72729,1,8,0:0:0:0:
160,312,72859,1,0,0:0:0:0:
128,288,73121,1,0,0:0:0:0:
408,288,73382,1,8,0:0:0:0:
408,288,73643,1,8,0:0:0:0:
144,312,74034,1,0,0:0:0:0:
136,304,74164,1,0,0:0:0:0:
128,272,75208,1,0,0:0:0:0:
136,280,75338,1,0,0:0:0:0:
328,272,75469,1,8,0:0:0:0:
152,272,75730,1,0,0:0:0:0:
152,272,75860,1,0,0:0:0:0:
304,272,75991,1,8,0:0:0:0:
144,280,76251,1,0,0:0:0:0:
144,280,76382,1,0,0:0:0:0:
296,272,76512,1,8,0:0:0:0:
136,272,76773,1,0,0:0:0:0:
296,272,77034,1,8,0:0:0:0:
216,312,77295,1,0,0:0:0:0:
344,280,77425,1,8,0:0:0:0:
360,280,77556,1,8,0:0:0:0:
136,296,77817,1,0,0:0:0:0:
368,264,77947,1,8,0:0:0:0:
368,272,78077,1,8,0:0:0:0:
192,296,78338,1,0,0:0:0:0:
336,272,78469,1,8,0:0:0:0:
360,272,78599,1,8,0:0:0:0:
160,304,78860,1,0,0:0:0:0:
360,272,79121,1,8,0:0:0:0:
144,288,79382,1,0,0:0:0:0:
136,280,79512,1,0,0:0:0:0:
328,272,79643,1,8,0:0:0:0:
152,272,79904,1,0,0:0:0:0:
152,272,80034,1,0,0:0:0:0:
304,272,80165,1,8,0:0:0:0:
144,280,80425,1,0,0:0:0:0:
144,280,80556,1,0,0:0:0:0:
296,272,80686,1,8,0:0:0:0:
136,272,80947,1,0,0:0:0:0:
296,272,81208,1,8,0:0:0:0:
216,312,81469,1,0,0:0:0:0:
344,280,81599,1,8,0:0:0:0:
360,280,81730,1,8,0:0:0:0:
136,296,81991,1,0,0:0:0:0:
368,264,82121,1,8,0:0:0:0:
368,272,82251,1,8,0:0:0:0:
192,296,82512,1,0,0:0:0:0:
336,272,82643,1,8,0:0:0:0:
360,272,82773,1,8,0:0:0:0:
160,304,83034,1,0,0:0:0:0:
144,288,83556,1,0,0:0:0:0:
336,232,83817,1,8,0:0:0:0:
336,256,84208,1,8,0:0:0:0:
176,288,84338,1,0,0:0:0:0:
144,312,84599,1,0,0:0:0:0:
336,232,84860,1,8,0:0:0:0:
336,256,85251,1,8,0:0:0:0:
176,288,85381,1,0,0:0:0:0:
344,280,85643,1,8,0:0:0:0:
344,280,85773,1,8,0:0:0:0:
112,296,85904,1,0,0:0:0:0:
384,272,86164,1,8,0:0:0:0:
120,304,86425,1,0,0:0:0:0:
296,304,86556,1,8,0:0:0:0:
392,304,87208,1,8,0:0:0:0:
376,296,87338,1,8,0:0:0:0:
392,304,87469,1,8,0:0:0:0:
338,275,87534,1,8,0:0:0:0:
344,304,87599,1,8,0:0:0:0:
96,296,87730,1,0,0:0:0:0:
408,280,87991,1,8,0:0:0:0:
368,288,88382,1,8,0:0:0:0:
120,296,88512,1,0,0:0:0:0:
144,296,88773,1,0,0:0:0:0:
352,296,89034,1,8,0:0:0:0:
320,280,89425,1,8,0:0:0:0:
136,304,89556,1,0,0:0:0:0:
120,296,89817,1,0,0:0:0:0:
336,272,90077,1,8,0:0:0:0:
336,272,90338,1,8,0:0:0:0:
144,288,90730,1,0,0:0:0:0:
144,288,90860,1,0,0:0:0:0:
144,288,91904,1,0,0:0:0:0:
336,232,92165,1,8,0:0:0:0:
336,256,92556,1,8,0:0:0:0:
176,288,92686,1,0,0:0:0:0:
144,312,92947,1,0,0:0:0:0:
336,232,93208,1,8,0:0:0:0:
336,256,93599,1,8,0:0:0:0:
176,288,93729,1,0,0:0:0:0:
344,280,93991,1,8,0:0:0:0:
344,280,94121,1,8,0:0:0:0:
112,296,94252,1,0,0:0:0:0:
384,272,94512,1,8,0:0:0:0:
120,304,94773,1,0,0:0:0:0:
296,304,94904,1,8,0:0:0:0:
392,304,95556,1,8,0:0:0:0:
392,304,95686,1,8,0:0:0:0:
392,304,95817,1,8,0:0:0:0:
367,275,95882,1,8,0:0:0:0:
416,296,95947,1,8,0:0:0:0:
96,296,96078,1,0,0:0:0:0:
408,280,96339,1,8,0:0:0:0:
368,288,96730,1,8,0:0:0:0:
120,296,96860,1,0,0:0:0:0:
144,296,97121,1,0,0:0:0:0:
352,296,97382,1,8,0:0:0:0:
320,280,97773,1,8,0:0:0:0:
136,304,97904,1,0,0:0:0:0:
144,112,98165,1,4,0:0:0:0:
121,95,98425,1,4,0:0:0:0:
360,88,98686,1,12,0:0:0:0:
136,296,98817,1,4,0:0:0:0:
168,104,99078,1,4,0:0:0:0:
384,104,99208,1,12,0:0:0:0:
400,320,99599,1,8,0:0:0:0:
400,320,99730,1,8,0:0:0:0:
104,152,100251,1,4,0:0:0:0:
