osu file format v14

[General]
AudioFilename: Undertale OST- 059 - Spider Dance.mp3
AudioLeadIn: 0
PreviewTime: 31349
Countdown: 0
SampleSet: Normal
StackLeniency: 0.7
Mode: 1
LetterboxInBreaks: 0
WidescreenStoryboard: 1

[Editor]
DistanceSpacing: 1.2
BeatDivisor: 4
GridSize: 8
TimelineZoom: 0.4000001

[Metadata]
Title:Spider Dance
TitleUnicode:Spider Dance
Artist:toby fox
ArtistUnicode:toby fox
Creator:OzzyOzrock
Version:Kantan
Source:Undertale
Tags:radiation muffet donut cider
BeatmapID:818077
BeatmapSetID:373414

[Difficulty]
HPDrainRate:8
CircleSize:5
OverallDifficulty:4
ApproachRate:6
SliderMultiplier:1.2
SliderTickRate:1

[Events]
//Background and Video events
0,0,"spiderdance.jpg",0,65
//Break Periods
//Storyboard Layer 0 (Background)
//Storyboard Layer 1 (Fail)
//Storyboard Layer 2 (Pass)
//Storyboard Layer 3 (Foreground)
//Storyboard Sound Samples

[TimingPoints]
78,260.869565217391,4,1,0,80,1,0
33469,-100,4,1,0,90,0,1
50164,-100,4,1,0,80,0,0
66860,-100,4,1,0,60,0,0
83556,-100,4,1,0,70,0,0

[HitObjects]
464,256,78,5,8,0:0:0:0:
440,248,599,1,8,0:0:0:0:
413,241,1643,1,8,0:0:0:0:
160,288,2686,1,0,0:0:0:0:
360,288,3208,1,8,0:0:0:0:
376,296,3730,1,8,0:0:0:0:
112,296,4251,1,0,0:0:0:0:
448,272,5295,1,8,0:0:0:0:
120,264,6338,1,0,0:0:0:0:
128,272,7121,1,0,0:0:0:0:
128,272,7382,1,0,0:0:0:0:
144,264,8425,1,0,0:0:0:0:
432,256,8947,1,8,0:0:0:0:
472,224,9991,1,8,0:0:0:0:
336,248,11034,1,8,0:0:0:0:
144,272,11556,1,0,0:0:0:0:
304,248,12077,1,8,0:0:0:0:
192,264,12599,1,0,0:0:0:0:
336,280,13643,1,8,0:0:0:0:
184,288,14686,1,0,0:0:0:0:
168,288,15469,1,0,0:0:0:0:
168,288,15730,1,0,0:0:0:0:
464,256,16773,5,8,0:0:0:0:
440,248,17294,1,8,0:0:0:0:
413,241,18338,1,8,0:0:0:0:
160,288,19381,1,0,0:0:0:0:
392,272,19903,1,8,0:0:0:0:
408,280,20425,1,8,0:0:0:0:
168,296,20946,1,0,0:0:0:0:
448,272,21990,1,8,0:0:0:0:
400,264,22512,1,8,0:0:0:0:
120,264,23033,1,0,0:0:0:0:
128,272,23816,1,0,0:0:0:0:
128,272,24077,1,0,0:0:0:0:
144,264,25120,1,0,0:0:0:0:
432,256,25642,1,8,0:0:0:0:
472,224,26686,1,8,0:0:0:0:
336,248,27729,1,8,0:0:0:0:
144,272,28251,1,0,0:0:0:0:
304,248,28772,1,8,0:0:0:0:
192,264,29294,1,0,0:0:0:0:
336,280,30338,1,8,0:0:0:0:
344,288,30860,1,8,0:0:0:0:
96,128,33469,1,4,0:0:0:0:
200,280,33991,1,0,0:0:0:0:
120,272,34251,1,0,0:0:0:0:
344,272,34512,1,8,0:0:0:0:
400,296,34904,1,8,0:0:0:0:
352,296,35556,1,8,0:0:0:0:
408,304,35947,1,8,0:0:0:0:
336,248,36599,1,8,0:0:0:0:
144,272,37643,1,0,0:0:0:0:
128,256,38164,1,0,0:0:0:0:
136,288,38425,1,0,0:0:0:0:
408,264,38686,1,8,0:0:0:0:
160,320,39078,1,0,0:0:0:0:
320,296,39730,1,8,0:0:0:0:
144,320,40121,1,0,0:0:0:0:
376,280,40773,1,8,0:0:0:0:
120,272,41817,1,0,0:0:0:0:
200,280,42339,1,0,0:0:0:0:
120,272,42599,1,0,0:0:0:0:
344,272,42860,1,8,0:0:0:0:
400,296,43252,1,8,0:0:0:0:
352,296,43904,1,8,0:0:0:0:
408,304,44295,1,8,0:0:0:0:
336,248,44947,1,8,0:0:0:0:
144,272,45991,1,0,0:0:0:0:
408,264,46512,1,8,0:0:0:0:
136,288,47034,1,0,0:0:0:0:
160,320,47426,1,0,0:0:0:0:
320,296,48078,1,8,0:0:0:0:
144,320,48599,1,0,0:0:0:0:
376,280,49121,1,8,0:0:0:0:
360,256,50164,1,8,0:0:0:0:
144,304,50686,1,0,0:0:0:0:
352,272,51208,1,8,0:0:0:0:
152,304,51730,1,0,0:0:0:0:
304,264,52251,1,8,0:0:0:0:
336,280,52512,1,8,0:0:0:0:
296,272,52773,1,8,0:0:0:0:
184,296,53295,1,0,0:0:0:0:
368,272,54338,1,8,0:0:0:0:
368,288,54860,1,8,0:0:0:0:
376,296,55382,1,8,0:0:0:0:
368,288,55904,1,8,0:0:0:0:
192,296,56425,1,0,0:0:0:0:
344,288,56947,1,8,0:0:0:0:
360,288,57469,1,8,0:0:0:0:
384,312,57730,1,8,0:0:0:0:
336,280,57991,1,8,0:0:0:0:
160,320,58512,1,0,0:0:0:0:
328,248,59556,1,8,0:0:0:0:
384,248,59947,1,8,0:0:0:0:
384,280,60599,1,8,0:0:0:0:
392,264,60990,1,8,0:0:0:0:
376,280,61643,1,8,0:0:0:0:
336,248,62034,1,8,0:0:0:0:
32,280,62686,1,0,0:0:0:0:
360,256,63208,1,8,0:0:0:0:
96,280,63730,1,0,0:0:0:0:
96,280,64121,1,0,0:0:0:0:
320,256,64773,1,8,0:0:0:0:
112,288,65295,1,0,0:0:0:0:
320,256,65817,1,8,0:0:0:0:
448,312,66860,5,8,0:0:0:0:
448,312,67904,5,8,0:0:0:0:
416,288,68947,1,8,0:0:0:0:
224,304,69469,1,0,0:0:0:0:
144,304,69991,1,0,0:0:0:0:
448,312,71034,5,8,0:0:0:0:
416,288,72077,1,8,0:0:0:0:
136,296,73121,1,0,0:0:0:0:
408,288,73643,1,8,0:0:0:0:
136,304,74164,1,0,0:0:0:0:
128,272,75208,1,0,0:0:0:0:
152,272,75730,1,0,0:0:0:0:
144,280,76251,1,0,0:0:0:0:
360,280,77295,1,8,0:0:0:0:
368,272,77817,1,8,0:0:0:0:
328,272,78338,1,8,0:0:0:0:
144,288,79382,1,0,0:0:0:0:
152,272,79904,1,0,0:0:0:0:
144,280,80425,1,0,0:0:0:0:
296,272,81469,1,8,0:0:0:0:
360,280,81991,1,8,0:0:0:0:
368,272,82512,1,8,0:0:0:0:
336,232,83817,1,8,0:0:0:0:
336,256,84208,1,8,0:0:0:0:
336,232,84860,1,8,0:0:0:0:
336,256,85251,1,8,0:0:0:0:
152,304,85643,1,0,0:0:0:0:
136,304,86164,1,0,0:0:0:0:
136,304,86686,1,0,0:0:0:0:
408,280,87991,1,8,0:0:0:0:
368,288,88382,1,8,0:0:0:0:
352,296,89034,1,8,0:0:0:0:
320,280,89425,1,8,0:0:0:0:
80,288,89817,1,0,0:0:0:0:
336,272,90338,1,8,0:0:0:0:
144,288,90860,1,0,0:0:0:0:
336,232,92165,1,8,0:0:0:0:
336,256,92556,1,8,0:0:0:0:
336,232,93208,1,8,0:0:0:0:
336,256,93599,1,8,0:0:0:0:
152,304,93991,1,0,0:0:0:0:
168,312,94512,1,0,0:0:0:0:
168,312,95034,1,0,0:0:0:0:
408,280,96339,1,8,0:0:0:0:
368,288,96730,1,8,0:0:0:0:
352,296,97382,1,8,0:0:0:0:
320,280,97773,1,8,0:0:0:0:
144,112,98165,1,4,0:0:0:0:
360,88,98686,1,12,0:0:0:0:
144,112,99208,1,4,0:0:0:0:
104,152,100251,1,4,0:0:0:0:
