osu file format v14

[General]
AudioFilename: audio.mp3
AudioLeadIn: 0
PreviewTime: 32859
Countdown: 1
SampleSet: Soft
StackLeniency: 0.7
Mode: 0
LetterboxInBreaks: 0
WidescreenStoryboard: 0

[Editor]
Bookmarks: 66769,100160
DistanceSpacing: 0.7
BeatDivisor: 4
GridSize: 4
TimelineZoom: 2.4

[Metadata]
Title:Spider Dance
TitleUnicode:Spider Dance
Artist:toby fox
ArtistUnicode:toby fox
Creator:Morbon
Version:kak dela
Source:
Tags:
BeatmapID:1102957
BeatmapSetID:519157

[Difficulty]
HPDrainRate:5
CircleSize:5
OverallDifficulty:9
ApproachRate:8.4
SliderMultiplier:2.5
SliderTickRate:1

[Events]
//Background and Video events
0,0,"spiderdance.jpg",0,0
//Break Periods
//Storyboard Layer 0 (Background)
//Storyboard Layer 1 (Fail)
//Storyboard Layer 2 (Pass)
//Storyboard Layer 3 (Foreground)
//Storyboard Sound Samples

[TimingPoints]
-10,260.869565217391,4,2,0,50,1,0
33381,-100,4,1,0,65,0,1
43163,1043.47826086957,4,1,0,65,1,1
43554,260.869565217391,4,1,0,65,1,1
44206,1043.47826086957,4,1,0,65,1,1
44597,260.869565217391,4,1,0,65,1,1
45249,1043.47826086957,4,1,0,65,1,1
45900,260.869565217391,4,1,0,65,1,1
50076,-100,4,2,0,50,0,0

[HitObjects]
80,352,7946,5,0,0:0:0:0:
34,273,8076,1,0,0:0:0:0:
113,228,8206,1,0,0:0:0:0:
158,306,8337,5,0,0:0:0:0:
248,264,8468,1,0,0:0:0:0:
304,348,8598,2,0,L|436:348,1,125
461,264,8859,2,0,L|329:264,1,125
248,264,9120,2,0,P|208:200|216:136,1,125
352,96,9381,5,0,0:0:0:0:
96,112,9511,1,0,0:0:0:0:
352,96,9642,1,0,0:0:0:0:
352,96,9903,5,0,0:0:0:0:
96,112,10033,1,0,0:0:0:0:
352,96,10163,1,0,0:0:0:0:
96,112,10294,1,0,0:0:0:0:
352,96,10424,5,0,0:0:0:0:
280,200,10555,1,0,0:0:0:0:
160,240,10685,1,0,0:0:0:0:
16,204,10816,1,0,0:0:0:0:
138,359,10946,5,0,0:0:0:0:
298,356,11077,1,0,0:0:0:0:
412,281,11207,1,0,0:0:0:0:
459,152,11338,1,0,0:0:0:0:
320,32,11468,5,0,0:0:0:0:
224,188,11598,1,0,0:0:0:0:
100,40,11729,1,0,0:0:0:0:
16,204,11859,2,0,P|12:296|148:356,1,250
139,358,12185,1,0,0:0:0:0:
139,358,12250,1,0,0:0:0:0:
144,128,12381,1,0,0:0:0:0:
368,156,12511,6,0,P|372:72|208:36,1,250
292,304,13033,2,0,P|376:308|412:144,1,250
144,228,13555,2,0,P|140:312|304:348,1,250
220,80,14076,2,0,P|136:76|100:240,1,250
484,24,14598,6,0,P|396:16|284:24,1,187.5
232,24,14859,2,0,P|224:112|232:224,1,187.5
292,184,15120,2,0,P|300:272|292:384,1,187.5
232,356,15381,2,0,P|138:362|45:353,1,187.5
80,24,15642,6,0,P|71:98|78:192,1,187.5
144,184,15903,2,0,P|218:175|312:182,1,187.5
228,244,16163,2,0,P|302:253|396:246,1,187.5
472,176,16424,2,0,P|481:250|474:344,1,187.5
152,356,16685,6,0,P|86:354|10:342,1,125
32,176,16946,1,0,0:0:0:0:
32,176,17076,1,0,0:0:0:0:
132,124,17207,2,0,P|156:184|124:240,1,125
232,316,17468,2,0,P|287:290|342:314,1,125
384,48,17729,5,0,0:0:0:0:
342,314,17859,1,0,0:0:0:0:
132,124,17989,1,0,0:0:0:0:
132,124,18250,5,0,0:0:0:0:
348,320,18381,1,0,0:0:0:0:
32,224,18511,1,0,0:0:0:0:
512,192,18642,1,0,0:0:0:0:
88,18,18772,5,0,0:0:0:0:
226,142,18903,1,0,0:0:0:0:
32,224,19033,1,0,0:0:0:0:
271,249,19163,1,0,0:0:0:0:
132,124,19293,1,0,0:0:0:0:
307,60,19424,1,0,0:0:0:0:
344,292,19555,2,0,P|285:326|227:312,1,125
96,256,19816,5,0,0:0:0:0:
64,64,19946,1,0,0:0:0:0:
96,256,20076,1,0,0:0:0:0:
193,344,20207,2,0,P|273:360|345:288,1,187.5
343,291,20468,1,0,0:0:0:0:
168,108,20598,1,0,0:0:0:0:
176,124,20663,1,0,0:0:0:0:
184,141,20728,1,0,0:0:0:0:
193,158,20794,1,0,0:0:0:0:
200,176,20859,6,0,B|16:252|16:252|12:188|12:184,1,250
69,155,21250,1,0,0:0:0:0:
252,132,21381,2,0,B|252:145|248:81|248:81|64:157,1,250
256,201,21772,1,0,0:0:0:0:
444,176,21903,2,0,B|260:252|260:252|256:188|256:184,1,250
305,151,22294,1,0,0:0:0:0:
488,128,22425,2,0,B|488:141|484:77|484:77|300:153,1,250
448,288,22816,1,0,0:0:0:0:
256,201,22946,6,0,B|172:273|172:273|220:297|268:277,1,187.5
256,201,23207,2,0,B|340:273|340:273|292:297|244:277,1,187.5
265,283,23468,6,0,P|193:335|93:331,1,187.5
246,283,23729,2,0,P|318:335|418:331,1,187.5
49,134,23989,6,0,P|64:220|76:320,1,187.5
463,134,24250,2,0,P|448:220|436:320,1,187.5
160,192,24511,5,0,0:0:0:0:
224,32,24642,1,0,0:0:0:0:
256,288,24772,1,0,0:0:0:0:
288,32,24903,1,0,0:0:0:0:
352,192,25033,5,0,0:0:0:0:
448,64,25163,1,0,0:0:0:0:
416,256,25294,1,0,0:0:0:0:
384,32,25424,1,0,0:0:0:0:
480,320,25555,1,0,0:0:0:0:
244,236,25685,1,0,0:0:0:0:
416,352,25816,1,0,0:0:0:0:
192,288,25946,1,0,0:0:0:0:
352,352,26076,5,0,0:0:0:0:
192,160,26207,1,0,0:0:0:0:
32,320,26337,1,0,0:0:0:0:
32,320,26598,5,0,0:0:0:0:
256,208,26729,1,0,0:0:0:0:
88,152,26859,1,0,0:0:0:0:
316,48,26990,1,0,0:0:0:0:
128,64,27120,5,0,0:0:0:0:
64,288,27250,1,0,0:0:0:0:
224,128,27381,1,0,0:0:0:0:
20,241,27511,1,0,0:0:0:0:
248,240,27642,1,0,0:0:0:0:
24,176,27772,1,0,0:0:0:0:
168,320,27903,1,0,0:0:0:0:
54,116,28033,1,0,0:0:0:0:
64,352,28163,5,0,0:0:0:0:
320,352,28294,1,0,0:0:0:0:
32,320,28424,1,0,0:0:0:0:
352,320,28555,2,0,B|424:320|484:356|484:356|468:284|488:196,1,250
488,184,28881,1,0,0:0:0:0:
456,132,28946,1,0,0:0:0:0:
400,112,29011,1,0,0:0:0:0:
340,120,29076,1,0,0:0:0:0:
280,104,29142,1,0,0:0:0:0:
236,48,29207,6,0,B|368:40|416:20|416:20|500:44,1,250
480,345,29729,2,0,B|416:364|416:364|368:344|236:336,1,250
296,24,30250,2,0,B|368:134|410:165|410:165|431:250,1,250
159,383,30772,2,0,B|110:336|110:336|104:284|44:166,1,250
240,184,31294,6,0,B|112:232|112:232|208:272,1,187.5
176,256,31555,2,0,L|352:328,1,187.5
368,336,31816,2,0,B|432:360|432:360|368:208,1,187.5
376,232,32076,2,0,B|336:136|336:136|240:176,1,187.5
104,40,32337,6,0,B|96:128|96:128|116:176|112:225,1,187.5
400,225,32598,2,0,B|396:176|416:128|416:128|408:40,1,187.5
192,352,32859,1,2,0:0:0:0:
256,96,32989,1,2,0:0:0:0:
0,160,33120,1,2,0:0:0:0:
256,96,33250,1,2,0:0:0:0:
0,160,33381,6,0,B|32:180|56:180|56:180|84:168|128:180,1,125,6|0,0:0|0:0,0:0:0:0:
512,224,33642,2,0,B|480:204|456:204|456:204|428:216|392:206,1,125,8|0,0:0|0:0,0:0:0:0:
128,352,33903,1,0,0:0:0:0:
392,206,34033,1,0,0:0:0:0:
128,32,34163,1,8,0:0:0:0:
512,224,34294,1,0,0:0:0:0:
92,288,34424,6,0,P|44:180|88:28,1,250,2|8,0:0|0:0,0:0:0:0:
380,312,34816,2,0,P|272:360|120:316,1,250,2|0,0:0|0:0,0:0:0:0:
128,32,35207,1,8,0:0:0:0:
256,288,35337,1,0,0:0:0:0:
24,144,35468,6,0,P|130:113|255:25,1,250,2|8,0:0|0:0,0:0:0:0:
380,312,35859,2,0,P|326:215|300:64,1,250,2|0,0:0|0:0,0:0:0:0:
488,128,36250,1,8,0:0:0:0:
276,325,36381,1,0,0:0:0:0:
32,32,36511,6,0,P|192:32|288:64,1,250,2|8,0:0|0:0,0:0:0:0:
276,325,36903,2,0,P|156:357|32:352,1,250,2|0,0:0|0:0,0:0:0:0:
448,192,37294,1,10,0:0:0:0:
64,160,37424,1,2,0:0:0:0:
480,256,37555,6,0,P|440:308|388:344,1,125,6|0,0:0|0:0,0:0:0:0:
32,96,37816,1,8,0:0:0:0:
96,224,37946,1,0,0:0:0:0:
160,32,38076,1,0,0:0:0:0:
32,96,38207,1,0,0:0:0:0:
256,256,38337,1,8,0:0:0:0:
416,32,38468,1,0,0:0:0:0:
472,356,38598,6,0,P|352:364|228:316,1,250,2|8,0:0|0:0,0:0:0:0:
116,20,38989,2,0,P|124:140|76:264,1,250,2|0,0:0|0:0,0:0:0:0:
448,320,39381,1,8,0:0:0:0:
288,32,39511,1,0,0:0:0:0:
11,281,39642,6,0,P|113:346|232:318,1,250,2|8,0:0|0:0,0:0:0:0:
432,112,40033,2,0,P|405:230|301:294,1,250,2|0,0:0|0:0,0:3:0:0:
78,259,40424,1,8,0:0:0:0:
192,32,40555,1,0,0:0:0:0:
416,296,40685,6,0,P|292:292|212:196,1,250,2|8,0:0|0:0,0:0:0:0:
480,32,41076,2,0,P|476:156|380:236,1,250,2|0,0:0|0:0,0:0:0:0:
64,32,41468,1,10,0:0:0:0:
416,32,41598,1,2,0:0:0:0:
320,352,41729,5,6,0:0:0:0:
160,192,41859,1,0,0:0:0:0:
128,320,41989,1,8,0:0:0:0:
320,128,42120,1,0,0:0:0:0:
96,64,42250,2,0,P|56:116|32:192,1,125
424,96,42511,2,0,P|372:56|296:32,1,125,8|0,0:0|0:0,0:0:0:0:
24,312,42772,6,0,L|300:364,1,250,2|8,0:0|0:0,0:0:0:0:
380,328,43163,2,0,L|318:316,1,62.5,2|0,0:0|0:0,0:0:0:0:
188,228,43554,2,0,L|348:260,1,125,8|0,0:0|0:0,0:0:0:0:
396,204,43814,6,0,L|120:152,1,250,2|8,0:0|0:0,0:0:0:0:
112,84,44206,2,0,L|174:96,1,62.5,2|0,0:0|0:0,0:0:0:0:
356,92,44597,2,0,L|196:60,1,125,8|0,0:0|0:0,0:0:0:0:
60,28,44857,6,0,P|32:116|116:260,1,250,2|8,0:0|0:0,0:0:0:0:
396,204,45249,2,0,P|396:168|384:132,1,62.5,2|0,0:0|0:0,0:0:0:0:
184,32,45640,1,10,0:0:0:0:
136,352,45770,1,2,0:0:0:0:
184,32,45900,6,2,B|96:76|16:8|16:8|0:120,1,250,2|10,0:0|0:0,0:0:0:0:
384,352,46291,1,0,0:0:0:0:
328,32,46422,2,2,B|416:76|496:8|496:8|512:120,1,250,2|10,0:0|0:0,0:0:0:0:
0,288,46813,1,0,0:0:0:0:
256,352,46944,1,2,0:0:0:0:
64,32,47074,1,2,0:0:0:0:
64,32,47335,2,2,P|32:128|128:244,1,250
448,352,47726,5,8,0:0:0:0:
288,192,47857,1,0,0:0:0:0:
448,32,47987,5,2,0:0:0:0:
512,192,48118,1,0,0:0:0:0:
0,192,48248,1,8,0:0:0:0:
64,352,48379,1,0,0:0:0:0:
368,192,48509,1,8,0:0:0:0:
64,32,48640,1,0,0:0:0:0:
512,352,48770,6,2,P|512:264|416:164,1,187.5
360,20,49031,2,2,P|297:82|294:220,1,187.5
208,352,49292,2,2,P|208:264|112:164,1,187.5
4,64,49553,2,2,P|-59:126|68:356,1,375
96,208,50073,6,0,L|352:256,1,250
208,352,50465,1,0,0:0:0:0:
24,276,50595,2,0,P|8:184|120:84,1,250
232,208,50986,1,0,0:0:0:0:
460,316,51117,6,0,P|464:252|452:192,1,125
371,28,51378,2,0,P|359:89|364:152,1,125
280,352,51639,1,0,0:0:0:0:
128,192,51769,1,0,0:0:0:0:
24,324,51899,1,0,0:0:0:0:
232,208,52030,1,0,0:0:0:0:
32,32,52160,5,0,0:0:0:0:
256,64,52291,1,0,0:0:0:0:
8,176,52421,1,0,0:0:0:0:
232,208,52552,1,0,0:0:0:0:
340,114,52682,1,0,2:0:0:0:
300,319,52812,1,0,2:0:0:0:
96,280,52943,1,0,2:0:0:0:
135,75,53073,1,0,2:0:0:0:
448,96,53204,5,0,0:0:0:0:
232,208,53334,1,0,0:0:0:0:
256,32,53465,1,0,0:0:0:0:
376,264,53595,1,0,0:0:0:0:
128,160,53726,1,0,0:0:0:0:
128,160,53856,1,0,0:0:0:0:
384,32,53986,1,0,0:0:0:0:
384,32,54116,1,0,0:0:0:0:
64,352,54247,5,0,0:0:0:0:
32,32,54378,1,0,0:0:0:0:
128,256,54508,1,0,0:0:0:0:
128,256,54573,1,0,0:0:0:0:
128,256,54639,1,0,0:0:0:0:
160,32,54769,1,0,0:0:0:0:
224,352,54899,1,0,0:0:0:0:
256,128,55030,1,0,0:0:0:0:
256,128,55095,1,0,0:0:0:0:
256,128,55160,1,0,0:0:0:0:
352,352,55291,5,0,0:0:0:0:
352,352,55356,1,0,0:0:0:0:
352,352,55421,1,0,0:0:0:0:
352,352,55486,1,0,0:0:0:0:
352,352,55552,1,0,0:0:0:0:
352,32,55682,1,0,0:0:0:0:
448,288,55813,1,0,0:0:0:0:
448,288,55878,1,0,0:0:0:0:
448,288,55943,1,0,0:0:0:0:
448,288,56008,1,0,0:0:0:0:
448,288,56073,1,0,0:0:0:0:
512,64,56204,1,0,0:0:0:0:
448,352,56334,5,0,0:0:0:0:
352,32,56465,1,0,0:0:0:0:
288,384,56595,1,0,0:0:0:0:
224,64,56726,1,0,0:0:0:0:
192,320,56856,1,0,0:0:0:0:
96,96,56986,1,0,0:0:0:0:
64,256,57117,1,0,0:0:0:0:
0,160,57247,1,0,0:0:0:0:
144,320,57378,5,0,0:0:0:0:
320,64,57508,1,0,0:0:0:0:
384,344,57639,1,0,0:0:0:0:
156,112,57769,1,0,0:0:0:0:
448,180,57899,2,0,B|352:276|160:180|160:180|292:200|292:120|292:120,1,437.5
480,236,58421,6,0,P|480:303|465:368,1,125
120,104,58682,2,0,P|168:56|224:20,1,125
164,336,58943,2,0,P|96:336|31:321,1,125
348,48,59204,2,0,P|415:48|480:62,1,125
128,224,59465,6,0,B|92:268|36:232|36:232|56:144|28:52,1,250
260,56,59856,2,0,B|296:12|352:48|352:48|332:136|360:228,1,250
160,352,60247,1,0,0:0:0:0:
36,86,60378,1,0,0:0:0:0:
272,156,60508,6,0,B|368:128|468:148|468:148|492:92,1,250
236,296,60899,2,0,B|140:324|40:304|40:304|16:360,1,250
448,256,61291,1,0,0:0:0:0:
64,124,61421,1,0,0:0:0:0:
404,64,61552,6,0,B|408:116|392:156|392:156|408:208|408:208|348:272|444:336,1,250
108,320,61943,2,0,B|104:268|120:228|120:228|104:176|104:176|164:112|68:48,1,250
404,64,62334,1,0,0:0:0:0:
16,220,62465,1,0,0:0:0:0:
232,36,62595,6,0,P|220:104|228:188,1,125
448,304,62856,2,0,P|380:292|296:300,1,125
356,124,63117,2,0,P|418:126|479:114,1,125
157,220,63378,2,0,P|159:282|148:344,1,125
32,32,63639,5,0,0:0:0:0:
320,352,63769,1,0,0:0:0:0:
320,352,64030,2,0,B|360:328|360:328|324:320|292:296|292:296|356:228|304:120,1,250
160,192,64421,1,0,0:0:0:0:
416,288,64552,1,0,0:0:0:0:
128,352,64682,5,0,0:0:0:0:
160,192,64813,1,0,0:0:0:0:
112,16,64943,5,0,0:0:0:0:
0,192,65074,1,0,0:0:0:0:
160,192,65204,5,0,0:0:0:0:
320,128,65334,1,0,0:0:0:0:
250,340,65465,6,0,P|174:272|166:164,1,187.5
233,28,65726,6,0,P|309:96|317:204,1,187.5
315,326,65986,6,0,P|405:306|464:236,1,187.5
164,68,66247,6,0,P|74:87|151:306,1,375
257,242,66769,5,0,0:0:0:0:
323,176,66899,1,0,0:0:0:0:
257,109,67029,1,0,0:0:0:0:
190,175,67160,1,0,0:0:0:0:
276,249,67291,5,0,0:0:0:0:
330,156,67421,1,0,0:0:0:0:
237,101,67551,1,0,0:0:0:0:
182,194,67682,1,0,0:0:0:0:
299,250,67813,5,0,0:0:0:0:
331,133,67943,1,0,0:0:0:0:
213,100,68073,1,0,0:0:0:0:
180,218,68204,1,0,0:0:0:0:
324,243,68334,5,0,0:0:0:0:
324,108,68464,1,0,0:0:0:0:
188,107,68594,1,0,0:0:0:0:
187,243,68725,1,0,0:0:0:0:
348,228,68856,5,0,0:0:0:0:
309,84,68986,1,0,0:0:0:0:
164,122,69116,1,0,0:0:0:0:
202,268,69247,1,0,0:0:0:0:
368,205,69378,5,0,0:0:0:0:
286,64,69508,1,0,0:0:0:0:
143,145,69638,1,0,0:0:0:0:
224,288,69769,1,0,0:0:0:0:
382,176,69899,5,0,0:0:0:0:
257,50,70029,1,0,0:0:0:0:
129,176,70159,1,0,0:0:0:0:
255,303,70290,1,0,0:0:0:0:
380,142,70421,5,0,0:3:0:0:
223,51,70551,1,0,0:3:0:0:
131,209,70681,1,0,0:3:0:0:
288,300,70812,1,0,0:3:0:0:
380,142,70943,5,0,0:3:0:0:
288,300,71074,1,0,0:3:0:0:
131,209,71204,1,0,0:3:0:0:
223,51,71334,1,0,0:3:0:0:
382,176,71465,5,0,0:0:0:0:
255,303,71596,1,0,0:0:0:0:
129,176,71726,1,0,0:0:0:0:
257,50,71856,1,0,0:0:0:0:
368,205,71986,5,0,0:0:0:0:
224,288,72117,1,0,0:0:0:0:
143,145,72247,1,0,0:0:0:0:
286,64,72377,1,0,0:0:0:0:
348,228,72508,5,0,0:0:0:0:
202,268,72639,1,0,0:0:0:0:
164,122,72769,1,0,0:0:0:0:
309,84,72899,1,0,0:0:0:0:
324,243,73030,5,0,0:0:0:0:
187,243,73161,1,0,0:0:0:0:
188,107,73291,1,0,0:0:0:0:
324,108,73421,1,0,0:0:0:0:
299,250,73551,5,0,0:0:0:0:
180,218,73683,1,0,0:0:0:0:
213,100,73812,1,0,0:0:0:0:
331,133,73943,1,0,0:0:0:0:
276,249,74073,5,0,0:0:0:0:
182,194,74205,1,0,0:0:0:0:
237,101,74334,1,0,0:0:0:0:
330,156,74465,1,0,0:0:0:0:
257,242,74595,5,0,0:0:0:0:
190,175,74726,1,0,0:0:0:0:
257,109,74856,1,0,0:0:0:0:
323,176,74986,1,0,0:0:0:0:
257,242,75117,5,0,0:0:0:0:
323,176,75247,1,0,0:0:0:0:
257,109,75377,1,0,0:0:0:0:
190,175,75508,1,0,0:0:0:0:
237,249,75639,5,0,0:0:0:0:
182,154,75769,1,0,0:0:0:0:
276,101,75899,1,0,0:0:0:0:
330,195,76030,1,0,0:0:0:0:
214,250,76160,5,0,0:0:0:0:
331,218,76290,1,0,0:0:0:0:
300,100,76420,1,0,0:0:0:0:
182,131,76551,1,0,0:0:0:0:
189,243,76682,5,0,0:0:0:0:
189,106,76812,1,0,0:0:0:0:
325,107,76943,1,0,0:0:0:0:
324,243,77073,1,0,0:0:0:0:
165,228,77204,5,0,0:0:0:0:
309,267,77334,1,0,0:0:0:0:
349,122,77464,1,0,0:0:0:0:
204,82,77595,1,0,0:0:0:0:
145,205,77726,5,0,0:0:0:0:
228,62,77856,1,0,0:0:0:0:
370,145,77986,1,0,0:0:0:0:
286,287,78117,1,0,0:0:0:0:
131,176,78247,5,0,0:0:0:0:
257,301,78377,1,0,0:0:0:0:
384,176,78507,1,0,0:0:0:0:
258,48,78638,1,0,0:0:0:0:
126,140,78769,5,0,0:0:0:0:
294,43,78899,1,0,0:0:0:0:
389,211,79029,1,0,0:0:0:0:
221,306,79160,1,0,0:0:0:0:
126,140,79291,5,0,0:0:0:0:
221,306,79422,1,0,0:0:0:0:
389,211,79552,1,0,0:0:0:0:
294,43,79682,1,0,0:0:0:0:
131,176,79813,5,0,0:0:0:0:
258,48,79944,1,0,0:0:0:0:
384,176,80074,1,0,0:0:0:0:
257,301,80204,1,0,0:0:0:0:
145,205,80334,5,0,0:0:0:0:
286,287,80465,1,0,0:0:0:0:
370,145,80595,1,0,0:0:0:0:
228,62,80725,1,0,0:0:0:0:
165,228,80856,5,0,0:0:0:0:
204,82,80987,1,0,0:0:0:0:
349,122,81117,1,0,0:0:0:0:
309,267,81247,1,0,0:0:0:0:
189,243,81378,5,0,0:0:0:0:
324,243,81508,1,0,0:0:0:0:
325,107,81639,1,0,0:0:0:0:
189,106,81769,1,0,0:0:0:0:
214,250,81900,5,0,0:0:0:0:
182,131,82031,1,0,0:0:0:0:
300,100,82161,1,0,0:0:0:0:
331,218,82291,1,0,0:0:0:0:
237,249,82421,5,0,0:0:0:0:
330,195,82552,1,0,0:0:0:0:
276,101,82682,1,0,0:0:0:0:
182,154,82812,1,0,0:0:0:0:
257,242,82943,5,0,0:0:0:0:
190,175,83074,1,0,0:0:0:0:
257,109,83204,1,0,0:0:0:0:
323,176,83334,1,0,0:0:0:0:
148,304,83465,6,0,B|108:300|108:300|116:200|104:68|104:68,1,250
256,180,83856,1,0,0:0:0:0:
364,80,83986,2,0,B|404:84|404:84|396:184|408:316|408:316,1,250
104,128,84378,1,0,0:0:0:0:
256,180,84508,6,0,P|379:200|501:177,1,250
424,32,84899,1,0,0:0:0:0:
92,328,85030,2,0,P|28:232|60:72,1,250
160,32,85421,1,0,0:0:0:0:
288,96,85552,5,0,0:0:0:0:
192,320,85682,1,0,0:0:0:0:
192,320,85747,1,0,0:0:0:0:
192,320,85813,1,0,0:0:0:0:
352,192,85943,1,0,0:0:0:0:
160,160,86073,1,0,0:0:0:0:
160,160,86334,1,0,0:0:0:0:
265,63,86465,6,0,P|334:246|159:160,1,500
172,116,87052,1,0,0:0:0:0:
208,92,87117,1,0,0:0:0:0:
252,100,87182,1,0,0:0:0:0:
284,128,87247,1,0,0:0:0:0:
284,172,87313,1,0,0:0:0:0:
256,204,87378,1,0,0:0:0:0:
240,244,87443,1,0,0:0:0:0:
248,288,87508,1,0,0:0:0:0:
272,324,87573,1,0,0:0:0:0:
312,344,87639,6,0,P|400:312|452:136,1,250
228,152,88030,1,0,0:0:0:0:
380,244,88160,2,0,P|396:160|320:20,1,250
228,152,88552,1,0,0:0:0:0:
16,104,88682,6,0,B|176:104|176:104|144:156|176:200,1,250
256,320,89073,1,0,0:0:0:0:
464,272,89204,2,0,B|305:272|305:272|337:324|312:357,1,250
169,189,89595,1,0,0:0:0:0:
72,348,89726,6,0,P|44:292|32:208,1,125
279,71,89986,2,0,P|267:132|240:188,1,125
128,276,90247,1,0,0:0:0:0:
96,32,90378,1,0,0:0:0:0:
96,32,90639,1,0,0:0:0:0:
80,160,90769,6,0,B|183:281|281:217|281:217|386:138|429:246|405:291|366:312|315:316|277:297|171:173|412:53,1,750
480,160,91682,1,0,0:0:0:0:
484,340,91813,6,0,P|344:364|236:336,1,250
16,312,92204,1,0,0:0:0:0:
116,120,92334,2,0,P|136:240|112:368,1,250
16,120,92726,1,0,0:0:0:0:
208,256,92856,6,0,P|329:244|446:187,1,250
192,32,93247,1,0,0:0:0:0:
272,328,93378,2,0,P|148:340|16:328,1,250
96,64,93769,1,0,0:0:0:0:
384,320,93899,5,0,0:0:0:0:
416,96,94030,1,0,0:0:0:0:
420,80,94095,1,0,0:0:0:0:
424,64,94160,1,0,0:0:0:0:
480,352,94291,1,0,0:0:0:0:
288,224,94421,2,0,P|248:272|256:352,1,125
384,320,94682,1,0,0:0:0:0:
189,117,94813,6,0,P|105:293|287:223,1,500
280,180,95399,1,0,0:0:0:0:
264,140,95465,1,0,0:0:0:0:
272,96,95530,1,0,0:0:0:0:
300,64,95595,1,0,0:0:0:0:
344,60,95660,1,0,0:0:0:0:
384,80,95726,1,0,0:0:0:0:
392,124,95791,1,0,0:0:0:0:
360,152,95856,1,0,0:0:0:0:
316,144,95921,1,0,0:0:0:0:
280,120,95986,6,0,P|136:64|32:88,1,250
192,320,96378,1,0,0:0:0:0:
424,268,96508,2,0,P|472:152|444:4,1,250
256,192,96899,1,0,0:0:0:0:
64,36,97030,6,0,L|40:168,1,125
233,314,97291,2,0,L|255:191,1,125
134,109,97552,1,0,0:0:0:0:
167,282,97682,1,0,0:0:0:0:
339,248,97813,1,0,0:0:0:0:
305,76,97943,1,0,0:0:0:0:
32,192,98073,5,0,0:0:0:0:
47,192,98334,1,0,0:0:0:0:
63,192,98595,1,0,0:0:0:0:
78,192,98726,1,0,0:0:0:0:
94,192,98986,1,0,0:0:0:0:
110,192,99117,5,0,0:0:0:0:
125,192,99182,1,0,0:0:0:0:
141,192,99247,1,0,0:0:0:0:
157,192,99312,1,0,0:0:0:0:
172,192,99377,1,0,0:0:0:0:
188,192,99443,1,0,0:0:0:0:
203,192,99508,1,0,0:0:0:0:
219,192,99573,1,0,0:0:0:0:
235,192,99638,1,0,0:0:0:0:
250,192,99704,1,0,0:0:0:0:
266,192,99769,1,0,0:0:0:0:
282,192,99834,1,0,0:0:0:0:
297,192,99899,1,0,0:0:0:0:
313,192,99964,1,0,0:0:0:0:
328,192,100030,1,0,0:0:0:0:
344,192,100095,1,0,0:0:0:0:
360,192,100160,5,0,0:0:0:0:
