osu file format v14

[General]
AudioFilename: toby fox - UNDERTALE Soundtrack - 22 Snowdin Town.mp3
AudioLeadIn: 0
PreviewTime: 56772
Countdown: 0
SampleSet: Soft
StackLeniency: 0.2
Mode: 0
LetterboxInBreaks: 0
WidescreenStoryboard: 0

[Editor]
Bookmarks: 61,75632
DistanceSpacing: 1.2
BeatDivisor: 8
GridSize: 4
TimelineZoom: 1.1

[Metadata]
Title:Snowdin Town
TitleUnicode:Snowdin Town
Artist:toby fox
ArtistUnicode:toby fox
Creator:Gero
Version:Tough
Source:UNDERTALE
Tags:Merry Christmas Xmas X-mas White Snow Santa Claus Chiptune Radiation Soundtrack Frisk the Human Howdy! Flowey Flower FLOWERY Toriel Goat Mom Tori Old lady ASGORE'S CLONE Sans Skeleton Smiley Trashbag Sansy Papyrus GREAT COOL DUDE Undyne Undying Dr. Alphys Mettaton Robot HAPPSTABLOOK Asgore Dreemurr Dad King Fluffybuns FLUFFYBOY Mr.Dreamy Gorey Asriel Dreemurr Son Battle Furry Furries Anthropomorphic Animals Serial Murderer Chara Lesser Dog Doggo Dogamy and Dogaressa Greater Monster Kid various NPCs Snowman Snowdin Shopkeeper Grillby's Papyrus' & Sans's House Snowdin Library Ice Wolf North of Town True Pacifist Route Ruins Snowdin Forest Royal Guard Happy Ending Track 22 Underground Surface * (You're filled with DETERMINATION.) You cannot give up just yet. . . Frisk! Stay determined. . . INTEGRITY PERSEVERANCE KINDNESS JUSTICE PATIENCE BRAVERY DETERMINATION 7 Lost Souls 8-Bit 8Bits 8 Bits Indie Game Cosmolade
BeatmapID:1120752
BeatmapSetID:528293

[Difficulty]
HPDrainRate:6
CircleSize:4
OverallDifficulty:6
ApproachRate:7
SliderMultiplier:1.4
SliderTickRate:2

[Events]
//Background and Video events
0,0,"BG.jpg",0,0
//Break Periods
//Storyboard Layer 0 (Background)
//Storyboard Layer 1 (Fail)
//Storyboard Layer 2 (Pass)
//Storyboard Layer 3 (Foreground)
//Storyboard Sound Samples

[TimingPoints]
61,594.059405940594,4,2,1,50,1,0
8717,594.059405940594,4,2,1,50,1,0
9050,594.059405940594,4,2,1,50,1,0
9734,594.059405940594,4,2,1,50,1,0
13575,594.059405940594,4,2,1,50,1,0
14444,594.059405940594,4,2,1,50,1,0
19162,588.235294117647,4,2,1,60,1,0
19162,-83.3333333333333,4,2,1,60,0,0
56809,-83.3333333333333,4,2,1,70,0,1
70926,-83.3333333333333,4,2,1,40,0,0
73279,-83.3333333333333,4,2,1,30,0,0
73867,-83.3333333333333,4,2,1,20,0,0
74456,-83.3333333333333,4,2,1,15,0,0
75044,-83.3333333333333,4,2,1,10,0,0
75632,-83.3333333333333,4,2,2,5,0,0

[Colours]
Combo1 : 66,198,89
Combo2 : 84,180,207
Combo3 : 185,160,115
Combo4 : 241,48,48
SliderBorder : 255,255,255
SliderTrackOverride : 100,100,100

[HitObjects]
208,160,61,6,0,B|194:192|194:192|208:224,1,70,2|0,0:0|0:0,0:0:0:0:
304,224,655,2,0,B|318:192|318:192|304:160,1,70,2|0,0:0|0:0,0:0:0:0:
396,128,1249,2,0,P|420:192|396:256,1,140,2|0,0:0|0:0,0:0:0:0:
465,325,2140,1,0,0:0:0:0:
465,325,2288,1,0,0:0:0:0:
465,325,2437,5,2,0:0:0:0:
396,256,2734,1,0,0:0:0:0:
326,325,3031,1,0,0:0:0:0:
256,255,3328,2,0,L|157:353,1,140,2|2,0:0|0:0,0:0:0:0:
87,284,4219,1,2,0:0:0:0:
224,163,4813,6,0,P|256:151|288:163,1,70,2|0,0:0|0:0,0:0:0:0:
256,255,5407,2,0,P|224:267|192:255,1,70,2|0,0:0|0:0,0:0:0:0:
224,163,6001,2,0,L|350:223,1,140,2|0,0:0|0:0,0:0:0:0:
419,292,6892,1,0,0:0:0:0:
419,292,7041,1,0,0:0:0:0:
419,292,7189,6,0,P|431:324|419:356,2,70,2|0|0,0:0|0:0|0:0,0:0:0:0:
488,222,8080,1,2,0:0:0:0:
292,140,8717,2,0,B|256:156|256:156|220:140,1,78.75,2|2,0:0|0:0,0:0:0:0:
24,222,9734,6,0,P|56:210|88:222,1,70,2|0,0:0|0:0,0:0:0:0:
157,291,10328,2,0,P|189:303|221:291,1,70,2|0,0:0|0:0,0:0:0:0:
301,235,10922,2,0,B|273:251|262:291|262:291|273:331|301:347,1,140,2|0,0:0|0:0,0:0:0:0:
381,291,11813,1,0,0:0:0:0:
381,291,11961,1,0,0:0:0:0:
381,291,12110,5,2,0:0:0:0:
461,347,12407,1,0,0:0:0:0:
381,291,12704,1,0,0:0:0:0:
461,235,13001,1,2,0:0:0:0:
256,96,13575,5,2,0:0:0:0:
256,96,13872,1,2,0:0:0:0:
51,235,14444,6,0,L|100:284,1,70,2|0,0:0|0:0,0:0:0:0:
169,215,15038,2,0,L|218:264,1,70,2|0,0:0|0:0,0:0:0:0:
287,195,15632,2,0,B|347:195|347:195|363:187|363:187|425:187,1,140,2|0,0:0|0:0,0:0:0:0:
494,117,16523,1,0,0:0:0:0:
494,117,16671,1,0,0:0:0:0:
494,117,16820,1,2,0:0:0:0:
424,47,17117,1,0,0:0:0:0:
424,47,17414,1,2,0:0:0:0:
354,116,17711,6,0,B|376:148|356:196|316:212|276:196|256:172|256:172|236:196|196:212|156:196|136:148|158:116,1,341.25,2|2,0:0|0:0,0:0:0:0:
88,47,19456,5,0,0:0:0:0:
18,117,19750,1,8,0:0:0:0:
87,187,20044,1,0,0:0:0:0:
87,187,20191,1,2,0:0:0:0:
87,187,20338,2,0,P|98:227|87:267,1,83.9999974365235,0|2,0:0|0:0,0:0:0:0:
140,352,20926,1,8,0:0:0:0:
140,352,21073,1,0,0:0:0:0:
140,352,21220,1,0,0:0:0:0:
256,248,21514,6,0,B|298:248|298:248|327:277,1,83.9999974365235,2|0,0:0|0:0,0:0:0:0:
256,136,22103,2,0,B|298:136|298:136|327:106,1,83.9999974365235,8|0,0:0|0:0,0:0:0:0:
327,106,22544,1,2,0:0:0:0:
327,106,22691,1,0,0:0:0:0:
384,192,22985,1,2,0:0:0:0:
327,277,23279,1,8,0:0:0:0:
327,277,23426,1,0,0:0:0:0:
327,277,23573,1,0,0:0:0:0:
172,256,23867,6,0,B|172:228|152:200|126:192|126:192|152:184|172:156|172:128,1,167.999994873047,2|8,0:0|0:0,0:0:0:0:
252,192,24750,1,2,0:0:0:0:
172,256,25044,2,0,L|112:315,1,83.9999974365235,0|2,0:0|0:0,0:0:0:0:
172,128,25632,2,0,L|112:68,1,83.9999974365235,8|2,0:0|0:0,0:0:0:0:
60,156,26220,6,0,B|60:176|41:192|41:192|60:208|60:228,2,83.9999974365235,0|2|8,0:0|0:0|0:0,0:0:0:0:
156,192,27103,2,0,L|324:192,1,167.999994873047,2|2,0:0|0:0,0:0:0:0:
395,120,27985,1,8,0:0:0:0:
395,120,28132,1,0,0:0:0:0:
395,120,28279,1,0,0:0:0:0:
466,191,28573,6,0,B|466:234|466:234|495:262,1,83.9999974365235,2|0,0:0|0:0,0:0:0:0:
423,334,29162,1,8,0:0:0:0:
351,262,29456,1,0,0:0:0:0:
351,262,29603,1,2,0:0:0:0:
351,261,29750,2,0,P|317:286|297:323,1,83.9999974365235,0|2,0:0|0:0,0:0:0:0:
256,232,30338,1,8,0:0:0:0:
256,232,30485,1,0,0:0:0:0:
256,232,30632,1,0,0:0:0:0:
298,141,30926,6,0,B|268:124|220:128|188:160|188:160|139:160,1,167.999994873047,2|8,0:0|0:0,0:0:0:0:
67,88,31809,1,0,0:0:0:0:
67,88,31956,1,2,0:0:0:0:
67,88,32103,1,0,0:0:0:0:
0,159,32397,1,2,0:0:0:0:
71,230,32691,1,8,0:0:0:0:
71,230,32838,1,0,0:0:0:0:
71,230,32985,1,0,0:0:0:0:
180,332,33279,6,0,P|256:363|332:332,1,167.999994873047,2|8,0:0|0:0,0:0:0:0:
403,260,34162,1,2,0:0:0:0:
331,188,34456,2,0,B|288:188|288:188|259:216,1,83.9999974365235,0|2,0:0|0:0,0:0:0:0:
187,145,35044,2,0,P|162:89|187:33,1,125.999996154785,8|2,0:0|0:0,0:0:0:0:
186,33,35632,6,0,B|151:33|151:33|142:26|142:26|106:26,1,83.9999974365235,0|2,0:0|0:0,0:0:0:0:
256,89,36220,1,8,0:0:0:0:
187,145,36514,2,0,B|256:193|256:193|325:145,1,167.999994873047,2|2,0:0|0:0,0:0:0:0:
256,89,37397,1,8,0:0:0:0:
325,33,37691,1,2,0:0:0:0:
448,120,37985,6,0,P|485:192|448:264,1,167.999994873047,2|8,0:0|0:0,0:0:0:0:
376,336,38867,1,0,0:0:0:0:
376,336,39014,1,2,0:0:0:0:
376,336,39162,1,0,0:0:0:0:
304,264,39456,1,2,0:0:0:0:
376,192,39750,1,8,0:0:0:0:
376,192,39897,1,0,0:0:0:0:
376,192,40044,1,0,0:0:0:0:
304,264,40338,6,0,B|272:284|256:331|256:331|240:284|208:264,1,167.999994873047,2|8,0:0|0:0,0:0:0:0:
136,192,41220,1,0,0:0:0:0:
136,192,41367,1,2,0:0:0:0:
136,192,41514,1,0,0:0:0:0:
208,264,41809,1,2,0:0:0:0:
136,336,42103,1,8,0:0:0:0:
136,336,42250,1,0,0:0:0:0:
136,336,42398,1,0,0:0:0:0:
256,192,42691,6,0,L|315:132,1,83.9999974365235,2|0,0:0|0:0,0:0:0:0:
386,203,43279,2,0,L|445:143,1,83.9999974365235,8|2,0:0|0:0,0:0:0:0:
512,72,43867,1,0,0:0:0:0:
445,0,44162,1,2,0:0:0:0:
496,88,44456,1,8,0:0:0:0:
429,16,44751,1,2,0:0:0:0:
480,104,45044,6,0,B|493:144|493:144|480:184,2,83.9999974365235,0|2|8,0:0|0:0|0:0,0:0:0:0:
388,144,45926,2,0,L|476:286,1,167.999994873047,2|2,0:0|0:0,0:0:0:0:
405,358,46809,1,8,0:0:0:0:
405,358,46956,1,0,0:0:0:0:
405,358,47103,1,0,0:0:0:0:
333,286,47397,6,0,P|294:273|255:286,1,83.9999974365235,2|0,0:0|0:0,0:0:0:0:
104,192,47985,2,0,P|143:205|182:192,1,83.9999974365235,8|0,0:0|0:0,0:0:0:0:
182,191,48426,1,2,0:0:0:0:
182,191,48573,1,0,0:0:0:0:
143,100,48867,1,2,0:0:0:0:
182,9,49162,1,8,0:0:0:0:
182,9,49309,1,0,0:0:0:0:
182,9,49456,1,0,0:0:0:0:
309,100,49750,6,0,P|385:131|461:100,1,167.999994873047,2|8,0:0|0:0,0:0:0:0:
385,32,50632,1,0,0:0:0:0:
385,32,50779,1,2,0:0:0:0:
385,32,50927,1,0,0:0:0:0:
309,100,51220,1,2,0:0:0:0:
385,168,51514,1,8,0:0:0:0:
385,168,51661,1,0,0:0:0:0:
385,168,51809,1,0,0:0:0:0:
256,244,52103,6,0,L|109:326,1,167.999994873047,2|8,0:0|0:0,0:0:0:0:
38,255,52985,1,2,0:0:0:0:
93,342,53279,1,0,0:0:0:0:
22,271,53573,1,2,0:0:0:0:
77,358,53867,2,0,B|139:374|139:342|201:358,1,125.999996154785,8|2,0:0|0:0,0:0:0:0:
201,358,54456,5,0,0:0:0:0:
256,272,54750,1,2,0:0:0:0:
311,358,55044,1,8,0:0:0:0:
256,272,55338,2,0,P|234:192|256:112,1,167.999994873047,2|2,0:0|0:0,0:0:0:0:
311,26,56220,1,8,0:0:0:0:
256,112,56514,1,2,0:0:0:0:
201,26,56809,6,0,B|149:26|149:26|87:26|57:86,1,167.999994873047,4|8,3:0|0:0,0:0:0:0:
128,156,57691,2,0,P|52:156|52:232,1,167.999994873047,4|8,3:0|0:0,0:0:0:0:
140,280,58573,1,4,3:0:0:0:
140,280,58867,1,8,0:0:0:0:
311,358,59161,6,0,B|363:358|363:358|425:358|455:298,1,167.999994873047,4|8,3:0|0:0,0:0:0:0:
384,228,60043,2,0,P|460:228|460:152,1,167.999994873047,4|8,3:0|0:0,0:0:0:0:
372,104,60925,1,4,3:0:0:0:
372,104,61219,1,8,0:0:0:0:
201,26,61514,6,0,L|136:180,1,167.999994873047,4|8,3:0|0:0,0:0:0:0:
56,120,62397,2,0,L|121:274,1,167.999994873047,4|8,3:0|0:0,0:0:0:0:
50,346,63279,1,4,3:0:0:0:
121,274,63573,1,8,0:0:0:0:
192,345,63867,6,0,B|220:316|220:316|263:316,1,83.9999974365235,4|0,3:0|0:0,0:0:0:0:
335,244,64456,1,8,0:0:0:0:
406,315,64750,2,0,B|463:157,1,167.999994873047,4|8,3:0|0:0,0:0:0:0:
348,220,65632,2,0,L|319:141,1,83.9999974365235,4|8,3:0|0:0,0:0:0:0:
263,68,66220,6,0,B|227:92|227:140|227:140|143:140,1,167.999994873047,4|8,3:0|0:0,0:0:0:0:
71,68,67103,2,0,B|43:96|29:140|29:140|43:184|71:212,1,167.999994873047,4|8,3:0|0:0,0:0:0:0:
143,283,67985,1,4,3:0:0:0:
70,211,68279,1,8,0:0:0:0:
143,283,68573,6,0,B|218:283|218:283|236:288|236:288|310:288,1,167.999994873047,4|8,3:0|0:0,0:0:0:0:
423,209,69456,2,0,B|348:209|348:209|330:204|330:204|256:204,1,167.999994873047,4|8,3:0|0:0,0:0:0:0:
310,288,70338,1,4,3:0:0:0:
256,372,70632,1,8,0:0:0:0:
256,372,70779,1,0,0:0:0:0:
256,372,70926,6,0,L|196:312,1,83.9999974365235,2|0,0:0|0:0,0:0:0:0:
310,288,71514,2,0,L|250:228,1,83.9999974365235,2|0,0:0|0:0,0:0:0:0:
364,204,72103,2,0,L|304:144,1,83.9999974365235,2|0,0:0|0:0,0:0:0:0:
418,120,72691,2,0,L|358:60,1,83.9999974365235,2|0,0:0|0:0,0:0:0:0:
472,36,73279,5,2,0:0:0:0:
256,192,73353,12,0,75632,0:0:0:0:
