osu file format v14

[General]
AudioFilename: toby fox - UNDERTALE Soundtrack - 22 Snowdin Town.mp3
AudioLeadIn: 0
PreviewTime: 56772
Countdown: 0
SampleSet: Soft
StackLeniency: 0.2
Mode: 0
LetterboxInBreaks: 0
WidescreenStoryboard: 0

[Editor]
Bookmarks: 61,75632
DistanceSpacing: 0.5
BeatDivisor: 8
GridSize: 4
TimelineZoom: 1.1

[Metadata]
Title:Snowdin Town
TitleUnicode:Snowdin Town
Artist:toby fox
ArtistUnicode:toby fox
Creator:Gero
Version:Merry Snowy
Source:UNDERTALE
Tags:Merry Christmas Xmas X-mas White Snow Santa Claus Chiptune Radiation Soundtrack Frisk the Human Howdy! Flowey Flower FLOWERY Toriel Goat Mom Tori Old lady ASGORE'S CLONE Sans Skeleton Smiley Trashbag Sansy Papyrus GREAT COOL DUDE Undyne Undying Dr. Alphys Mettaton Robot HAPPSTABLOOK Asgore Dreemurr Dad King Fluffybuns FLUFFYBOY Mr.Dreamy Gorey Asriel Dreemurr Son Battle Furry Furries Anthropomorphic Animals Serial Murderer Chara Lesser Dog Doggo Dogamy and Dogaressa Greater Monster Kid various NPCs Snowman Snowdin Shopkeeper Grillby's Papyrus' & Sans's House Snowdin Library Ice Wolf North of Town True Pacifist Route Ruins Snowdin Forest Royal Guard Happy Ending Track 22 Underground Surface * (You're filled with DETERMINATION.) You cannot give up just yet. . . Frisk! Stay determined. . . INTEGRITY PERSEVERANCE KINDNESS JUSTICE PATIENCE BRAVERY DETERMINATION 7 Lost Souls 8-Bit 8Bits 8 Bits Indie Game Cosmolade
BeatmapID:1120537
BeatmapSetID:528293

[Difficulty]
HPDrainRate:6
CircleSize:4.5
OverallDifficulty:6
ApproachRate:7.5
SliderMultiplier:1.6
SliderTickRate:2

[Events]
//Background and Video events
0,0,"BG.jpg",0,0
//Break Periods
//Storyboard Layer 0 (Background)
//Storyboard Layer 1 (Fail)
//Storyboard Layer 2 (Pass)
//Storyboard Layer 3 (Foreground)
//Storyboard Sound Samples

[TimingPoints]
61,594.059405940594,4,2,1,50,1,0
8717,594.059405940594,4,2,1,50,1,0
9050,594.059405940594,4,2,1,50,1,0
9734,594.059405940594,4,2,1,50,1,0
13575,594.059405940594,4,2,1,50,1,0
14444,594.059405940594,4,2,1,50,1,0
19162,588.235294117647,4,2,1,60,1,0
19162,-83.3333333333333,4,2,1,60,0,0
56809,-76.9230769230769,4,2,1,70,0,1
70926,-76.9230769230769,4,2,1,40,0,0
73279,-76.9230769230769,4,2,1,30,0,0
73867,-76.9230769230769,4,2,1,20,0,0
74456,-76.9230769230769,4,2,1,15,0,0
75044,-76.9230769230769,4,2,1,10,0,0
75632,-76.9230769230769,4,2,2,5,0,0

[Colours]
Combo1 : 66,198,89
Combo2 : 84,180,207
Combo3 : 185,160,115
Combo4 : 241,48,48
SliderBorder : 255,255,255
SliderTrackOverride : 100,100,100

[HitObjects]
444,78,61,6,0,P|455:116|444:154,1,80,2|0,0:0|0:0,0:0:0:0:
357,192,655,2,0,P|346:154|357:116,1,80,2|0,0:0|0:0,0:0:0:0:
444,231,1249,2,0,B|330:344,1,160,2|0,0:0|0:0,0:0:0:0:
256,284,2140,1,0,0:0:0:0:
256,284,2288,1,0,0:0:0:0:
256,284,2437,5,2,0:0:0:0:
182,344,2734,1,0,0:0:0:0:
256,284,3031,1,0,0:0:0:0:
182,224,3328,2,0,B|256:194|256:194|330:224,1,160,2|2,0:0|0:0,0:0:0:0:
256,284,4219,1,2,0:0:0:0:
371,67,4813,6,0,P|332:68|304:96,1,80,2|0,0:0|0:0,0:0:0:0:
140,67,5407,2,0,P|180:68|208:96,1,80,2|0,0:0|0:0,0:0:0:0:
256,16,6001,2,0,L|256:176,1,160,2|0,0:0|0:0,0:0:0:0:
188,244,6892,1,0,0:0:0:0:
188,244,7041,1,0,0:0:0:0:
188,244,7189,5,2,0:0:0:0:
256,176,7486,1,0,0:0:0:0:
324,244,7783,1,0,0:0:0:0:
256,312,8080,1,2,0:0:0:0:
224,108,8717,2,0,B|228:88|256:80|256:80|284:88|288:108,1,90,2|2,0:0|0:0,0:0:0:0:
500,192,9734,6,0,L|443:248,1,80,2|0,0:0|0:0,0:0:0:0:
510,315,10328,2,0,L|453:371,1,80,2|0,0:0|0:0,0:0:0:0:
385,303,10922,2,0,B|350:303|350:303|279:303|256:370,1,160,2|0,0:0|0:0,0:0:0:0:
187,302,11813,1,0,0:0:0:0:
187,302,11961,1,0,0:0:0:0:
187,302,12110,5,2,0:0:0:0:
256,234,12407,1,0,0:0:0:0:
325,302,12704,1,0,0:0:0:0:
256,370,13001,1,2,0:0:0:0:
208,152,13575,1,2,0:0:0:0:
304,152,13872,1,2,0:0:0:0:
187,302,14444,6,0,P|174:339|187:376,1,80,2|0,0:0|0:0,0:0:0:0:
325,302,15038,2,0,P|338:339|325:376,1,80,2|0,0:0|0:0,0:0:0:0:
187,206,15632,2,0,B|232:206|256:173|256:173|280:206|325:206,1,160,2|0,0:0|0:0,0:0:0:0:
256,260,16523,1,0,0:0:0:0:
256,267,16671,1,0,0:0:0:0:
256,275,16820,5,2,0:0:0:0:
187,206,17117,1,0,0:0:0:0:
256,152,17414,1,2,0:0:0:0:
325,206,17711,2,0,P|256:347|187:206,1,390,2|2,0:0|0:0,0:0:0:0:
256,44,19456,5,0,0:0:0:0:
256,260,19750,1,8,0:0:0:0:
180,96,20044,1,0,0:0:0:0:
256,148,20191,1,2,0:0:0:0:
332,96,20338,1,0,0:0:0:0:
488,192,20632,1,2,0:0:0:0:
332,288,20926,1,8,0:0:0:0:
332,288,21000,1,0,0:0:0:0:
332,288,21073,2,0,B|325:311|325:311|332:334,1,47.9999985351563
488,236,21514,6,0,B|507:192|507:192|488:148,1,95.9999970703126,2|0,0:0|0:0,0:0:0:0:
332,52,22103,2,0,B|313:96|313:96|332:140,1,95.9999970703126,8|0,0:0|0:0,0:0:0:0:
256,192,22544,1,2,0:0:0:0:
180,140,22691,1,0,0:0:0:0:
256,304,22985,1,2,0:0:0:0:
332,140,23279,1,8,0:0:0:0:
332,140,23353,1,0,0:0:0:0:
332,140,23426,2,0,B|355:133|355:133|378:140,1,47.9999985351563
300,364,23867,6,0,P|256:381|212:364,1,95.9999970703126,2|0,0:0|0:0,0:0:0:0:
82,234,24456,1,8,0:0:0:0:
256,304,24750,1,2,0:0:0:0:
430,234,25044,5,0,0:0:0:0:
256,164,25338,1,2,0:0:0:0:
344,304,25632,5,8,0:0:0:0:
256,144,25926,1,2,0:0:0:0:
256,328,26220,5,0,0:0:0:0:
256,124,26514,1,2,0:0:0:0:
168,304,26809,5,8,0:0:0:0:
256,104,27103,1,2,0:0:0:0:
256,280,27691,5,2,0:0:0:0:
180,60,27985,6,0,L|160:16,1,47.9999985351563,8|0,0:0|0:0,0:0:0:0:
332,60,28279,2,0,L|352:16,1,47.9999985351563
256,104,28573,5,2,0:0:0:0:
96,192,28867,1,0,0:0:0:0:
256,280,29162,1,8,0:0:0:0:
416,192,29456,1,0,0:0:0:0:
480,127,29603,1,2,0:0:0:0:
416,192,29750,2,0,B|396:199|387:228|387:228|396:257|416:264,1,95.9999970703126,0|2,0:0|0:0,0:0:0:0:
256,152,30338,1,8,0:0:0:0:
256,152,30412,1,0,0:0:0:0:
256,152,30485,2,0,L|256:104,1,47.9999985351563
256,280,30926,5,2,0:0:0:0:
416,192,31220,1,0,0:0:0:0:
256,104,31515,1,8,0:0:0:0:
96,192,31809,1,0,0:0:0:0:
32,257,31956,1,2,0:0:0:0:
96,192,32103,2,0,B|116:185|125:156|125:156|116:127|96:120,1,95.9999970703126,0|2,0:0|0:0,0:0:0:0:
256,232,32691,1,8,0:0:0:0:
256,232,32765,1,0,0:0:0:0:
256,232,32838,2,0,L|256:280,1,47.9999985351563
322,81,33279,5,2,0:0:0:0:
476,192,33573,1,0,0:0:0:0:
416,15,33867,1,8,0:0:0:0:
356,192,34162,1,2,0:0:0:0:
510,81,34456,1,0,0:0:0:0:
322,81,34750,1,2,0:0:0:0:
476,192,35044,1,8,0:0:0:0:
256,356,35485,1,2,0:0:0:0:
212,276,35632,6,0,P|256:259|300:276,1,95.9999970703126,0|2,0:0|0:0,0:0:0:0:
136,356,36220,1,8,0:0:0:0:
256,172,36514,1,2,0:0:0:0:
256,172,37103,1,2,0:0:0:0:
376,356,37397,1,8,0:0:0:0:
212,276,37691,1,2,0:0:0:0:
256,64,37985,5,2,0:0:0:0:
300,276,38279,1,0,0:0:0:0:
256,84,38573,1,8,0:0:0:0:
212,276,38867,1,0,0:0:0:0:
256,356,39014,1,2,0:0:0:0:
300,276,39162,1,0,0:0:0:0:
140,192,39456,1,2,0:0:0:0:
372,192,39750,1,8,0:0:0:0:
372,192,39823,1,0,0:0:0:0:
372,192,39897,2,0,L|420:192,1,47.9999985351563
256,320,40338,5,2,0:0:0:0:
212,108,40632,1,0,0:0:0:0:
256,300,40926,1,8,0:0:0:0:
300,108,41220,1,0,0:0:0:0:
256,28,41367,1,2,0:0:0:0:
212,108,41515,1,0,0:0:0:0:
372,192,41809,1,2,0:0:0:0:
140,192,42103,1,8,0:0:0:0:
140,192,42176,1,0,0:0:0:0:
140,192,42250,2,0,L|92:192,1,47.9999985351563
256,300,42691,5,2,0:0:0:0:
404,192,42985,1,0,0:0:0:0:
256,84,43279,1,8,0:0:0:0:
108,192,43573,1,2,0:0:0:0:
256,84,43867,5,0,0:0:0:0:
404,192,44162,1,2,0:0:0:0:
256,300,44456,1,8,0:0:0:0:
108,192,44750,1,2,0:0:0:0:
256,84,45044,5,0,0:0:0:0:
330,246,45338,1,2,0:0:0:0:
256,64,45632,5,8,0:0:0:0:
182,246,45926,1,2,0:0:0:0:
182,246,46514,1,2,0:0:0:0:
316,128,46809,6,0,B|340:128|340:128|356:144,1,47.9999985351563,8|0,0:0|0:0,0:0:0:0:
196,128,47103,2,0,B|172:128|172:128|156:144,1,47.9999985351563
256,300,47397,5,2,0:0:0:0:
108,192,47691,1,0,0:0:0:0:
196,364,47985,1,8,0:0:0:0:
48,256,48279,5,0,0:0:0:0:
108,192,48426,1,2,0:0:0:0:
48,128,48573,1,0,0:0:0:0:
122,310,48867,1,2,0:0:0:0:
196,128,49162,1,8,0:0:0:0:
196,128,49235,1,0,0:0:0:0:
196,128,49309,2,0,P|202:105|196:82,1,47.9999985351563
256,300,49750,5,2,0:0:0:0:
404,192,50044,1,0,0:0:0:0:
316,364,50338,1,8,0:0:0:0:
464,256,50632,5,0,0:0:0:0:
404,192,50779,1,2,0:0:0:0:
464,128,50926,1,0,0:0:0:0:
390,310,51220,1,2,0:0:0:0:
316,128,51514,1,8,0:0:0:0:
316,128,51588,1,0,0:0:0:0:
316,128,51661,2,0,P|310:105|316:82,1,47.9999985351563
256,300,52103,5,2,0:0:0:0:
196,128,52397,1,0,0:0:0:0:
330,246,52691,1,8,0:0:0:0:
256,48,52985,1,2,0:0:0:0:
182,246,53279,1,0,0:0:0:0:
316,128,53573,1,2,0:0:0:0:
256,300,53867,1,8,0:0:0:0:
256,48,54309,1,2,0:0:0:0:
196,128,54456,5,0,0:0:0:0:
404,300,54750,1,2,0:0:0:0:
256,192,55044,1,8,0:0:0:0:
108,300,55338,1,2,0:0:0:0:
108,300,55926,1,2,0:0:0:0:
316,128,56220,1,8,0:0:0:0:
256,300,56514,1,2,0:0:0:0:
196,128,56809,6,0,B|244:104|256:48|256:48|268:104|316:128,1,207.999990478516,4|8,3:0|0:0,0:0:0:0:
256,224,57691,2,0,L|90:97,1,207.999990478516,4|8,3:0|0:0,0:0:0:0:
24,192,58573,1,4,3:0:0:0:
90,286,58867,1,8,0:0:0:0:
256,128,59161,6,0,P|348:87|440:128,1,207.999990478516,4|8,3:0|0:0,0:0:0:0:
441,256,60044,2,0,P|349:297|256:256,1,207.999990478516,4|8,3:0|0:0,0:0:0:0:
352,192,60926,1,4,3:0:0:0:
256,128,61220,1,8,0:0:0:0:
160,192,61514,6,0,B|132:208|132:208|92:208|92:208|64:192,1,103.999995239258,4|0,3:0|0:0,0:0:0:0:
208,60,62103,2,0,B|236:44|236:44|276:44|276:44|304:60,1,103.999995239258,8|4,0:0|3:0,0:0:0:0:
448,192,62691,2,0,B|420:208|420:208|380:208|380:208|352:192,1,103.999995239258,0|8,0:0|0:0,0:0:0:0:
256,128,63279,1,4,3:0:0:0:
160,192,63573,1,8,0:0:0:0:
256,256,63867,6,0,B|256:295|256:295|260:303|260:303|252:303|252:303|256:311|256:311|256:350,2,103.999995239258,4|0|8,3:0|0:0|0:0,0:0:0:0:
160,192,64750,2,0,B|256:152|256:152|352:192,1,207.999990478516,4|8,3:0|0:0,0:0:0:0:
432,111,65632,1,4,3:0:0:0:
512,192,65926,1,8,0:0:0:0:
316,256,66220,6,0,B|268:280|256:336|256:336|244:280|196:256,1,207.999990478516,4|8,3:0|0:0,0:0:0:0:
256,160,67103,2,0,L|422:287,1,207.999990478516,4|8,3:0|0:0,0:0:0:0:
488,192,67985,1,4,3:0:0:0:
422,98,68279,1,8,0:0:0:0:
256,256,68573,6,0,P|164:297|72:256,1,207.999990478516,4|8,3:0|0:0,0:0:0:0:
71,128,69456,2,0,P|163:87|256:128,1,207.999990478516,4|8,3:0|0:0,0:0:0:0:
160,192,70338,1,4,3:0:0:0:
256,256,70632,1,8,0:0:0:0:
256,256,70779,1,0,0:0:0:0:
256,256,70926,6,0,L|329:329,1,103.999995239258,2|0,0:0|0:0,0:0:0:0:
256,128,71514,2,0,L|329:54,1,103.999995239258,2|0,0:0|0:0,0:0:0:0:
408,256,72103,2,0,P|452:280|496:256,1,103.999995239258,2|0,0:0|0:0,0:0:0:0:
408,128,72691,2,0,P|452:104|496:128,1,103.999995239258,2|0,0:0|0:0,0:0:0:0:
332,192,73279,5,2,0:0:0:0:
256,192,73353,12,0,75632,0:0:0:0:
