osu file format v14

[General]
AudioFilename: toby fox - UNDERTALE Soundtrack - 22 Snowdin Town.mp3
AudioLeadIn: 0
PreviewTime: 56772
Countdown: 0
SampleSet: Soft
StackLeniency: 0.3
Mode: 0
LetterboxInBreaks: 0
WidescreenStoryboard: 0

[Editor]
Bookmarks: 61,75632
DistanceSpacing: 1
BeatDivisor: 8
GridSize: 4
TimelineZoom: 1.1

[Metadata]
Title:Snowdin Town
TitleUnicode:Snowdin Town
Artist:toby fox
ArtistUnicode:toby fox
Creator:Gero
Version:Average
Source:UNDERTALE
Tags:Merry Christmas Xmas X-mas White Snow Santa Claus Chiptune Radiation Soundtrack Frisk the Human Howdy! Flowey Flower FLOWERY Toriel Goat Mom Tori Old lady ASGORE'S CLONE Sans Skeleton Smiley Trashbag Sansy Papyrus GREAT COOL DUDE Undyne Undying Dr. Alphys Mettaton Robot HAPPSTABLOOK Asgore Dreemurr Dad King Fluffybuns FLUFFYBOY Mr.Dreamy Gorey Asriel Dreemurr Son Battle Furry Furries Anthropomorphic Animals Serial Murderer Chara Lesser Dog Doggo Dogamy and Dogaressa Greater Monster Kid various NPCs Snowman Snowdin Shopkeeper Grillby's Papyrus' & Sans's House Snowdin Library Ice Wolf North of Town True Pacifist Route Ruins Snowdin Forest Royal Guard Happy Ending Track 22 Underground Surface * (You're filled with DETERMINATION.) You cannot give up just yet. . . Frisk! Stay determined. . . INTEGRITY PERSEVERANCE KINDNESS JUSTICE PATIENCE BRAVERY DETERMINATION 7 Lost Souls 8-Bit 8Bits 8 Bits Indie Game Cosmolade
BeatmapID:1120750
BeatmapSetID:528293

[Difficulty]
HPDrainRate:3
CircleSize:3.5
OverallDifficulty:3
ApproachRate:4
SliderMultiplier:1.2
SliderTickRate:2

[Events]
//Background and Video events
0,0,"BG.jpg",0,0
//Break Periods
//Storyboard Layer 0 (Background)
//Storyboard Layer 1 (Fail)
//Storyboard Layer 2 (Pass)
//Storyboard Layer 3 (Foreground)
//Storyboard Sound Samples

[TimingPoints]
61,594.059405940594,4,2,1,50,1,0
8717,594.059405940594,4,2,1,50,1,0
9050,594.059405940594,4,2,1,50,1,0
9734,594.059405940594,4,2,1,50,1,0
13575,594.059405940594,4,2,1,50,1,0
14444,594.059405940594,4,2,1,50,1,0
19162,588.235294117647,4,2,1,60,1,0
19162,-100,4,2,1,60,0,0
56809,-100,4,2,1,70,0,1
70926,-100,4,2,1,40,0,0
73279,-100,4,2,1,30,0,0
73867,-100,4,2,1,20,0,0
74456,-100,4,2,1,15,0,0
75044,-100,4,2,1,10,0,0
75632,-100,4,2,2,5,0,0

[Colours]
Combo1 : 66,198,89
Combo2 : 84,180,207
Combo3 : 185,160,115
Combo4 : 241,48,48
SliderBorder : 255,255,255
SliderTrackOverride : 100,100,100

[HitObjects]
432,136,61,6,0,P|451:192|432:248,1,120,2|2,0:0|0:0,0:0:0:0:
380,220,952,1,0,0:0:0:0:
328,192,1249,2,0,P|256:146|184:192,1,180,2|0,0:0|0:0,0:0:0:0:
132,220,2437,5,2,0:0:0:0:
204,316,3031,1,0,0:0:0:0:
204,316,3328,2,0,B|256:346|256:346|308:316,1,120,2|2,0:0|0:0,0:0:0:0:
356,284,4219,1,2,0:0:0:0:
256,220,4813,6,0,B|245:192|245:192|256:164,1,60,2|0,0:0|0:0,0:0:0:0:
298,121,5407,2,0,B|309:93|309:93|298:65,1,60,2|0,0:0|0:0,0:0:0:0:
256,20,6001,2,0,L|416:102,1,180,2|0,0:0|0:0,0:0:0:0:
458,144,7189,5,2,0:0:0:0:
373,228,7783,1,0,0:0:0:0:
373,228,8080,2,0,P|302:266|373:304,1,196,2|2,0:0|0:0,0:0:0:0:
505,266,9734,6,0,L|462:223,1,60,2|0,0:0|0:0,0:0:0:0:
504,181,10328,2,0,L|461:138,1,60,2|0,0:0|0:0,0:0:0:0:
503,96,10922,2,0,P|423:131|343:96,1,180,2|0,0:0|0:0,0:0:0:0:
291,68,12110,6,0,B|302:96|302:96|291:124,1,60,2|0,0:0|0:0,0:0:0:0:
256,172,12704,1,0,0:0:0:0:
221,124,13001,1,2,0:0:0:0:
128,192,13575,1,2,0:0:0:0:
128,192,13872,1,2,0:0:0:0:
221,260,14444,5,2,0:0:0:0:
320,192,15038,1,2,0:0:0:0:
221,124,15632,2,0,B|208:176|168:192|168:192|208:208|221:260,1,180,2|0,0:0|0:0,0:0:0:0:
256,312,16820,6,0,L|256:372,2,60,2|0|2,0:0|0:0|0:0,0:0:0:0:
291,260,17711,2,0,B|316:260|316:260|364:260|396:232|404:192|404:192|396:152|364:124|316:124|316:124|291:124,1,292.5,2|2,0:0|0:0,0:0:0:0:
192,192,19750,1,8,0:0:0:0:
93,124,20338,2,0,P|84:96|93:68,2,60,0|2|8,0:0|0:0|0:0,0:0:0:0:
192,192,21514,5,2,0:0:0:0:
256,92,22103,1,8,0:0:0:0:
320,192,22691,1,0,0:0:0:0:
348,244,22985,1,2,0:0:0:0:
376,192,23279,1,8,0:0:0:0:
460,107,23867,6,0,B|489:192|489:192|460:277,1,180,2|2,0:0|0:0,0:0:0:0:
502,319,25044,2,0,L|446:341,1,60,0|2,0:0|0:0,0:0:0:0:
403,299,25632,2,0,L|347:321,1,60,8|2,0:0|0:0,0:0:0:0:
304,279,26220,6,0,P|285:223|304:167,1,120,0|8,0:0|0:0,0:0:0:0:
360,146,27103,2,0,P|304:165|248:146,1,120,2|2,0:0|0:0,0:0:0:0:
205,103,27985,1,8,0:0:0:0:
120,18,28573,5,2,0:0:0:0:
35,102,29162,2,0,P|26:130|35:158,1,60,8|2,0:0|0:0,0:0:0:0:
77,200,29750,2,0,P|86:228|77:256,1,60,0|2,0:0|0:0,0:0:0:0:
34,298,30338,5,8,0:0:0:0:
118,382,30926,2,0,B|148:328|208:328|208:328|277:328,1,180,2|2,0:0|0:0,0:0:0:0:
331,356,32103,2,0,B|331:340|322:328|322:328|331:316|331:300,1,60,0|2,0:0|0:0,0:0:0:0:
385,272,32691,1,8,0:0:0:0:
476,192,33279,5,2,0:0:0:0:
385,112,33867,2,0,P|357:103|329:112,1,60,8|2,0:0|0:0,0:0:0:0:
284,152,34456,2,0,P|256:161|228:152,1,60,0|2,0:0|0:0,0:0:0:0:
183,112,35044,1,8,0:0:0:0:
92,192,35632,6,0,B|92:274|92:274|96:282|96:282|100:290|100:290|100:370,2,180,2|2|8,0:0|0:0|0:0,0:0:0:0:
49,149,37691,1,2,0:0:0:0:
91,106,37985,6,0,P|147:87|203:106,1,120,2|8,0:0|0:0,0:0:0:0:
256,136,38867,1,2,0:0:0:0:
309,166,39162,2,0,P|318:194|309:222,1,60,0|2,0:0|0:0,0:0:0:0:
266,264,39750,2,0,P|257:292|266:320,1,60,8|2,0:0|0:0,0:0:0:0:
308,362,40338,6,0,B|256:332|256:332|196:332,1,120,2|8,0:0|0:0,0:0:0:0:
153,374,41220,1,2,0:0:0:0:
110,331,41514,2,0,L|137:277,1,60,0|2,0:0|0:0,0:0:0:0:
94,234,42103,2,0,L|121:180,1,60,8|2,0:0|0:0,0:0:0:0:
78,138,42691,6,0,B|122:122|158:134|166:138|174:142|214:158|254:138,1,180,2|2,0:0|0:0,0:0:0:0:
296,95,43867,1,2,0:0:0:0:
364,192,44456,1,8,0:0:0:0:
296,289,45044,2,0,B|214:289|214:289|206:285|206:285|198:281|198:281|118:281,2,180,2|2|8,0:0|0:0|0:0,0:0:0:0:
364,192,47397,6,0,P|383:136|364:80,1,120,2|8,0:0|0:0,0:0:0:0:
321,37,48279,1,2,0:0:0:0:
278,79,48573,2,0,L|235:121,1,60,0|2,0:0|0:0,0:0:0:0:
193,78,49162,2,0,L|150:120,1,60,8|2,0:0|0:0,0:0:0:0:
108,78,49750,6,0,L|235:205,1,180,2|2,0:0|0:0,0:0:0:0:
277,247,50926,2,0,P|305:256|333:247,1,60,0|2,0:0|0:0,0:0:0:0:
375,204,51514,2,0,P|403:195|431:204,1,60,8|2,0:0|0:0,0:0:0:0:
473,161,52103,6,0,B|457:176|457:176|425:208|413:252|425:296|453:316,1,180,2|2,0:0|0:0,0:0:0:0:
495,359,53279,2,0,L|382:317,1,120,2|8,0:0|0:0,0:0:0:0:
487,245,54456,6,0,L|375:204,1,120,2|8,0:0|0:0,0:0:0:0:
314,203,55338,2,0,L|426:162,1,120,2|2,0:0|0:0,0:0:0:0:
469,119,56220,1,8,0:0:0:0:
384,34,56809,6,0,B|372:84|320:84|320:84|288:84,1,120,4|8,3:0|0:0,0:0:0:0:
223,84,57691,2,0,B|192:84|192:84|140:84|128:34,1,120,4|8,3:0|0:0,0:0:0:0:
85,76,58573,1,4,3:0:0:0:
169,160,59161,2,0,B|256:183|256:183|343:160,2,180,4|4|4,3:0|3:0|3:0,0:0:0:0:
126,117,61220,1,8,0:0:0:0:
83,159,61514,6,0,P|64:215|83:271,1,120,4|8,3:0|0:0,0:0:0:0:
27,294,62397,2,0,P|82:276|138:294,1,120,4|8,3:0|0:0,0:0:0:0:
181,337,63279,1,4,3:0:0:0:
265,252,63867,2,0,B|272:224|296:200|326:192|326:192|296:184|272:160|265:132,2,180,4|4|4,3:0|3:0|3:0,0:0:0:0:
160,192,66220,6,0,B|100:192|100:192|57:234,1,120,4|8,3:0|0:0,0:0:0:0:
15,276,67103,2,0,L|115:341,1,120,4|8,3:0|0:0,0:0:0:0:
158,298,67985,1,4,3:0:0:0:
242,213,68573,6,0,B|278:213|294:189|294:189|310:213|346:213,1,120,4|8,3:0|0:0,0:0:0:0:
374,269,69456,2,0,P|355:213|374:157,1,120,4|8,3:0|0:0,0:0:0:0:
416,114,70338,1,4,3:0:0:0:
331,29,70926,6,0,P|256:71|181:29,2,180,2|2|2,0:0|0:0|0:0,0:0:0:0:
416,114,73279,5,2,0:0:0:0:
256,192,73426,12,0,75632,0:0:0:0:
