osu file format v14

[General]
AudioFilename: toby fox - UNDERTALE Soundtrack - 90 His Theme.mp3
AudioLeadIn: 0
PreviewTime: 64012
Countdown: 0
SampleSet: Soft
StackLeniency: 0.2
Mode: 0
LetterboxInBreaks: 0
EpilepsyWarning: 1
WidescreenStoryboard: 0

[Editor]
Bookmarks: 68,117401
DistanceSpacing: 2
BeatDivisor: 12
GridSize: 4
TimelineZoom: 1.1

[Metadata]
Title:His Theme
TitleUnicode:His Theme
Artist:toby fox
ArtistUnicode:toby fox
Creator:Gero
Version:Relaxing
Source:UNDERTALE
Tags:Chiptune Radiation Soundtrack Frisk the Human Howdy! Flowey the Flower FLOWERY Toriel the Goat Mom Tori Old lady ASGORE'S CLONE Sans the Skeleton Smiley Trashbag Sansy Papyrus the Skeleton THE GREAT PAPYRUS COOL DUDE Undyne the Undying Dr. Alphys Mettaton the Robot HAPPSTABLOOK Asgore Dreemurr the Goat Dad King Fluffybuns KING FLUFFYBOY Mr.Dreamy Gorey Asriel Dreemurr the Goat Son Battle Serial Murderer Chara The True Pacifist Route Happy Ending Track 90 The Underground The Surface * (You're filled with DETERMINATION.) You cannot give up just yet. . . Pippi! Stay determined. . . INTEGRITY PERSEVERANCE KINDNESS JUSTICE PATIENCE BRAVERY DETERMINATION 7 Souls Lost Souls Hopes and Dreams GOD of Hyperdeath Burn in Despair! final form SAVE the World after "SAVE" option appears Hope Dream Struggle the Barrier Fire Magic Chaos Buster Chaos Saber Shocker Breaker Star Blazing Hyper Goner Angel of Death * SAVE HIM 8Bits Indie Game diraimur W h i t e W_h_i_t_e Sekaii Sekai-nyan -Sekai- Cosmolade
BeatmapID:1018342
BeatmapSetID:475469

[Difficulty]
HPDrainRate:1
CircleSize:2
OverallDifficulty:1
ApproachRate:2
SliderMultiplier:0.8
SliderTickRate:2

[Events]
//Background and Video events
0,0,"BG.jpg",0,0
//Break Periods
//Storyboard Layer 0 (Background)
//Storyboard Layer 1 (Fail)
//Storyboard Layer 2 (Pass)
//Storyboard Layer 3 (Foreground)
//Storyboard Sound Samples

[TimingPoints]
68,666.666666666667,4,2,1,60,1,0
68,-76.9230769230769,4,2,1,60,0,0
64068,-76.9230769230769,4,2,2,80,0,1
74623,-76.9230769230769,4,2,2,80,0,0
74734,-76.9230769230769,4,2,2,80,0,1
85290,-76.9230769230769,4,2,2,80,0,0
85401,-76.9230769230769,4,2,2,80,0,1
95956,-76.9230769230769,4,2,2,80,0,0
96068,-76.9230769230769,4,2,2,80,0,1
106734,-76.9230769230769,4,2,2,70,0,0
108068,-76.9230769230769,4,2,2,60,0,0
109401,-76.9230769230769,4,2,2,50,0,0
110734,-76.9230769230769,4,2,2,40,0,0
112068,-76.9230769230769,4,2,2,30,0,0
113401,-76.9230769230769,4,2,2,20,0,0
114734,-76.9230769230769,4,2,2,15,0,0
116068,-76.9230769230769,4,2,2,10,0,0
117401,-76.9230769230769,4,2,2,5,0,0

[Colours]
Combo1 : 255,45,45
Combo2 : 43,43,255
Combo3 : 242,163,74
Combo4 : 0,255,255
Combo5 : 255,255,36
Combo6 : 87,172,117
Combo7 : 209,62,225
SliderBorder : 172,172,172
SliderTrackOverride : 126,126,126

[HitObjects]
188,276,68,6,0,P|256:309|324:276,1,155.999992858887,2|2,0:0|0:0,0:0:0:0:
292,176,1401,2,0,B|256:192|256:192|220:176,2,77.9999964294435,8|8|8,0:0|0:0|0:0,0:0:0:0:
256,80,2734,5,2,0:0:0:0:
80,192,3401,1,2,0:0:0:0:
256,304,4068,1,8,0:0:0:0:
432,192,4734,1,8,0:0:0:0:
256,80,5401,6,0,B|177:80|177:80|129:140,1,155.999992858887,2|2,0:0|0:0,0:0:0:0:
129,244,6734,2,0,B|177:304|177:304|256:304,1,155.999992858887,8|8,0:0|0:0,0:0:0:0:
339,241,8068,6,0,P|354:192|339:143,1,103.999995239258,2|2,0:0|0:0,0:0:0:0:
256,80,9068,1,2,0:0:0:0:
173,143,9401,2,0,B|137:143|137:143|129:147|129:147|95:147,2,77.9999964294435,8|8|8,0:0|0:0|0:0,0:0:0:0:
256,80,10734,6,0,B|328:80|328:80|340:84|340:84|411:84,1,155.999992858887,2|2,0:0|0:0,0:0:0:0:
486,155,12068,2,0,P|497:192|486:229,2,77.9999964294435,8|8|8,0:0|0:0|0:0,0:0:0:0:
388,192,13401,6,0,B|336:192|336:192|280:192|248:144,1,155.999992858887,2|2,0:0|0:0,0:0:0:0:
153,106,14734,2,0,B|145:144|145:144|153:182,2,77.9999964294435,8|8|8,0:0|0:0|0:0,0:0:0:0:
57,67,16068,6,0,L|20:218,1,155.999992858887,2|2,0:0|0:0,0:0:0:0:
94,292,17401,2,0,B|130:304|150:343|150:343|170:304|206:292,1,155.999992858887,8|8,0:0|0:0,0:0:0:0:
300,340,18734,6,0,B|320:292|320:292|300:244,1,103.999995239258,2|2,0:0|0:0,0:0:0:0:
388,192,19734,1,2,0:0:0:0:
300,140,20068,2,0,L|329:67,2,77.9999964294435,8|8|8,0:0|0:0|0:0,0:0:0:0:
212,88,21401,6,0,L|172:184,1,103.999995239258,2|2,0:0|0:0,0:0:0:0:
98,110,22401,1,2,0:0:0:0:
24,183,22734,2,0,L|83:327,1,155.999992858887,8|8,0:0|0:0,0:0:0:0:
157,253,24068,6,0,B|207:253|207:253|247:293,1,103.999995239258,2|2,0:0|0:0,0:0:0:0:
318,364,25068,1,2,0:0:0:0:
391,290,25401,2,0,B|427:306|427:306|463:290,2,77.9999964294435,8|8|8,0:0|0:0|0:0,0:0:0:0:
427,194,26734,5,2,0:0:0:0:
256,76,27401,1,2,0:0:0:0:
85,194,28068,1,8,0:0:0:0:
256,308,28734,1,8,0:0:0:0:
427,194,29401,5,2,0:0:0:0:
280,44,30068,2,0,B|256:54|256:54|232:44,1,51.999997619629,2|2,0:0|0:0,0:0:0:0:
220,148,30734,2,0,P|256:161|292:148,2,77.9999964294435,8|8|8,0:0|0:0|0:0,0:0:0:0:
208,252,32068,6,0,B|238:273|256:312|256:312|274:273|304:252,1,155.999992858887,2|2,0:0|0:0,0:0:0:0:
256,160,33401,2,0,L|111:218,1,155.999992858887,8|8,0:0|0:0,0:0:0:0:
20,169,34734,6,0,P|5:120|20:71,1,103.999995239258,2|2,0:0|0:0,0:0:0:0:
111,120,35734,1,2,0:0:0:0:
202,71,36068,2,0,L|274:41,2,77.9999964294435,8|8|8,0:0|0:0|0:0,0:0:0:0:
256,160,37401,6,0,L|401:102,1,155.999992858887,2|2,0:0|0:0,0:0:0:0:
490,155,38734,2,0,P|501:192|490:229,2,77.9999964294435,8|8|8,0:0|0:0|0:0,0:0:0:0:
392,192,40068,6,0,B|376:218|376:256|392:283|392:283|340:316,1,155.999992858887,2|2,0:0|0:0,0:0:0:0:
256,256,41401,2,0,L|121:335,1,155.999992858887,8|8,0:0|0:0,0:0:0:0:
76,240,42734,6,0,P|59:192|76:144,1,103.999995239258,2|2,0:0|0:0,0:0:0:0:
149,70,43734,1,2,0:0:0:0:
222,143,44068,2,0,B|256:162|256:162|290:143,2,77.9999964294435,8|8|8,0:0|0:0|0:0,0:0:0:0:
256,44,45401,5,2,0:0:0:0:
404,192,46068,1,2,0:0:0:0:
256,340,46734,1,8,0:0:0:0:
108,192,47401,1,8,0:0:0:0:
208,8,48068,6,0,B|256:28|256:28|304:8,1,103.999995239258,2|2,0:0|0:0,0:0:0:0:
377,81,49068,1,2,0:0:0:0:
303,154,49401,2,0,B|272:180|256:215|256:215|240:180|209:154,1,155.999992858887,8|8,0:0|0:0,0:0:0:0:
118,105,50734,6,0,P|103:154|118:203,1,103.999995239258,2|2,0:0|0:0,0:0:0:0:
191,276,51734,1,2,0:0:0:0:
117,349,52068,2,0,B|77:349|77:349|50:375,2,77.9999964294435,8|8|8,0:0|0:0|0:0,0:0:0:0:
191,276,53401,6,0,L|295:276,1,103.999995239258,2|2,0:0|0:0,0:0:0:0:
356,192,54401,1,2,0:0:0:0:
417,276,54734,2,0,P|428:313|417:350,2,77.9999964294435,8|8|8,0:0|0:0|0:0,0:0:0:0:
356,192,56068,6,0,P|330:120|356:48,1,155.999992858887,2|2,0:0|0:0,0:0:0:0:
428,120,57401,2,0,L|317:230,1,155.999992858887,8|8,0:0|0:0,0:0:0:0:
256,144,58734,6,0,L|181:216,1,103.999995239258,2|2,0:0|0:0,0:0:0:0:
107,142,59734,1,2,0:0:0:0:
33,215,60068,2,0,L|144:325,1,155.999992858887,8|8,0:0|0:0,0:0:0:0:
208,244,61401,6,0,P|256:227|304:244,1,103.999995239258,2|2,0:0|0:0,0:0:0:0:
396,192,62401,1,2,0:0:0:0:
488,245,62734,2,0,B|488:269|500:281|500:281|488:293|488:317,2,77.9999964294435,8|8|8,0:0|0:0|0:0,0:0:0:0:
396,192,64068,6,0,L|469:118,1,103.999995239258,4|10,1:3|1:0,0:0:0:0:
380,60,65068,1,2,1:0:0:0:
290,118,65401,2,0,B|256:137|256:137|222:118,2,77.9999964294435,12|12|12,1:2|0:0|1:2,0:0:0:0:
256,20,66734,6,0,B|216:8|176:20|152:44|152:44|107:44,1,155.999992858887,2|2,0:0|1:0,0:0:0:0:
88,148,68068,2,0,B|61:121|61:121|21:121,2,77.9999964294435,12|12|12,1:2|0:0|1:2,0:0:0:0:
184,192,69401,6,0,B|228:192|228:192|244:196|244:196|287:196,1,103.999995239258,2|10,0:0|1:0,0:0:0:0:
361,122,70401,1,2,1:0:0:0:
434,195,70734,2,0,P|447:231|434:267,2,77.9999964294435,12|12|12,1:2|0:0|1:2,0:0:0:0:
336,232,72068,6,0,B|312:232|312:232|268:232|242:265,1,103.999995239258,2|10,0:0|1:0,0:0:0:0:
168,192,73068,1,2,1:0:0:0:
242,118,73401,2,0,L|320:118,2,77.9999964294435,12|12|12,1:2|0:0|1:2,0:0:0:0:
168,44,74734,6,0,B|92:44|92:44|35:100,1,155.999992858887,4|2,1:3|1:0,0:0:0:0:
84,192,76068,2,0,L|28:247,2,77.9999964294435,12|12|12,1:2|0:0|1:2,0:0:0:0:
132,283,77401,6,0,P|204:309|276:283,1,155.999992858887,2|2,0:0|1:0,0:0:0:0:
352,355,78734,2,0,P|326:283|352:211,1,155.999992858887,12|12,1:2|1:2,0:0:0:0:
425,137,80068,6,0,B|384:104|384:104|332:104,1,103.999995239258,2|10,0:0|1:0,0:0:0:0:
256,36,81068,1,2,1:0:0:0:
179,104,81401,2,0,B|198:138|198:138|179:172,2,77.9999964294435,12|12|12,1:2|0:0|1:2,0:0:0:0:
80,138,82734,5,2,0:0:0:0:
256,252,83401,1,10,1:0:0:0:
432,138,84068,1,12,1:2:0:0:
256,28,84734,1,2,1:0:0:0:
80,138,85401,6,0,B|116:148|132:192|132:192|116:236|80:246,1,155.999992858887,4|2,1:3|1:0,0:0:0:0:
40,340,86734,2,0,B|72:292|128:292|128:292|180:292,1,155.999992858887,12|12,1:2|1:2,0:0:0:0:
268,240,88068,6,0,B|288:192|288:192|268:144,1,103.999995239258,2|10,0:0|1:0,0:0:0:0:
341,70,89068,1,2,1:0:0:0:
414,143,89401,2,0,P|451:154|488:143,2,77.9999964294435,12|12|12,1:2|0:0|1:2,0:0:0:0:
451,45,90735,6,0,B|505:191,1,155.999992858887,2|2,0:0|1:0,0:0:0:0:
448,280,92068,2,0,B|412:292|392:331|392:331|372:292|336:280,1,155.999992858887,12|12,1:2|1:2,0:0:0:0:
392,192,93401,5,2,0:0:0:0:
256,36,94068,1,10,1:0:0:0:
120,192,94734,1,12,1:2:0:0:
256,348,95401,1,2,1:0:0:0:
392,192,96068,6,0,B|452:184|496:100|460:16|360:-4|308:40|296:92|296:92|296:64|280:44|256:34|256:34|232:44|216:64|216:92|216:92|204:40|152:-4|52:16|16:100|60:184|120:192,2,831.999961914064,4|2|4,1:3|0:0|1:3,0:0:0:0:
256,192,106901,12,4,117401,1:2:0:0:
