osu file format v14

[General]
AudioFilename: toby fox - UNDERTALE Soundtrack - 90 His Theme.mp3
AudioLeadIn: 0
PreviewTime: 64012
Countdown: 0
SampleSet: Soft
StackLeniency: 0.2
Mode: 0
LetterboxInBreaks: 0
EpilepsyWarning: 1
WidescreenStoryboard: 0

[Editor]
Bookmarks: 68,117401
DistanceSpacing: 1.4
BeatDivisor: 12
GridSize: 4
TimelineZoom: 1.1

[Metadata]
Title:His Theme
TitleUnicode:His Theme
Artist:toby fox
ArtistUnicode:toby fox
Creator:Gero
Version:Average
Source:UNDERTALE
Tags:Chiptune Radiation Soundtrack Frisk the Human Howdy! Flowey the Flower FLOWERY Toriel the Goat Mom Tori Old lady ASGORE'S CLONE Sans the Skeleton Smiley Trashbag Sansy Papyrus the Skeleton THE GREAT PAPYRUS COOL DUDE Undyne the Undying Dr. Alphys Mettaton the Robot HAPPSTABLOOK Asgore Dreemurr the Goat Dad King Fluffybuns KING FLUFFYBOY Mr.Dreamy Gorey Asriel Dreemurr the Goat Son Battle Serial Murderer Chara The True Pacifist Route Happy Ending Track 90 The Underground The Surface * (You're filled with DETERMINATION.) You cannot give up just yet. . . Pippi! Stay determined. . . INTEGRITY PERSEVERANCE KINDNESS JUSTICE PATIENCE BRAVERY DETERMINATION 7 Souls Lost Souls Hopes and Dreams GOD of Hyperdeath Burn in Despair! final form SAVE the World after "SAVE" option appears Hope Dream Struggle the Barrier Fire Magic Chaos Buster Chaos Saber Shocker Breaker Star Blazing Hyper Goner Angel of Death * SAVE HIM 8Bits Indie Game diraimur W h i t e W_h_i_t_e Sekaii Sekai-nyan -Sekai- Cosmolade
BeatmapID:1017590
BeatmapSetID:475469

[Difficulty]
HPDrainRate:4
CircleSize:3
OverallDifficulty:4
ApproachRate:5
SliderMultiplier:1.2
SliderTickRate:2

[Events]
//Background and Video events
0,0,"BG.jpg",0,0
//Break Periods
//Storyboard Layer 0 (Background)
//Storyboard Layer 1 (Fail)
//Storyboard Layer 2 (Pass)
//Storyboard Layer 3 (Foreground)
//Storyboard Sound Samples

[TimingPoints]
68,666.666666666667,4,2,1,60,1,0
68,-76.9230769230769,4,2,1,60,0,0
64068,-76.9230769230769,4,2,2,80,0,1
74623,-76.9230769230769,4,2,2,80,0,0
74734,-76.9230769230769,4,2,2,80,0,1
85290,-76.9230769230769,4,2,2,80,0,0
85401,-76.9230769230769,4,2,2,80,0,1
95956,-76.9230769230769,4,2,2,80,0,0
96068,-76.9230769230769,4,2,2,80,0,1
106734,-76.9230769230769,4,2,2,70,0,0
108068,-76.9230769230769,4,2,2,60,0,0
109401,-76.9230769230769,4,2,2,50,0,0
110734,-76.9230769230769,4,2,2,40,0,0
112068,-76.9230769230769,4,2,2,30,0,0
113401,-76.9230769230769,4,2,2,20,0,0
114734,-76.9230769230769,4,2,2,15,0,0
116068,-76.9230769230769,4,2,2,10,0,0
117401,-76.9230769230769,4,2,2,5,0,0

[Colours]
Combo1 : 255,45,45
Combo2 : 43,43,255
Combo3 : 242,163,74
Combo4 : 0,255,255
Combo5 : 255,255,36
Combo6 : 87,172,117
Combo7 : 209,62,225
SliderBorder : 172,172,172
SliderTrackOverride : 126,126,126

[HitObjects]
201,192,68,6,0,P|192:230|201:268,1,77.9999964294435,2|2,0:0|0:0,0:0:0:0:
311,267,734,2,0,P|319:229|310:191,1,77.9999964294435,2|2,0:0|0:0,0:0:0:0:
308,82,1401,2,0,B|256:109|256:109|204:82,2,116.999994644165,8|8|8,0:0|0:0|0:0,0:0:0:0:
385,4,2734,5,2,0:0:0:0:
462,81,3068,1,2,0:0:0:0:
384,158,3401,2,0,B|403:192|403:192|384:226,1,77.9999964294435,2|2,0:0|0:0,0:0:0:0:
329,319,4068,2,0,P|384:336|439:318,2,116.999994644165,8|8|8,0:0|0:0|0:0,0:0:0:0:
256,240,5401,6,0,B|204:240|204:240|152:240|120:292,1,155.999992858887,2|2,0:0|0:0,0:0:0:0:
72,192,6401,1,2,0:0:0:0:
120,92,6734,2,0,B|172:92|172:92|183:96|183:96|237:96,2,116.999994644165,8|8|8,0:0|0:0|0:0,0:0:0:0:
72,192,8068,6,0,L|150:192,1,77.9999964294435,2|2,0:0|0:0,0:0:0:0:
217,277,8734,2,0,L|295:277,1,77.9999964294435,2|2,0:0|0:0,0:0:0:0:
389,222,9401,2,0,P|406:277|389:332,2,116.999994644165,8|8|8,0:0|0:0|0:0,0:0:0:0:
466,144,10734,6,0,B|437:114|389:102|341:114|311:144|311:144|248:144,1,233.999989288331,2|2,0:0|0:0,0:0:0:0:
156,196,12068,2,0,B|129:144|129:144|156:92,2,116.999994644165,8|8|8,0:0|0:0|0:0,0:0:0:0:
78,273,13401,5,2,0:0:0:0:
155,350,13734,1,2,0:0:0:0:
232,272,14068,2,0,B|272:272|272:272|298:298,1,77.9999964294435,2|2,0:0|0:0,0:0:0:0:
396,244,14734,2,0,B|396:212|418:192|418:192|396:172|396:140,2,116.999994644165,8|8|8,0:0|0:0|0:0,0:0:0:0:
300,192,16068,6,0,B|300:160|300:160|300:112|256:94|256:94|212:112|212:160|212:160|212:192,1,233.999989288331,2|2,0:0|0:0,0:0:0:0:
116,244,17401,2,0,B|116:212|94:192|94:192|116:172|116:140,2,116.999994644165,8|8|8,0:0|0:0|0:0,0:0:0:0:
184,328,18734,2,0,B|256:358|256:358|328:328,1,155.999992858887,2|2,0:0|0:0,0:0:0:0:
405,250,19734,1,2,0:0:0:0:
312,192,20068,2,0,P|256:207|200:192,2,116.999994644165,8|8|8,0:0|0:0|0:0,0:0:0:0:
256,96,21401,6,0,L|138:298,1,233.999989288331,2|2,0:0|0:0,0:0:0:0:
41,247,22734,2,0,P|24:192|41:137,2,116.999994644165,8|8|8,0:0|0:0|0:0,0:0:0:0:
136,192,24068,2,0,B|162:165|162:165|202:165,1,77.9999964294435,2|2,0:0|0:0,0:0:0:0:
309,165,24734,2,0,B|349:165|349:165|376:192,1,77.9999964294435,2|2,0:0|0:0,0:0:0:0:
471,247,25401,2,0,P|488:192|471:137,2,116.999994644165,8|8|8,0:0|0:0|0:0,0:0:0:0:
375,192,26734,6,0,P|263:191|200:98,1,233.999989288331,2|2,0:0|0:0,0:0:0:0:
311,98,28068,2,0,P|248:191|136:192,1,233.999989288331,8|8,0:0|0:0,0:0:0:0:
152,300,29401,2,0,B|212:300|256:346|256:346|300:300|360:300,1,233.999989288331,2|2,0:0|0:0,0:0:0:0:
308,204,30734,2,0,B|256:231|256:231|204:204,2,116.999994644165,8|8|8,0:0|0:0|0:0,0:0:0:0:
380,120,32068,6,0,B|352:96|352:96|310:96,1,77.9999964294435,2|2,0:0|0:0,0:0:0:0:
201,96,32734,2,0,B|160:96|160:96|132:120,1,77.9999964294435,2|2,0:0|0:0,0:0:0:0:
48,192,33401,2,0,L|1:84,2,116.999994644165,8|8|8,0:0|0:0|0:0,0:0:0:0:
132,264,34734,6,0,B|160:288|160:288|201:288,1,77.9999964294435,2|2,0:0|0:0,0:0:0:0:
310,288,35400,2,0,B|352:288|352:288|380:264,1,77.9999964294435,2|2,0:0|0:0,0:0:0:0:
464,192,36068,2,0,L|510:299,2,116.999994644165,8|8|8,0:0|0:0|0:0,0:0:0:0:
380,120,37401,6,0,L|410:48,2,77.9999964294435,2|2|2,0:0|0:0|0:0,0:0:0:0:
464,192,38401,1,2,0:0:0:0:
380,264,38734,2,0,B|399:312|399:312|407:320|407:320|427:370,2,116.999994644165,8|8|8,0:0|0:0|0:0,0:0:0:0:
296,192,40068,6,0,B|231:192|231:192|223:196|223:196|223:188|223:188|215:192|215:192|150:192,1,155.999992858887,2|2,0:0|0:0,0:0:0:0:
80,108,41068,1,2,0:0:0:0:
12,192,41401,2,0,B|40:220|40:220|56:236|68:264|60:292,2,116.999994644165,8|8|8,0:0|0:0|0:0,0:0:0:0:
80,108,42734,5,2,0:0:0:0:
149,192,43068,1,2,0:0:0:0:
218,108,43401,2,0,B|256:108|256:108|284:79,1,77.9999964294435,2|2,0:0|0:0,0:0:0:0:
361,157,44068,2,0,P|415:139|470:156,2,116.999994644165,8|8|8,0:0|0:0|0:0,0:0:0:0:
415,249,45401,6,0,B|434:283|434:283|415:317,1,77.9999964294435,2|2,0:0|0:0,0:0:0:0:
311,351,46068,2,0,B|292:317|292:317|311:283,1,77.9999964294435,2|2,0:0|0:0,0:0:0:0:
256,192,46734,2,0,L|256:76,2,116.999994644165,8|8|8,0:0|0:0|0:0,0:0:0:0:
201,283,48068,6,0,B|256:338|256:338|311:283,1,155.999992858887,2|2,0:0|0:0,0:0:0:0:
256,192,49068,1,2,0:0:0:0:
311,101,49401,2,0,B|256:46|256:46|201:101,1,155.999992858887,8|0,0:0|0:0,0:0:0:0:
132,188,50401,1,8,0:0:0:0:
64,102,50734,6,0,B|40:160|-8:192|-8:192|40:224|64:282,1,233.999989288331,2|2,0:0|0:0,0:0:0:0:
141,359,52068,2,0,B|256:338|256:338|371:359,1,233.999989288331,8|8,0:0|0:0,0:0:0:0:
448,282,53401,2,0,B|472:224|520:192|520:192|472:160|448:102,1,233.999989288331,2|2,0:0|0:0,0:0:0:0:
371,25,54734,2,0,B|256:46|256:46|141:25,1,233.999989288331,8|8,0:0|0:0,0:0:0:0:
64,102,56068,6,0,B|64:172|64:172|60:188|60:188|60:257,1,155.999992858887,2|2,0:0|0:0,0:0:0:0:
137,334,57068,1,2,0:0:0:0:
214,256,57401,2,0,B|224:232|256:217|256:217|288:232|298:256,2,116.999994644165,8|8|8,0:0|0:0|0:0,0:0:0:0:
256,356,58734,6,0,L|344:139,1,233.999989288331,2|2,0:0|0:0,0:0:0:0:
399,44,60068,2,0,P|344:27|289:44,2,116.999994644165,8|8|8,0:0|0:0|0:0,0:0:0:0:
453,139,61401,6,0,B|453:179|453:179|482:208,1,77.9999964294435,2|2,0:0|0:0,0:0:0:0:
402,283,62068,2,0,P|364:292|326:283,1,77.9999964294435,2|2,0:0|0:0,0:0:0:0:
232,228,62734,2,0,P|249:283|231:338,2,116.999994644165,8|8|8,0:0|0:0|0:0,0:0:0:0:
118,283,64068,6,0,L|48:144,1,155.999992858887,4|10,1:3|1:0,0:0:0:0:
125,66,65068,1,2,1:0:0:0:
202,143,65401,2,0,B|256:165|256:165|310:143,2,116.999994644165,12|12|12,1:2|0:0|1:2,0:0:0:0:
256,48,66734,6,0,B|294:23|358:23|398:75|398:75|474:75,1,233.999989288331,2|2,0:0|1:0,0:0:0:0:
416,168,68068,2,0,B|388:196|388:196|372:212|360:240|368:268,2,116.999994644165,12|12|12,1:2|0:0|1:2,0:0:0:0:
468,264,69401,6,0,L|346:361,1,155.999992858887,2|10,0:0|1:0,0:0:0:0:
256,300,70401,1,2,1:0:0:0:
165,238,70734,2,0,B|144:224|130:192|130:192|144:160|165:146,2,116.999994644165,12|12|12,1:2|0:0|1:2,0:0:0:0:
264,192,72068,6,0,B|304:192|304:192|330:218,1,77.9999964294435,2|2,0:0|1:0,0:0:0:0:
408,141,72734,1,10,1:0:0:0:
330,63,73068,1,2,1:0:0:0:
408,141,73401,2,0,L|491:223,2,116.999994644165,12|12|12,1:2|0:0|1:2,0:0:0:0:
330,63,74734,6,0,B|256:88|256:88|182:63,1,155.999992858887,4|10,1:3|1:0,0:0:0:0:
104,141,75734,1,2,1:0:0:0:
182,218,76068,2,0,P|201:272|182:326,2,116.999994644165,12|12|12,1:2|0:0|1:2,0:0:0:0:
87,272,77401,6,0,L|243:272,1,155.999992858887,2|10,0:0|1:0,0:0:0:0:
320,192,78401,1,2,1:0:0:0:
397,272,78734,2,0,B|369:300|369:300|353:316|341:344|349:372,2,116.999994644165,12|12|12,1:2|0:0|1:2,0:0:0:0:
474,192,80068,5,2,0:0:0:0:
397,112,80401,1,2,1:0:0:0:
320,192,80734,2,0,B|281:192|281:192|253:164,1,77.9999964294435,10|2,1:0|1:0,0:0:0:0:
176,241,81401,2,0,P|121:258|66:241,2,116.999994644165,12|12|12,1:2|0:0|1:2,0:0:0:0:
121,148,82735,6,0,B|140:114|140:114|121:80,1,77.9999964294435,2|2,0:0|1:0,0:0:0:0:
230,79,83401,2,0,B|211:45|211:45|230:11,1,77.9999964294435,10|2,1:0|1:0,0:0:0:0:
336,45,84068,2,0,B|336:97|336:97|332:108|332:108|332:162,2,116.999994644165,12|12|12,1:2|0:0|1:2,0:0:0:0:
441,79,85401,6,0,L|441:235,1,155.999992858887,4|10,1:3|1:0,0:0:0:0:
363,312,86401,1,2,1:0:0:0:
285,234,86734,2,0,B|268:248|256:284|256:284|244:248|227:234,2,116.999994644165,12|12|12,1:2|0:0|1:2,0:0:0:0:
256,128,88068,6,0,L|113:191,1,155.999992858887,2|10,0:0|1:0,0:0:0:0:
36,269,89068,1,2,1:0:0:0:
113,346,89401,2,0,P|151:355|189:346,1,77.9999964294435,12|8,1:2|1:0,0:0:0:0:
226,307,89901,2,0,P|282:292|338:307,1,116.999994644165,12|12,0:0|1:2,0:0:0:0:
415,384,90734,5,2,0:0:0:0:
492,306,91068,1,2,1:0:0:0:
414,228,91401,2,0,L|469:172,1,77.9999964294435,10|2,1:0|1:0,0:0:0:0:
391,95,92068,2,0,L|335:150,1,77.9999964294435,12|8,1:2|1:0,0:0:0:0:
300,192,92568,2,0,B|272:152|232:152|232:152|197:152,1,116.999994644165,12|12,0:0|1:2,0:0:0:0:
113,81,93401,6,0,P|85:152|113:223,1,155.999992858887,2|10,0:0|1:0,0:0:0:0:
190,300,94401,1,2,1:0:0:0:
267,222,94734,2,0,B|306:222|306:222|333:249,1,77.9999964294435,12|8,1:2|1:0,0:0:0:0:
372,288,95234,2,0,B|345:236|345:236|372:184,1,116.999994644165,12|12,0:0|1:2,0:0:0:0:
449,106,96068,5,4,1:3:0:0:
371,28,96401,1,2,1:0:0:0:
293,105,96734,2,0,P|256:116|219:105,1,77.9999964294435,10|2,1:0|1:0,0:0:0:0:
141,182,97401,2,0,P|86:165|31:182,2,116.999994644165,12|12|12,1:2|0:0|1:2,0:0:0:0:
218,259,98734,5,2,0:0:0:0:
140,336,99068,1,2,1:0:0:0:
218,259,99401,2,0,L|273:314,1,77.9999964294435,8|2,1:0|1:0,0:0:0:0:
350,236,100068,2,0,B|360:208|387:192|387:192|360:176|350:148,2,116.999994644165,12|12|12,1:2|0:0|1:2,0:0:0:0:
252,192,101401,6,0,L|464:94,1,233.999989288331,2|2,0:0|1:0,0:0:0:0:
387,17,102734,2,0,P|349:8|311:17,1,77.9999964294435,12|8,1:2|1:0,0:0:0:0:
274,56,103234,2,0,P|218:71|162:56,1,116.999994644165,12|12,0:0|1:2,0:0:0:0:
84,133,104068,6,0,B|52:148|36:192|36:192|52:236|84:251,1,155.999992858887,2|8,0:0|1:0,0:0:0:0:
176,192,105068,1,2,1:0:0:0:
268,251,105401,2,0,B|307:251|307:251|339:283,1,77.9999964294435,12|8,1:2|1:0,0:0:0:0:
373,317,105901,2,0,L|414:207,1,116.999994644165,12|12,0:0|1:2,0:0:0:0:
336,130,106734,5,4,1:3:0:0:
256,192,106901,12,4,117401,1:2:0:0:
