osu file format v14

[General]
AudioFilename: toby fox - UNDERTALE Soundtrack - 90 His Theme.mp3
AudioLeadIn: 0
PreviewTime: 64012
Countdown: 0
SampleSet: Soft
StackLeniency: 0.2
Mode: 0
LetterboxInBreaks: 0
EpilepsyWarning: 1
WidescreenStoryboard: 0

[Editor]
Bookmarks: 68,117401
DistanceSpacing: 2
BeatDivisor: 12
GridSize: 4
TimelineZoom: 1.1

[Metadata]
Title:His Theme
TitleUnicode:His Theme
Artist:toby fox
ArtistUnicode:toby fox
Creator:Gero
Version:* SAVE
Source:UNDERTALE
Tags:Chiptune Radiation Soundtrack Frisk the Human Howdy! Flowey the Flower FLOWERY Toriel the Goat Mom Tori Old lady ASGORE'S CLONE Sans the Skeleton Smiley Trashbag Sansy Papyrus the Skeleton THE GREAT PAPYRUS COOL DUDE Undyne the Undying Dr. Alphys Mettaton the Robot HAPPSTABLOOK Asgore Dreemurr the Goat Dad King Fluffybuns KING FLUFFYBOY Mr.Dreamy Gorey Asriel Dreemurr the Goat Son Battle Serial Murderer Chara The True Pacifist Route Happy Ending Track 90 The Underground The Surface * (You're filled with DETERMINATION.) You cannot give up just yet. . . Pippi! Stay determined. . . INTEGRITY PERSEVERANCE KINDNESS JUSTICE PATIENCE BRAVERY DETERMINATION 7 Souls Lost Souls Hopes and Dreams GOD of Hyperdeath Burn in Despair! final form SAVE the World after "SAVE" option appears Hope Dream Struggle the Barrier Fire Magic Chaos Buster Chaos Saber Shocker Breaker Star Blazing Hyper Goner Angel of Death * SAVE HIM 8Bits Indie Game diraimur W h i t e W_h_i_t_e Sekaii Sekai-nyan -Sekai- Cosmolade
BeatmapID:1015853
BeatmapSetID:475469

[Difficulty]
HPDrainRate:7
CircleSize:4.5
OverallDifficulty:7
ApproachRate:8.6
SliderMultiplier:1.8
SliderTickRate:2

[Events]
//Background and Video events
0,0,"BG.jpg",0,0
//Break Periods
//Storyboard Layer 0 (Background)
//Storyboard Layer 1 (Fail)
//Storyboard Layer 2 (Pass)
//Storyboard Layer 3 (Foreground)
//Storyboard Sound Samples

[TimingPoints]
68,666.666666666667,4,2,1,60,1,0
68,-76.9230769230769,4,2,1,60,0,0
64068,-66.6666666666667,4,2,2,80,0,1
74623,-66.6666666666667,4,2,2,80,0,0
74734,-66.6666666666667,4,2,2,80,0,1
85290,-66.6666666666667,4,2,2,80,0,0
85401,-66.6666666666667,4,2,2,80,0,1
95956,-66.6666666666667,4,2,2,80,0,0
96068,-66.6666666666667,4,2,2,80,0,1
106734,-66.6666666666667,4,2,2,70,0,0
108068,-66.6666666666667,4,2,2,60,0,0
109401,-66.6666666666667,4,2,2,50,0,0
110734,-66.6666666666667,4,2,2,40,0,0
112068,-66.6666666666667,4,2,2,30,0,0
113401,-66.6666666666667,4,2,2,20,0,0
114734,-66.6666666666667,4,2,2,15,0,0
116068,-66.6666666666667,4,2,2,10,0,0
117401,-66.6666666666667,4,2,2,5,0,0

[Colours]
Combo1 : 255,45,45
Combo2 : 43,43,255
Combo3 : 242,163,74
Combo4 : 0,255,255
Combo5 : 255,255,36
Combo6 : 87,172,117
Combo7 : 209,62,225
SliderBorder : 172,172,172
SliderTrackOverride : 126,126,126

[HitObjects]
32,192,68,5,2,0:0:0:0:
146,86,290,1,0,0:0:0:0:
146,86,401,2,0,P|183:75|220:86,1,77.9999964294435,2|0,0:0|0:0,0:0:0:0:
330,156,734,2,0,P|293:167|256:156,1,77.9999964294435,2|0,0:0|0:0,0:0:0:0:
220,86,1068,1,2,0:0:0:0:
440,226,1290,1,0,0:0:0:0:
384,281,1401,2,0,L|423:110,2,175.499991966248,8|8|8,0:0|0:0|0:0,0:0:0:0:
256,368,2623,1,0,0:0:0:0:
256,368,2734,6,0,L|238:291,1,77.9999964294435,2|0,0:0|0:0,0:0:0:0:
200,159,3068,2,0,L|183:236,1,77.9999964294435,2|0,0:0|0:0,0:0:0:0:
127,291,3401,1,2,0:0:0:0:
8,192,3623,1,0,0:0:0:0:
8,192,3734,1,2,0:0:0:0:
127,93,3956,1,0,0:0:0:0:
71,37,4068,2,0,L|123:205,2,175.499991966248,8|8|8,0:0|0:0|0:0,0:0:0:0:
220,84,5290,1,0,0:0:0:0:
220,84,5401,6,0,B|256:99|256:99|292:84,1,77.9999964294435,2|0,0:0|0:0,0:0:0:0:
348,140,5734,2,0,B|312:160|312:160|294:192,1,77.9999964294435,2|0,0:0|0:0,0:0:0:0:
217,192,6068,2,0,B|200:160|200:160|164:140,1,77.9999964294435,2|0,0:0|0:0,0:0:0:0:
104,192,6401,1,2,0:0:0:0:
256,356,6623,1,0,0:0:0:0:
324,316,6734,2,0,B|304:280|256:264|256:264|208:280|188:316,2,175.499991966248,8|8|8,0:0|0:0|0:0,0:0:0:0:
408,192,7956,1,0,0:0:0:0:
408,192,8068,6,0,P|419:155|408:118,1,77.9999964294435,2|0,0:0|0:0,0:0:0:0:
324,242,8401,2,0,P|313:279|324:316,1,77.9999964294435,2|0,0:0|0:0,0:0:0:0:
379,371,8734,1,2,0:0:0:0:
232,284,8956,1,0,0:0:0:0:
232,284,9068,2,0,B|192:284|192:284|164:312,1,77.9999964294435,2|0,0:0|0:0,0:0:0:0:
88,328,9401,2,0,B|256:380,2,175.499991966248,8|8|8,0:0|0:0|0:0,0:0:0:0:
164,192,10623,1,0,0:0:0:0:
164,192,10734,6,0,L|129:122,1,77.9999964294435,2|0,0:0|0:0,0:0:0:0:
93,51,11068,2,0,P|130:40|167:51,1,77.9999964294435,2|0,0:0|0:0,0:0:0:0:
348,192,11401,2,0,L|382:122,1,77.9999964294435,2|0,0:0|0:0,0:0:0:0:
419,51,11735,2,0,P|382:40|345:51,1,77.9999964294435,2|0,0:0|0:0,0:0:0:0:
256,108,12068,2,0,B|232:148|252:188|256:192|260:196|279:234|256:276,2,175.499991966248,8|8|8,0:0|0:0|0:0,0:0:0:0:
92,220,13290,1,0,0:0:0:0:
92,220,13401,6,0,L|168:236,1,77.9999964294435,2|0,0:0|0:0,0:0:0:0:
420,164,13734,2,0,L|344:148,1,77.9999964294435,2|0,0:0|0:0,0:0:0:0:
132,200,14068,2,0,L|208:216,1,77.9999964294435,2|0,0:0|0:0,0:0:0:0:
380,184,14401,2,0,L|304:168,1,77.9999964294435,2|0,0:0|0:0,0:0:0:0:
450,237,14734,2,0,B|422:113|422:113|460:144,2,175.499991966248,8|8|8,0:0|0:0|0:0,0:0:0:0:
340,347,15956,1,0,0:0:0:0:
340,347,16068,6,0,B|312:363|284:347|284:347|264:347,1,77.9999964294435,2|0,0:0|0:0,0:0:0:0:
133,291,16401,2,0,B|161:275|189:291|189:291|209:291,1,77.9999964294435,2|0,0:0|0:0,0:0:0:0:
78,346,16734,2,0,L|61:269,1,77.9999964294435,2|0,0:0|0:0,0:0:0:0:
133,137,17068,2,0,L|116:213,1,77.9999964294435,2|0,0:0|0:0,0:0:0:0:
61,104,17401,2,0,P|131:59|203:102,2,175.499991966248,8|8|8,0:0|0:0|0:0,0:0:0:0:
282,139,18623,1,0,0:0:0:0:
282,139,18734,6,0,P|293:102|282:65,1,77.9999964294435,2|0,0:0|0:0,0:0:0:0:
203,175,19068,2,0,P|192:212|203:249,1,77.9999964294435,2|0,0:0|0:0,0:0:0:0:
300,156,19401,2,0,P|311:119|300:82,1,77.9999964294435,2|0,0:0|0:0,0:0:0:0:
221,192,19735,2,0,P|210:229|221:266,1,77.9999964294435,2|0,0:0|0:0,0:0:0:0:
284,310,20068,2,0,B|245:262|189:262|189:262|123:262,2,175.499991966248,8|8|8,0:0|0:0|0:0,0:0:0:0:
418,230,21290,1,0,0:0:0:0:
418,230,21401,6,0,B|409:192|409:192|418:154,1,77.9999964294435,2|0,0:0|0:0,0:0:0:0:
362,23,21734,2,0,B|371:61|371:61|362:99,1,77.9999964294435,2|0,0:0|0:0,0:0:0:0:
306,154,22068,1,2,0:0:0:0:
109,60,22290,1,0,0:0:0:0:
109,60,22401,2,0,P|146:49|183:60,1,77.9999964294435,2|0,0:0|0:0,0:0:0:0:
146,128,22734,2,0,L|21:3,2,175.499991966248,8|8|8,0:0|0:0|0:0,0:0:0:0:
34,238,23956,1,0,0:0:0:0:
34,238,24068,6,0,P|23:275|34:312,1,77.9999964294435,2|0,0:0|0:0,0:0:0:0:
245,229,24401,2,0,P|256:192|245:155,1,77.9999964294435,2|0,0:0|0:0,0:0:0:0:
189,99,24735,1,2,0:0:0:0:
340,192,24956,1,0,0:0:0:0:
340,192,25068,2,0,B|368:192|368:192|376:188|376:188|376:196|376:196|384:192|384:192|408:192,1,77.9999964294435,2|0,0:0|0:0,0:0:0:0:
452,256,25401,2,0,B|496:236|507:192|507:192|496:148|452:128,2,175.499991966248,8|8|8,0:0|0:0|0:0,0:0:0:0:
284,320,26623,1,0,0:0:0:0:
284,320,26734,6,0,B|256:292|256:292|217:292,1,77.9999964294435,2|0,0:0|0:0,0:0:0:0:
311,164,27068,2,0,B|339:192|339:192|378:192,1,77.9999964294435,2|0,0:0|0:0,0:0:0:0:
276,336,27401,2,0,B|248:308|248:308|209:308,1,77.9999964294435,2|0,0:0|0:0,0:0:0:0:
320,148,27735,2,0,B|348:176|348:176|387:176,1,77.9999964294435,2|0,0:0|0:0,0:0:0:0:
264,227,28068,2,0,L|139:102,2,175.499991966248,8|8|8,0:0|0:0|0:0,0:0:0:0:
373,337,29290,1,0,0:0:0:0:
373,337,29401,6,0,P|410:348|447:337,1,77.9999964294435,2|0,0:0|0:0,0:0:0:0:
430,194,29734,2,0,L|410:270,1,77.9999964294435,2|0,0:0|0:0,0:0:0:0:
139,337,30068,2,0,P|102:348|65:337,1,77.9999964294435,2|0,0:0|0:0,0:0:0:0:
82,194,30401,2,0,L|102:270,1,77.9999964294435,2|0,0:0|0:0,0:0:0:0:
172,232,30734,2,0,B|220:244|256:220|256:220|292:244|340:232,2,175.499991966248,8|8|8,0:0|0:0|0:0,0:0:0:0:
256,364,31956,1,0,0:0:0:0:
256,364,32068,5,2,0:0:0:0:
380,156,32290,1,0,0:0:0:0:
380,156,32401,2,0,B|392:119|392:119|380:82,1,77.9999964294435,2|0,0:0|0:0,0:0:0:0:
292,4,32734,2,0,B|272:4|256:17|256:17|240:4|220:4,1,77.9999964294435,2|0,0:0|0:0,0:0:0:0:
132,82,33068,2,0,B|120:119|120:119|132:156,1,77.9999964294435,2|0,0:0|0:0,0:0:0:0:
176,256,33401,2,0,P|256:287|336:256,2,175.499991966248,8|8|8,0:0|0:0|0:0,0:0:0:0:
220,108,34623,1,0,0:0:0:0:
220,108,34734,6,0,B|240:108|256:95|256:95|272:108|292:108,1,77.9999964294435,2|0,0:0|0:0,0:0:0:0:
419,52,35068,2,0,B|399:52|383:65|383:65|367:52|347:52,1,77.9999964294435,2|0,0:0|0:0,0:0:0:0:
492,20,35401,2,0,L|481:97,1,77.9999964294435,2|0,0:0|0:0,0:0:0:0:
435,229,35734,2,0,L|425:152,1,77.9999964294435,2|0,0:0|0:0,0:0:0:0:
507,264,36068,2,0,P|434:306|362:264,2,175.499991966248,8|8|8,0:0|0:0|0:0,0:0:0:0:
293,340,37290,1,0,0:0:0:0:
293,340,37401,6,0,P|256:329|219:340,1,77.9999964294435,2|0,0:0|0:0,0:0:0:0:
90,284,37734,2,0,P|127:294|164:284,1,77.9999964294435,2|0,0:0|0:0,0:0:0:0:
293,228,38068,2,0,P|256:217|219:228,1,77.9999964294435,2|0,0:0|0:0,0:0:0:0:
90,172,38401,2,0,P|127:182|164:172,1,77.9999964294435,2|0,0:0|0:0,0:0:0:0:
35,117,38734,2,0,L|90:284,2,175.499991966248,8|8|8,0:0|0:0|0:0,0:0:0:0:
145,6,39956,1,0,0:0:0:0:
145,6,40068,6,0,L|169:79,1,77.9999964294435,2|0,0:0|0:0,0:0:0:0:
225,135,40401,2,0,L|200:208,1,77.9999964294435,2|0,0:0|0:0,0:0:0:0:
256,264,40734,1,2,0:0:0:0:
366,374,40956,1,0,0:0:0:0:
366,374,41068,2,0,P|403:384|440:374,1,77.9999964294435,2|0,0:0|0:0,0:0:0:0:
403,308,41401,2,0,B|365:284|317:302|299:335|299:335|239:335,2,175.499991966248,8|8|8,0:0|0:0|0:0,0:0:0:0:
508,192,42623,1,0,0:0:0:0:
508,192,42734,6,0,B|508:160|508:160|512:152|512:152|512:114,1,77.9999964294435,2|0,0:0|0:0,0:0:0:0:
444,2,43068,2,0,B|444:34|444:34|440:42|440:42|440:80,1,77.9999964294435,2|0,0:0|0:0,0:0:0:0:
372,192,43401,2,0,B|372:160|372:160|368:152|368:152|368:114,1,77.9999964294435,2|0,0:0|0:0,0:0:0:0:
296,80,43734,1,2,0:0:0:0:
188,192,43956,1,0,0:0:0:0:
136,132,44068,2,0,B|120:176|76:192|76:192|120:208|136:252,2,175.499991966248,8|8|8,0:0|0:0|0:0,0:0:0:0:
280,192,45290,1,0,0:0:0:0:
280,192,45401,6,0,L|353:219,1,77.9999964294435,2|0,0:0|0:0,0:0:0:0:
209,279,45734,2,0,L|136:252,1,77.9999964294435,2|0,0:0|0:0,0:0:0:0:
296,216,46068,2,0,L|369:243,1,77.9999964294435,2|0,0:0|0:0,0:0:0:0:
225,303,46401,2,0,L|151:275,1,77.9999964294435,2|0,0:0|0:0,0:0:0:0:
48,192,46734,2,0,B|38:151|38:151|28:108|52:56|100:48,2,175.499991966248,8|8|8,0:0|0:0|0:0,0:0:0:0:
176,284,47956,1,0,0:0:0:0:
176,284,48068,6,0,L|158:207,1,77.9999964294435,2|0,0:0|0:0,0:0:0:0:
336,284,48401,2,0,L|353:207,1,77.9999964294435,2|0,0:0|0:0,0:0:0:0:
196,256,48734,2,0,L|178:179,1,77.9999964294435,2|0,0:0|0:0,0:0:0:0:
316,256,49068,2,0,L|333:179,1,77.9999964294435,2|0,0:0|0:0,0:0:0:0:
332,84,49401,2,0,B|288:84|256:122|256:122|224:84|180:84,2,175.499991966248,8|8|8,0:0|0:0|0:0,0:0:0:0:
468,16,50623,1,0,0:0:0:0:
468,16,50734,6,0,P|496:41|508:78,1,77.9999964294435,2|0,0:0|0:0,0:0:0:0:
389,147,51068,2,0,P|400:110|429:85,1,77.9999964294435,2|0,0:0|0:0,0:0:0:0:
469,155,51401,1,2,0:0:0:0:
358,265,51623,1,0,0:0:0:0:
358,265,51734,2,0,B|345:302|345:302|358:339,1,77.9999964294435,2|0,0:0|0:0,0:0:0:0:
428,302,52068,2,0,L|272:221,2,175.499991966248,8|8|8,0:0|0:0|0:0,0:0:0:0:
44,368,53290,1,0,0:0:0:0:
44,368,53401,6,0,P|16:343|4:306,1,77.9999964294435,2|0,0:0|0:0,0:0:0:0:
123,237,53735,2,0,P|112:274|83:299,1,77.9999964294435,2|0,0:0|0:0,0:0:0:0:
43,229,54068,1,2,0:0:0:0:
154,119,54290,1,0,0:0:0:0:
154,119,54401,2,0,B|167:82|167:82|154:45,1,77.9999964294435,2|0,0:0|0:0,0:0:0:0:
84,82,54735,2,0,L|240:163,2,175.499991966248,8|8|8,0:0|0:0|0:0,0:0:0:0:
260,24,55956,1,0,0:0:0:0:
260,24,56068,6,0,L|328:60,1,77.9999964294435,2|0,0:0|0:0,0:0:0:0:
383,5,56401,2,0,L|451:41,1,77.9999964294435,2|0,0:0|0:0,0:0:0:0:
506,96,56734,2,0,L|437:59,1,77.9999964294435,2|0,0:0|0:0,0:0:0:0:
383,115,57067,2,0,L|314:78,1,77.9999964294435,2|0,0:0|0:0,0:0:0:0:
256,132,57401,2,0,B|216:156|176:136|172:132|168:128|130:109|88:132,2,175.499991966248,8|8|8,0:0|0:0|0:0,0:0:0:0:
400,192,58623,1,0,0:0:0:0:
400,192,58734,5,2,0:0:0:0:
256,252,58957,1,0,0:0:0:0:
256,252,59068,1,2,0:0:0:0:
112,192,59290,1,0,0:0:0:0:
112,192,59401,1,2,0:0:0:0:
256,132,59623,1,0,0:0:0:0:
256,132,59734,1,2,0:0:0:0:
400,192,59956,1,0,0:0:0:0:
455,136,60068,2,0,B|432:212|432:212|432:232|432:232|408:305,2,175.499991966248,8|8|8,0:0|0:0|0:0,0:0:0:0:
294,44,61290,1,0,0:0:0:0:
294,44,61401,6,0,B|256:35|256:35|218:44,1,77.9999964294435,2|0,0:0|0:0,0:0:0:0:
87,99,61734,2,0,B|125:108|125:108|163:99,1,77.9999964294435,2|0,0:0|0:0,0:0:0:0:
294,154,62068,2,0,B|256:145|256:145|218:154,1,77.9999964294435,2|0,0:0|0:0,0:0:0:0:
87,209,62401,2,0,B|125:218|125:218|163:209,1,77.9999964294435,2|0,0:0|0:0,0:0:0:0:
15,154,62734,2,0,L|71:322,2,175.499991966248,8|8|8,0:0|0:0|0:0,0:0:0:0:
124,40,63956,1,0,0:0:0:0:
124,40,64068,6,0,L|144:104,1,67.5000025749208,4|2,1:3|0:0,0:0:0:0:
256,192,64401,2,0,L|270:149,2,45.0000017166138,2|2|2,1:0|1:0|1:0,0:0:0:0:
319,255,64734,2,0,P|361:269|403:255,1,90.0000034332277,10|2,1:0|0:0,0:0:0:0:
468,192,65068,1,2,1:0:0:0:
455,179,65179,1,2,1:0:0:0:
442,166,65290,1,2,1:0:0:0:
429,153,65401,6,0,L|456:67,1,90.0000034332277,12|2,1:2|0:0,0:0:0:0:
364,88,65734,2,0,P|331:95|298:88,1,67.5000025749208,8|12,1:0|0:0,0:0:0:0:
149,128,66068,1,2,1:0:0:0:
149,128,66179,2,0,P|171:124|193:129,1,45.0000017166138,2|2,1:0|1:0,0:0:0:0:
256,192,66401,1,12,1:2:0:0:
128,319,66623,1,0,0:0:0:0:
128,319,66734,6,0,B|96:330|96:330|64:319,1,67.5000025749208,2|2,0:0|0:0,0:0:0:0:
234,264,67068,2,0,B|256:259|256:259|278:264,2,45.0000017166138,2|2|2,1:0|1:0|1:0,0:0:0:0:
332,192,67401,2,0,P|374:206|416:192,1,90.0000034332277,10|2,1:0|0:0,0:0:0:0:
479,128,67734,1,2,1:0:0:0:
466,115,67845,1,2,1:0:0:0:
453,102,67956,1,2,1:0:0:0:
440,89,68068,6,0,L|351:73,1,90.0000034332277,12|2,1:2|0:0,0:0:0:0:
272,120,68401,2,0,L|205:108,1,67.5000025749208,8|12,1:0|0:0,0:0:0:0:
85,170,68734,1,2,1:0:0:0:
85,170,68845,2,0,P|81:192|85:214,1,45.0000017166138,2|2,1:0|1:0,0:0:0:0:
128,290,69068,2,0,P|85:302|42:290,1,90.0000034332277,12|0,1:2|0:0,0:0:0:0:
170,214,69401,6,0,B|202:203|202:203|234:214,1,67.5000025749208,2|2,0:0|0:0,0:0:0:0:
371,309,69734,2,0,B|350:317|350:317|329:309,2,45.0000017166138,2|2|2,1:0|1:0|1:0,0:0:0:0:
460,288,70068,2,0,L|438:375,1,90.0000034332277,10|2,1:0|0:0,0:0:0:0:
350,231,70401,1,2,1:0:0:0:
350,231,70512,2,0,L|361:187,1,45.0000017166138,2|2,1:0|1:0,0:0:0:0:
389,103,70734,6,0,B|357:91|325:107|325:107|301:107,1,90.0000034332277,12|2,1:2|0:0,0:0:0:0:
215,77,71068,2,0,B|215:95|202:107|202:107|215:119|215:137,1,67.5000025749208,8|12,1:0|0:0,0:0:0:0:
124,213,71401,2,0,B|132:192|132:192|124:171,1,45.0000017166138,2|2,1:0|1:0,0:0:0:0:
36,192,71623,1,2,1:0:0:0:
36,192,71734,2,0,L|59:278,1,90.0000034332277,12|0,1:2|0:0,0:0:0:0:
205,343,72068,6,0,L|188:278,1,67.5000025749208,2|2,0:0|0:0,0:0:0:0:
277,176,72401,1,2,1:0:0:0:
281,194,72512,1,2,1:0:0:0:
285,210,72623,1,2,1:0:0:0:
291,228,72734,2,0,B|315:228|331:246|331:246|347:228|371:228,1,90.0000034332277,10|2,1:0|0:0,0:0:0:0:
434,292,73068,2,0,L|465:323,2,45.0000017166138,2|2|2,1:0|1:0|1:0,0:0:0:0:
497,228,73401,6,0,P|506:195|496:163,1,67.5000025749208,12|2,1:2|0:0,0:0:0:0:
400,71,73734,2,0,P|391:103|400:135,1,67.5000025749208,8|12,1:0|0:0,0:0:0:0:
496,43,74068,1,2,1:0:0:0:
483,31,74179,1,2,1:0:0:0:
470,19,74290,1,2,1:0:0:0:
457,7,74401,2,0,L|369:-8,1,90.0000034332277,12|0,1:2|0:0,0:0:0:0:
225,24,74734,6,0,L|292:36,1,67.5000025749208,4|2,1:3|0:0,0:0:0:0:
161,88,75068,2,0,L|116:80,2,45.0000017166138,2|2|2,1:0|1:0|1:0,0:0:0:0:
224,151,75401,2,0,P|238:193|224:235,1,90.0000034332277,10|2,1:0|0:0,0:0:0:0:
160,298,75734,1,2,1:0:0:0:
147,310,75845,1,2,1:0:0:0:
134,322,75956,1,2,1:0:0:0:
121,334,76068,6,0,B|166:334|166:334|197:365,1,90.0000034332277,12|2,1:2|0:0,0:0:0:0:
303,343,76401,2,0,L|256:296,1,67.5000025749208,8|12,1:0|0:0,0:0:0:0:
408,320,76734,2,0,L|439:351,2,45.0000017166138,2|2|2,1:0|1:0|1:0,0:0:0:0:
343,255,77068,2,0,B|339:217|363:194|363:194|379:177,1,90.0000034332277,12|0,1:2|0:0,0:0:0:0:
362,65,77401,6,0,L|315:113,1,67.5000025749208,2|2,0:0|0:0,0:0:0:0:
187,48,77734,2,0,L|219:17,2,45.0000017166138,2|2|2,1:0|1:0|1:0,0:0:0:0:
123,112,78068,2,0,B|103:152|103:152|123:192,1,90.0000034332277,10|2,1:0|0:0,0:0:0:0:
186,256,78401,1,2,1:0:0:0:
199,269,78512,1,2,1:0:0:0:
212,282,78623,1,2,1:0:0:0:
225,295,78734,6,0,L|198:381,1,90.0000034332277,12|2,1:2|0:0,0:0:0:0:
290,360,79067,2,0,P|323:353|356:360,1,67.5000025749208,8|12,1:0|0:0,0:0:0:0:
451,263,79401,1,2,1:0:0:0:
451,263,79512,2,0,P|429:267|407:262,1,45.0000017166138,2|2,1:0|1:0,0:0:0:0:
352,192,79734,1,12,1:2:0:0:
479,64,79956,1,0,0:0:0:0:
479,64,80068,6,0,P|488:96|479:128,1,67.5000025749208,2|2,0:0|0:0,0:0:0:0:
352,192,80401,1,2,1:0:0:0:
334,192,80512,1,2,1:0:0:0:
316,192,80623,1,2,1:0:0:0:
298,192,80734,2,0,L|341:270,1,90.0000034332277,10|2,1:0|0:0,0:0:0:0:
214,192,81068,2,0,L|192:232,2,45.0000017166138,2|2|2,1:0|1:0|1:0,0:0:0:0:
256,112,81401,6,0,L|256:22,1,90.0000034332277,12|2,1:2|0:0,0:0:0:0:
176,67,81734,2,0,B|161:67|145:79|145:79|129:67|114:67,1,67.5000025749208,8|12,1:0|0:0,0:0:0:0:
17,163,82068,1,2,1:0:0:0:
17,163,82179,2,0,B|37:153|37:153|57:163,1,45.0000017166138,2|2,1:0|1:0,0:0:0:0:
120,226,82401,1,12,1:2:0:0:
224,372,82623,1,0,0:0:0:0:
224,372,82734,6,0,B|256:361|256:361|288:372,1,67.5000025749208,2|2,0:0|0:0,0:0:0:0:
434,241,83068,2,0,L|392:226,2,45.0000017166138,2|2|2,1:0|1:0|1:0,0:0:0:0:
497,305,83401,2,0,L|409:333,1,90.0000034332277,10|2,1:0|0:0,0:0:0:0:
275,314,83734,1,2,1:0:0:0:
293,307,83846,1,2,1:0:0:0:
310,300,83957,1,2,1:0:0:0:
328,296,84068,6,0,B|328:272|328:272|324:260|324:260|324:229,1,67.5000025749208,12|2,1:2|0:0,0:0:0:0:
184,296,84401,2,0,B|184:272|184:272|188:260|188:260|188:229,1,67.5000025749208,8|12,1:0|0:0,0:0:0:0:
256,112,84734,2,0,L|256:157,2,45.0000017166138,2|2|2,1:0|1:0|1:0,0:0:0:0:
296,32,85068,2,0,B|268:32|256:15|256:15|244:32|216:32,1,90.0000034332277,12|0,1:2|0:0,0:0:0:0:
88,112,85401,6,0,L|109:176,1,67.5000025749208,4|2,1:3|0:0,0:0:0:0:
184,296,85734,2,0,L|198:253,2,45.0000017166138,2|2|2,1:0|1:0|1:0,0:0:0:0:
142,375,86067,2,0,P|184:389|226:375,1,90.0000034332277,10|2,1:0|0:0,0:0:0:0:
293,307,86401,1,2,1:0:0:0:
306,294,86512,1,2,1:0:0:0:
319,281,86623,1,2,1:0:0:0:
332,268,86734,6,0,L|305:182,1,90.0000034332277,12|2,1:2|0:0,0:0:0:0:
368,118,87067,2,0,P|401:111|434:118,1,67.5000025749208,8|12,1:0|0:0,0:0:0:0:
306,54,87401,1,2,1:0:0:0:
306,54,87512,2,0,P|284:58|262:53,1,45.0000017166138,2|2,1:0|1:0,0:0:0:0:
184,8,87734,1,12,1:2:0:0:
88,160,87956,1,0,0:0:0:0:
88,160,88067,6,0,B|77:192|77:192|88:224,1,67.5000025749208,2|2,0:0|0:0,0:0:0:0:
214,274,88401,2,0,B|219:252|219:252|214:230,2,45.0000017166138,2|2|2,1:0|1:0|1:0,0:0:0:0:
172,355,88734,2,0,P|214:369|256:355,1,90.0000034332277,10|2,1:0|0:0,0:0:0:0:
298,274,89067,1,2,1:0:0:0:
307,256,89178,1,2,1:0:0:0:
315,239,89289,1,2,1:0:0:0:
323,223,89401,6,0,L|402:265,1,90.0000034332277,12|2,1:2|0:0,0:0:0:0:
511,159,89734,2,0,L|452:192,1,67.5000025749208,8|12,1:0|0:0,0:0:0:0:
332,304,90067,1,2,1:0:0:0:
332,304,90178,2,0,P|328:326|332:348,1,45.0000017166138,2|2,1:0|1:0,0:0:0:0:
419,326,90401,1,12,1:2:0:0:
256,228,90623,1,0,0:0:0:0:
256,228,90734,6,0,B|224:217|224:217|192:228,1,67.5000025749208,2|2,0:0|0:0,0:0:0:0:
323,162,91067,2,0,B|344:170|344:170|365:162,2,45.0000017166138,2|2|2,1:0|1:0|1:0,0:0:0:0:
234,141,91401,2,0,L|256:228,1,90.0000034332277,10|2,1:0|0:0,0:0:0:0:
344,84,91734,1,2,1:0:0:0:
344,84,91845,2,0,L|333:40,1,45.0000017166138,2|2,1:0|1:0,0:0:0:0:
256,112,92068,6,0,L|278:199,1,90.0000034332277,12|2,1:2|0:0,0:0:0:0:
332,304,92401,2,0,B|348:238,1,67.5000025749208,8|12,1:0|0:0,0:0:0:0:
204,172,92734,1,2,1:0:0:0:
204,172,92845,2,0,B|182:167|182:167|160:172,1,45.0000017166138,2|2,1:0|1:0,0:0:0:0:
95,107,93068,1,12,1:2:0:0:
20,268,93290,1,0,0:0:0:0:
20,268,93401,6,0,L|53:326,1,67.5000025749208,2|2,0:0|0:0,0:0:0:0:
187,269,93734,1,2,1:0:0:0:
195,284,93845,1,2,1:0:0:0:
203,298,93956,1,2,1:0:0:0:
214,314,94068,2,0,P|256:328|298:314,1,90.0000034332277,10|2,1:0|0:0,0:0:0:0:
361,250,94401,2,0,B|382:242|382:242|403:250,2,45.0000017166138,2|2|2,1:0|1:0|1:0,0:0:0:0:
308,172,94734,6,0,L|339:112,1,67.5000025749208,12|2,1:2|0:0,0:0:0:0:
204,172,95068,2,0,L|172:112,1,67.5000025749208,8|12,1:0|0:0,0:0:0:0:
256,40,95401,1,2,1:0:0:0:
256,57,95512,1,2,1:0:0:0:
256,74,95623,1,2,1:0:0:0:
256,92,95734,2,0,B|256:124|256:124|260:132|260:132|252:132|252:132|256:140|256:140|256:172,1,90.0000034332277,12|0,1:2|0:0,0:0:0:0:
288,258,96067,6,0,P|256:267|224:258,1,67.5000025749208,4|2,1:3|0:0,0:0:0:0:
104,192,96401,2,0,L|118:149,2,45.0000017166138,2|2|2,1:0|1:0|1:0,0:0:0:0:
40,255,96734,2,0,L|68:340,1,90.0000034332277,10|2,1:0|0:0,0:0:0:0:
184,376,97067,1,2,1:0:0:0:
178,360,97178,1,2,1:0:0:0:
172,344,97289,1,2,1:0:0:0:
165,327,97401,6,0,B|249:357,1,90.0000034332277,12|2,1:2|0:0,0:0:0:0:
376,316,97734,2,0,L|313:294,1,67.5000025749208,8|12,1:0|0:0,0:0:0:0:
440,248,98068,2,0,L|482:262,2,45.0000017166138,2|2|2,1:0|1:0|1:0,0:0:0:0:
377,179,98401,2,0,P|363:137|377:95,1,90.0000034332277,12|0,1:2|0:0,0:0:0:0:
464,11,98734,6,0,P|473:43|464:76,1,67.5000025749208,2|2,0:0|0:0,0:0:0:0:
342,137,99067,2,0,L|303:113,2,45.0000017166138,2|2|2,1:0|1:0|1:0,0:0:0:0:
236,84,99401,2,0,B|313:37,1,90.0000034332277,8|2,1:0|0:0,0:0:0:0:
244,156,99734,1,2,1:0:0:0:
229,166,99845,1,2,1:0:0:0:
213,174,99956,1,2,1:0:0:0:
197,183,100068,6,0,B|197:210|213:224|213:224|197:238|197:265,1,90.0000034332277,12|2,1:2|0:0,0:0:0:0:
117,223,100401,2,0,B|117:203|109:191|109:191|117:179|117:159,1,67.5000025749208,8|12,1:0|0:0,0:0:0:0:
264,272,100734,1,2,1:0:0:0:
264,272,100845,2,0,P|268:294|264:316,1,45.0000017166138,2|2,1:0|1:0,0:0:0:0:
193,371,101067,1,12,1:2:0:0:
355,294,101289,1,0,0:0:0:0:
355,294,101401,6,0,B|389:294|389:294|416:321,1,67.5000025749208,2|2,0:0|0:0,0:0:0:0:
508,222,101734,1,2,1:0:0:0:
494,207,101845,1,2,1:0:0:0:
483,194,101956,1,2,1:0:0:0:
470,180,102067,2,0,L|505:97,1,90.0000034332277,8|2,1:0|0:0,0:0:0:0:
405,115,102401,2,0,L|388:157,2,45.0000017166138,2|2|2,1:0|1:0|1:0,0:0:0:0:
336,48,102734,6,0,B|308:48|308:48|276:48|256:76,1,90.0000034332277,12|2,1:2|0:0,0:0:0:0:
171,107,103067,2,0,B|171:92|159:76|159:76|171:60|171:45,1,67.5000025749208,8|12,1:0|0:0,0:0:0:0:
88,152,103401,1,2,1:0:0:0:
88,152,103512,2,0,B|98:172|98:172|88:192,1,45.0000017166138,2|2,1:0|1:0,0:0:0:0:
40,268,103734,1,12,1:2:0:0:
224,352,103956,1,0,0:0:0:0:
224,352,104067,6,0,B|256:341|256:341|288:352,1,67.5000025749208,2|2,0:0|0:0,0:0:0:0:
430,253,104401,2,0,L|472:268,2,45.0000017166138,2|2|2,1:0|1:0|1:0,0:0:0:0:
366,189,104734,2,0,L|393:103,1,90.0000034332277,8|2,1:0|0:0,0:0:0:0:
302,252,105067,1,2,1:0:0:0:
309,270,105179,1,2,1:0:0:0:
316,287,105290,1,2,1:0:0:0:
320,305,105401,6,0,B|344:305|344:305|356:309|356:309|387:309,1,67.5000025749208,12|2,1:2|0:0,0:0:0:0:
192,305,105734,2,0,B|168:305|168:305|156:309|156:309|125:309,1,67.5000025749208,8|12,1:0|0:0,0:0:0:0:
256,204,106067,2,0,L|256:249,2,45.0000017166138,2|2|2,1:0|1:0|1:0,0:0:0:0:
292,120,106401,2,0,B|280:104|256:94|256:94|232:104|220:120,1,90.0000034332277,12|0,1:2|0:0,0:0:0:0:
256,204,106734,5,4,1:3:0:0:
256,192,106845,12,4,117401,1:2:0:0:
