osu file format v14

[General]
AudioFilename: Undertale Ost 076 - Bergentrckung.mp3
AudioLeadIn: 0
PreviewTime: 20
Countdown: 0
SampleSet: Soft
StackLeniency: 0.6
Mode: 0
LetterboxInBreaks: 0
WidescreenStoryboard: 0

[Editor]
Bookmarks: 12753,29744
DistanceSpacing: 1.1
BeatDivisor: 1
GridSize: 8
TimelineZoom: 0.7999994

[Metadata]
Title:Bergentrueckung
TitleUnicode:Bergentrückung
Artist:toby fox
ArtistUnicode:toby fox
Creator:Mazziv
Version:Normal
Source:Undertale
Tags:king under the mountain radiation Asgore boss battle theme determination -Lemons
BeatmapID:867512
BeatmapSetID:398977

[Difficulty]
HPDrainRate:3
CircleSize:4
OverallDifficulty:4
ApproachRate:5
SliderMultiplier:1.4
SliderTickRate:1

[Events]
//Background and Video events
0,0,"tumblr_ny8kg6JSq81utwpnho1_1280.jpg",0,0
//Break Periods
//Storyboard Layer 0 (Background)
//Storyboard Layer 1 (Fail)
//Storyboard Layer 2 (Pass)
//Storyboard Layer 3 (Foreground)
//Storyboard Sound Samples

[TimingPoints]
20,530.973451327434,4,2,0,30,1,0
6391,-100,4,2,0,30,0,0
7453,-100,4,2,0,30,0,0
14887,-100,4,2,0,30,0,0
15949,-100,4,2,0,30,0,0
23382,-100,4,2,0,30,0,0
24444,-100,4,2,0,30,0,0
32940,-100,4,2,0,30,0,0
34002,-100,4,2,1,5,0,0

[Colours]
Combo1 : 255,0,0
Combo2 : 51,236,251
Combo3 : 0,0,255
Combo4 : 128,0,255
Combo5 : 248,166,54
Combo6 : 255,255,0
Combo7 : 0,255,0
SliderBorder: 255,255,255

[HitObjects]
352,288,20,5,2,0:0:0:0:
320,136,550,1,0,0:0:0:0:
200,232,1081,2,2,B|150:155|219:138|152:80,1,140,2|0,2:0|0:0,2:1:0:0:
40,16,2143,5,2,0:0:0:0:
48,168,2674,1,0,0:0:0:0:
192,112,3205,2,2,B|232:112|232:112|280:160|280:160|320:160,1,140,2|0,2:0|2:0,2:1:0:0:
464,160,4267,5,2,0:0:0:0:
384,288,4798,1,0,0:0:0:0:
240,208,5329,2,0,P|192:176|168:144,1,70
224,104,5860,2,0,P|254:120|280:144,1,70
328,208,6391,5,2,0:0:0:0:
391,253,6657,1,2,0:0:0:0:
453,208,6922,1,2,0:0:0:0:
429,134,7188,1,2,0:0:0:0:
352,128,7453,2,2,P|280:120|216:72,1,140,2|0,2:0|0:1,2:1:0:0:
224,240,8515,5,2,0:0:0:0:
88,176,9046,1,0,0:0:0:0:
152,320,9577,2,2,P|240:336|312:304,1,140,2|0,2:0|0:0,2:1:0:0:
432,272,10639,5,2,0:0:0:0:
320,168,11170,1,0,0:0:0:0:
207,279,11701,2,2,P|160:228|154:159,1,140,2|0,2:0|0:0,2:1:0:0:
192,8,12763,5,2,0:0:0:0:
154,161,13294,1,0,0:0:0:0:
264,264,13825,2,0,P|288:289|322:298,1,70
344,224,14356,2,0,P|321:199|288:191,1,70
216,208,14887,5,2,0:0:0:0:
149,245,15152,1,2,0:0:0:0:
92,193,15418,1,2,0:0:0:0:
124,123,15683,1,2,0:0:0:0:
200,120,15949,2,2,P|272:144|360:120,1,140,2|0,2:0|0:0,2:1:0:0:
488,112,17011,5,2,0:0:0:0:
400,240,17542,1,0,0:0:0:0:
338,94,18073,2,2,P|269:91|211:130,1,140,2|0,2:0|0:0,2:1:0:0:
152,272,19135,5,2,0:0:0:0:
304,256,19666,1,0,0:0:0:0:
211,129,20196,2,2,B|251:113|251:113|283:65|283:65|323:49,1,140,2|0,2:0|0:0,2:1:0:0:
352,208,21258,5,2,0:0:0:0:
216,136,21789,1,0,0:0:0:0:
176,288,22320,2,0,P|173:322|185:355,1,70
264,352,22851,2,0,P|266:317|254:284,1,70
232,208,23382,5,2,0:0:0:0:
231,130,23648,1,2,0:0:0:0:
305,106,23913,1,2,0:0:0:0:
350,169,24179,1,2,0:0:0:0:
305,231,24444,2,2,B|312:272|368:296|368:296|423:259,1,140,2|0,2:0|2:1,2:1:0:0:
512,160,25506,53,2,3:2:0:0:
360,128,26037,1,0,3:2:0:0:
405,270,26568,2,2,B|359:223|319:271|263:207,1,140,2|0,3:2|2:2,2:1:0:0:
152,136,27630,5,2,3:2:0:0:
288,72,28161,1,0,3:2:0:0:
312,224,28692,2,2,P|386:194|418:138,1,140,2|0,3:2|2:2,2:1:0:0:
472,0,29754,37,2,0:0:0:0:
400,16,30020,1,2,0:0:0:0:
328,40,30285,2,0,P|297:57|275:84,2,70,2|2|2,2:0|0:0|2:0,0:0:0:0:
480,80,31347,1,2,0:0:0:0:
368,192,31878,5,2,0:0:0:0:
304,240,32143,1,2,0:0:0:0:
288,160,32409,2,0,P|264:144|216:128,1,70,2|2,0:0|0:0,0:0:0:0:
256,192,32940,12,0,34002,0:0:0:0:
