osu file format v14

[General]
AudioFilename: Undertale Ost 076 - Bergentrckung.mp3
AudioLeadIn: 0
PreviewTime: 20
Countdown: 0
SampleSet: Soft
StackLeniency: 0.6
Mode: 0
LetterboxInBreaks: 0
WidescreenStoryboard: 1

[Editor]
Bookmarks: 29883
DistanceSpacing: 1
BeatDivisor: 4
GridSize: 8
TimelineZoom: 2.1

[Metadata]
Title:Bergentrueckung
TitleUnicode:Bergentrückung
Artist:toby fox
ArtistUnicode:toby fox
Creator:Mazziv
Version:Checkmate
Source:Undertale
Tags:king under the mountain radiation Asgore boss battle theme determination -Lemons
BeatmapID:872885
BeatmapSetID:398977

[Difficulty]
HPDrainRate:5
CircleSize:4
OverallDifficulty:5.5
ApproachRate:7
SliderMultiplier:1.6
SliderTickRate:1

[Events]
//Background and Video events
0,0,"tumblr_ny8kg6JSq81utwpnho1_1280.jpg",0,0
//Break Periods
//Storyboard Layer 0 (Background)
//Storyboard Layer 1 (Fail)
//Storyboard Layer 2 (Pass)
//Storyboard Layer 3 (Foreground)
//Storyboard Sound Samples

[TimingPoints]
20,530.973451327434,4,2,0,30,1,0
6391,-100,4,2,0,30,0,0
7453,-100,4,2,0,30,0,0
14887,-100,4,2,0,30,0,0
15949,-100,4,2,0,30,0,0
23382,-100,4,2,0,30,0,0
24444,-100,4,2,0,30,0,0
32940,-100,4,2,0,30,0,0
34002,-100,4,2,1,5,0,0

[Colours]
Combo1 : 255,0,0
Combo2 : 51,236,251
Combo3 : 0,0,255
Combo4 : 128,0,255
Combo5 : 248,166,54
Combo6 : 255,255,0
Combo7 : 0,255,0
SliderBorder : 255,255,255

[HitObjects]
128,104,20,5,2,0:0:0:0:
208,240,550,1,0,0:0:0:0:
304,112,1081,2,2,P|360:80|400:208,1,240,2|0,0:0|0:0,0:0:0:0:
352,264,2143,1,2,0:0:0:0:
216,352,2674,1,0,0:0:0:0:
64,312,3205,2,2,P|8:208|48:80,1,240,2|0,0:0|0:0,0:0:0:0:
96,40,4267,5,2,0:0:0:0:
240,120,4798,1,0,0:0:0:0:
384,48,5329,1,2,0:0:0:0:
411,167,5594,1,0,0:0:0:0:
318,86,5860,1,2,0:0:0:0:
440,97,6126,1,0,0:0:0:0:
335,160,6391,6,0,P|320:224|320:256,1,80,2|0,0:0|0:0,0:0:0:0:
336,320,6922,2,0,P|304:320|264:297,1,80
208,216,7453,2,2,P|123:144|64:232,1,240,2|0,0:0|0:0,0:0:0:0:
136,216,8515,5,2,0:0:0:0:
208,72,9046,1,0,0:0:0:0:
320,192,9577,2,2,B|336:240|384:248|384:248|432:200|432:200|472:224|480:272,1,240,2|0,0:0|0:0,0:0:0:0:
480,344,10639,1,2,0:0:0:0:
320,320,11170,1,0,0:0:0:0:
168,368,11701,2,2,P|80:280|104:168,1,240,2|0,0:0|0:0,0:0:0:0:
136,104,12763,5,2,0:0:0:0:
200,248,13294,1,0,0:0:0:0:
264,96,13825,1,2,0:0:0:0:
336,56,14090,1,0,0:0:0:0:
448,136,14356,1,2,0:0:0:0:
376,176,14621,1,0,0:0:0:0:
248,216,14887,6,0,P|286:253|326:258,1,80,2|0,0:0|0:0,0:0:0:0:
424,328,15418,2,0,B|391:350|391:350|336:360,1,80
272,376,15949,2,2,B|229:336|229:336|215:293|215:293|165:303|111:267|115:206,1,240,2|0,0:0|0:0,0:0:0:0:
40,208,17011,21,2,0:0:0:0:
201,209,17542,1,0,0:0:0:0:
160,56,18073,2,2,P|224:40|336:152,1,240,2|0,0:0|0:0,0:0:0:0:
328,232,19135,1,2,0:0:0:0:
456,136,19666,1,0,0:0:0:0:
392,280,20196,2,2,P|287:300|251:192,1,240,2|0,0:0|0:0,0:0:0:0:
272,112,21258,5,2,0:0:0:0:
168,240,21789,1,0,0:0:0:0:
64,120,22320,1,2,0:0:0:0:
96,48,22586,1,0,0:0:0:0:
232,48,22851,1,2,0:0:0:0:
200,120,23117,1,0,0:0:0:0:
128,240,23382,6,0,P|162:258|202:258,1,80
296,160,23913,2,0,P|335:156|369:175,1,80
480,216,24444,2,2,P|388:288|280:248,1,240,2|0,0:0|0:0,0:0:0:0:
224,200,25506,5,2,0:0:0:0:
112,88,26037,1,0,0:0:0:0:
272,56,26568,2,2,B|328:56|368:112|368:112|440:120|464:184,1,240,2|0,0:0|0:0,0:0:0:0:
496,256,27630,1,2,0:0:0:0:
368,344,28161,1,0,0:0:0:0:
208,320,28692,2,2,L|104:296,1,80,2|0,0:0|0:0,0:0:0:0:
16,232,29223,2,2,L|120:208,1,80,2|0,0:0|0:0,0:0:0:0:
168,184,29754,5,2,0:0:0:0:
248,74,30019,1,2,0:0:0:0:
248,210,30285,1,2,0:0:0:0:
168,100,30550,1,2,0:0:0:0:
297,142,30816,2,0,B|344:144|376:168|376:168|376:208|416:248,1,160,2|2,0:0|0:0,0:0:0:0:
272,320,31878,21,2,0:0:0:0:
272,320,32011,1,2,0:0:0:0:
272,320,32143,1,2,0:0:0:0:
216,248,32409,2,0,L|232:160,1,80,2|2,0:0|0:0,0:0:0:0:
256,192,32940,12,0,34002,0:0:0:0:
