osu file format v14

[General]
AudioFilename: Undertale Battle Against A True Hero Dual Mix.mp3
AudioLeadIn: 0
PreviewTime: 18400
Countdown: 0
SampleSet: Normal
StackLeniency: 0.7
Mode: 0
LetterboxInBreaks: 1
EpilepsyWarning: 1
WidescreenStoryboard: 1

[Editor]
Bookmarks: 7200,32800,164800
DistanceSpacing: 1.1
BeatDivisor: 4
GridSize: 4
TimelineZoom: 1.8

[Metadata]
Title:Battle Against A True Hero Dual Mix
TitleUnicode:Battle Against A True Hero Dual Mix
Artist:toby fox
ArtistUnicode:toby fox
Creator:novotrixes
Version:Hard
Source:Undertale
Tags:Undertale, toby fox, Undyne, Ferdk, OST, original soundtrack, remix
BeatmapID:907839
BeatmapSetID:416229

[Difficulty]
HPDrainRate:4
CircleSize:4
OverallDifficulty:5
ApproachRate:6
SliderMultiplier:1.3
SliderTickRate:2

[Events]
//Background and Video events
0,0,"Undyne.jpg",0,0
//Break Periods
//Storyboard Layer 0 (Background)
//Storyboard Layer 1 (Fail)
//Storyboard Layer 2 (Pass)
//Storyboard Layer 3 (Foreground)
//Storyboard Sound Samples

[TimingPoints]
800,400,4,2,1,20,1,0
7200,-100,4,2,1,30,0,0
20000,-76.9230769230769,4,1,1,60,0,1
22600,-76.9230769230769,4,1,2,60,0,1
22700,-76.9230769230769,4,1,1,60,0,1
24200,-76.9230769230769,4,1,2,60,0,1
24300,-76.9230769230769,4,1,1,60,0,1
30600,-76.9230769230769,4,1,2,60,0,1
30700,-76.9230769230769,4,1,1,60,0,1
32600,-100,4,1,1,60,0,0
32800,-76.9230769230769,4,1,1,60,0,1
37000,-76.9230769230769,4,1,2,60,0,1
37100,-76.9230769230769,4,1,1,60,0,1
45600,-100,4,1,1,60,0,0
55700,-100,4,1,2,70,0,0
55900,-100,4,1,1,60,0,0
71200,-76.9230769230769,4,1,1,70,0,1
72200,-76.9230769230769,4,1,2,70,0,1
72300,-76.9230769230769,4,1,1,70,0,1
75400,-76.9230769230769,4,1,2,70,0,1
75500,-76.9230769230769,4,1,1,70,0,1
80200,-76.9230769230769,4,1,2,70,0,1
80300,-76.9230769230769,4,1,1,70,0,1
84000,-100,4,1,1,60,0,0
94100,-100,4,1,2,70,0,0
94300,-100,4,1,1,60,0,0
108000,-100,4,2,1,40,0,0
109600,-181.818181818181,4,2,1,40,0,0
128800,-71.4285714285715,4,1,1,70,0,1
138200,-100,4,1,1,40,0,0
138400,-71.4285714285715,4,1,1,70,0,1
143200,-71.4285714285715,4,1,1,60,0,0
146600,-71.4285714285715,4,1,2,70,0,0
146700,-71.4285714285715,4,1,1,70,0,0
148000,-71.4285714285715,4,1,1,80,0,1
157400,-100,4,1,1,40,0,0
157600,-71.4285714285715,4,1,1,80,0,1
162400,-100,4,1,1,80,0,0
165600,-100,4,1,1,70,0,0
166000,-100,4,1,1,60,0,0
166400,-100,4,1,1,40,0,0
166800,-100,4,1,1,20,0,0
167200,-100,4,1,1,5,0,0

[Colours]
Combo1 : 128,128,255
Combo2 : 91,173,255
Combo3 : 250,78,48
Combo4 : 252,224,93

[HitObjects]
112,48,800,6,0,P|112:104|128:144,1,97.5,4|0,0:0|0:0,0:0:0:0:
240,192,1400,2,0,P|240:128|224:96,1,97.5
160,208,2000,6,0,L|120:264,1,65
155,248,2400,2,0,L|227:152,1,97.5,4|0,0:0|0:0,0:0:0:0:
320,184,3000,2,0,P|384:152|432:152,1,97.5
488,248,3600,2,0,P|432:264|408:256,1,65
343,256,4000,70,0,P|295:253|257:224,1,97.5,4|0,0:0|0:0,0:0:0:0:
184,120,4600,2,0,P|145:91|97:88,1,97.5
8,176,5200,6,0,P|32:200|64:216,1,65
136,248,5600,2,0,P|176:264|216:304,1,97.5,4|0,0:0|0:0,0:0:0:0:
336,328,6200,2,0,P|376:280|384:224,2,97.5
304,160,7200,70,0,B|344:120|344:120|392:96,1,97.5,6|0,0:0|0:0,0:0:0:0:
504,112,7800,2,0,B|464:152|464:152|416:176,1,97.5
304,160,8400,5,4,0:0:0:0:
272,252,8600,1,0,0:0:0:0:
328,344,8800,2,0,P|264:360|216:344,1,97.5,4|0,0:0|0:0,0:0:0:0:
144,264,9400,2,0,P|160:208|208:176,1,97.5
280,96,10000,2,0,L|360:136,1,65,6|0,0:0|0:0,0:0:0:0:
416,152,10400,6,0,P|368:200|312:200,1,97.5,4|0,0:0|0:0,0:0:0:0:
224,256,11000,2,0,B|256:296|256:296|304:320,1,97.5
464,292,11600,5,4,0:0:0:0:
448,216,11800,1,0,0:0:0:0:
448,216,12000,2,0,L|328:248,1,97.5,4|0,0:0|0:0,0:0:0:0:
224,256,12600,2,0,P|176:216|160:168,2,97.5
352,144,13600,6,0,P|400:143|448:120,1,97.5,6|0,0:0|0:0,0:0:0:0:
368,16,14200,2,0,P|319:16|275:36,1,97.5
196,120,14800,5,4,0:0:0:0:
168,192,15000,1,0,0:0:0:0:
88,136,15200,2,0,P|72:208|84:244,1,97.5,4|0,0:0|0:0,0:0:0:0:
200,272,15800,2,0,P|200:320|168:376,1,97.5
72,288,16400,6,0,P|40:280|16:256,1,65,6|0,0:0|0:0,0:0:0:0:
80,200,16800,2,0,P|102:156|139:125,1,97.5,6|0,0:0|0:0,0:0:0:0:
264,128,17400,2,0,P|312:80|328:24,1,97.5
356,164,18000,5,4,0:0:0:0:
448,128,18200,1,0,0:0:0:0:
420,240,18400,2,0,P|376:261|328:259,1,97.5,6|0,0:0|0:0,0:0:0:0:
200,256,19000,2,0,P|144:256|96:288,2,97.5,4|0|0,0:0|0:0|0:0,0:0:0:0:
399,319,20000,6,0,P|419:271|415:219,1,84.4999961318971,6|8,0:0|0:0,0:0:0:0:
396,192,20300,2,0,P|392:136|408:88,1,84.4999961318971
424,64,20600,2,0,P|332:88|232:68,1,168.999992263794,8|8,0:0|0:0,0:0:0:0:
164,48,21200,1,0,0:0:0:0:
80,108,21400,1,8,0:0:0:0:
68,208,21600,6,0,B|116:188|116:188|168:192,1,84.4999961318971,0|8,0:0|0:0,0:0:0:0:
192,236,21900,2,0,P|252:236|284:216,1,84.4999961318971
320,208,22200,2,0,B|352:196|352:196|388:232|456:224,2,126.749994197846,8|0|0,0:0|0:0|0:0,0:0:0:0:
424,128,23000,1,8,0:0:0:0:
356,56,23200,6,0,L|260:36,1,84.4999961318971,0|8,0:0|0:0,0:0:0:0:
224,48,23500,2,0,P|168:52|124:44,1,84.4999961318971
92,28,23800,2,0,P|48:96|52:168,2,126.749994197846,8|0|0,0:0|0:0|0:0,0:0:0:0:
168,124,24600,1,8,0:0:0:0:
192,268,24800,5,4,0:0:0:0:
344,148,25100,1,0,0:0:0:0:
444,264,25400,1,12,0:0:0:0:
284,224,25700,1,0,0:0:0:0:
440,156,26000,1,0,0:0:0:0:
272,44,26400,6,0,P|208:44|168:60,1,84.4999961318971,4|8,0:0|0:0,0:0:0:0:
148,80,26700,2,0,P|80:92|52:84,1,84.4999961318971
20,72,27000,2,0,B|-4:60|-4:60|16:160|-12:220,1,168.999992263794,8|8,0:0|0:0,0:0:0:0:
48,296,27600,1,0,0:0:0:0:
160,320,27800,1,8,0:0:0:0:
240,228,28000,6,0,P|308:196|328:200,1,84.4999961318971,0|8,0:0|0:0,0:0:0:0:
364,212,28300,2,0,P|411:204|436:180,1,84.4999961318971
456,132,28600,2,0,P|448:64|352:16,1,168.999992263794,8|8,0:0|0:0,0:0:0:0:
252,48,29200,1,0,0:0:0:0:
136,24,29400,1,8,0:0:0:0:
60,112,29600,6,0,P|108:136|160:136,1,84.4999961318971,0|8,0:0|0:0,0:0:0:0:
188,128,29900,2,0,L|272:160,1,84.4999961318971
316,176,30200,2,0,P|404:160|448:180,2,126.749994197846,8|0|0,0:0|0:0|0:0,0:0:0:0:
380,256,31000,1,8,0:0:0:0:
256,324,31200,5,4,0:0:0:0:
192,192,31500,1,0,0:0:0:0:
32,232,31800,1,12,0:0:0:0:
8,44,32100,1,0,0:0:0:0:
192,192,32400,1,0,0:0:0:0:
368,88,32800,6,0,P|420:92|460:76,1,84.4999961318971,2|8,0:0|0:0,0:0:0:0:
496,60,33100,2,0,P|484:128|488:188,2,126.749994197846,0|8|0,0:0|0:0|0:0,0:0:0:0:
456,36,33800,1,8,0:0:0:0:
308,28,34000,1,0,0:0:0:0:
200,68,34200,1,8,0:0:0:0:
140,104,34400,6,0,L|64:160,1,84.4999961318971,0|8,0:0|0:0,0:0:0:0:
36,192,34700,2,0,P|72:232|108:248,1,84.4999961318971
148,244,35000,2,0,P|244:228|312:292,1,168.999992263794,8|8,0:0|0:0,0:0:0:0:
212,320,35600,1,0,0:0:0:0:
372,336,35800,1,8,0:0:0:0:
452,272,36000,6,0,P|472:220|468:168,1,84.4999961318971,0|8,0:0|0:0,0:0:0:0:
448,148,36300,2,0,P|436:84|448:40,1,84.4999961318971
460,20,36600,2,0,L|300:40,2,126.749994197846,8|0|0,0:0|0:0|0:0,0:0:0:0:
448,148,37400,1,8,0:0:0:0:
308,224,37600,5,4,0:0:0:0:
160,72,37900,1,0,0:0:0:0:
68,216,38200,1,12,0:0:0:0:
280,132,38500,1,0,0:0:0:0:
444,232,38800,1,0,0:0:0:0:
252,296,39200,5,6,0:0:0:0:
124,280,39400,1,8,0:0:0:0:
124,280,39500,2,0,P|144:220|116:144,1,126.749994197846,0|8,0:0|0:0,0:0:0:0:
32,44,40100,1,0,0:0:0:0:
32,44,40200,2,0,P|96:48|148:32,2,84.4999961318971,8|0|8,0:0|0:0|0:0,0:0:0:0:
64,140,40800,6,0,P|72:188|64:236,1,84.4999961318971,0|8,0:0|0:0,0:0:0:0:
44,268,41100,2,0,P|92:288|128:280,1,84.4999961318971
172,268,41400,2,0,P|256:256|360:272,1,168.999992263794,8|8,0:0|0:0,0:0:0:0:
456,320,42000,1,0,0:0:0:0:
432,184,42200,1,8,0:0:0:0:
308,160,42400,6,0,P|264:140|216:88,1,84.4999961318971,0|8,0:0|0:0,0:0:0:0:
220,68,42700,2,0,P|144:88|88:72,2,126.749994197846,0|8|0,0:0|0:0|0:0,0:0:0:0:
260,36,43400,2,0,P|312:36|356:56,1,84.4999961318971,8|0,0:0|0:0,0:0:0:0:
440,116,43800,1,8,0:0:0:0:
308,160,44000,5,4,0:0:0:0:
432,248,44300,1,0,0:0:0:0:
256,308,44600,1,4,0:0:0:0:
100,148,44900,1,0,0:0:0:0:
260,36,45200,1,0,0:0:0:0:
308,184,45600,5,4,0:0:0:0:
480,184,45900,1,0,0:0:0:0:
392,320,46200,1,0,0:0:0:0:
316,316,46400,2,0,B|268:316|228:292|228:292|172:308|108:300,1,195
56,268,47200,6,0,P|89:233|136:223,1,97.5
248,184,47800,2,0,P|297:186|337:161,2,97.5
276,112,48600,1,0,0:0:0:0:
228,68,48800,70,0,P|164:68|124:92,1,97.5
128,200,49400,2,0,P|72:224|16:216,2,97.5
208,192,50200,1,0,0:0:0:0:
288,200,50400,6,0,P|344:200|376:224,1,97.5
312,320,51000,1,0,0:0:0:0:
392,328,51200,70,0,P|448:296|468:276,1,65
480,224,51600,2,0,P|464:184|464:144,1,65
448,88,52000,6,0,P|368:96|336:120,1,97.5,4|0,0:0|0:0,0:0:0:0:
240,144,52600,2,0,P|192:168|136:152,2,97.5
184,88,53400,1,0,0:0:0:0:
104,80,53600,6,0,P|68:112|53:158,1,97.5
96,264,54200,2,0,P|64:320|8:336,2,97.5
152,212,55000,1,0,0:0:0:0:
220,188,55200,6,0,B|288:160|288:160|328:172,1,97.5
404,216,55800,2,0,P|428:276|456:308,2,97.5
424,132,56600,1,0,0:0:0:0:
364,64,56800,6,0,P|317:50|248:77,2,97.5
312,156,57700,1,0,0:0:0:0:
252,244,58000,2,0,P|204:296|140:300,1,130,0|4,0:0|0:0,0:0:0:0:
160,208,58700,5,0,0:0:0:0:
80,128,59000,1,0,0:0:0:0:
72,208,59200,2,0,L|40:272,1,65
120,288,59600,2,0,L|88:352,2,65
232,256,60300,5,0,0:0:0:0:
352,256,60600,2,8,P|344:200|304:160,2,97.5,0|0|0,0:0|0:0|0:0,0:0:0:0:
328,328,61400,1,0,0:0:0:0:
248,336,61600,6,0,P|200:368|160:368,1,97.5
120,264,62200,2,0,P|66:243|43:210,1,97.5
112,120,62800,1,0,0:0:0:0:
160,56,63000,1,0,0:0:0:0:
208,120,63200,6,0,P|264:104|320:128,2,97.5
256,184,64000,1,0,0:0:0:0:
284,256,64200,2,0,P|332:256|368:236,1,65
416,224,64600,1,0,0:0:0:0:
472,168,64800,6,0,P|496:224|472:280,2,97.5,4|0|0,0:0|0:0|0:0,0:0:0:0:
384,112,65700,1,0,0:0:0:0:
288,44,66000,6,0,L|364:24,1,65
416,32,66400,1,0,0:0:0:0:
384,112,66700,2,0,L|304:192,2,97.5
460,200,67600,6,0,P|472:252|460:284,1,65
404,304,68000,1,0,0:0:0:0:
288,324,68300,2,0,L|168:308,1,97.5
104,248,68900,1,0,0:0:0:0:
144,136,69200,1,0,0:0:0:0:
144,136,69400,1,0,0:0:0:0:
208,184,69600,69,4,0:0:0:0:
344,208,69900,1,8,0:0:0:0:
372,72,70200,1,8,0:0:0:0:
512,44,70400,1,4,0:0:0:0:
440,304,70800,1,12,0:0:0:0:
240,340,71200,6,0,P|180:344|136:328,1,84.4999961318971,2|8,0:0|0:0,0:0:0:0:
116,308,71500,2,0,P|108:260|80:232,1,84.4999961318971
48,200,71800,2,0,P|48:120|96:68,2,126.749994197846,8|0|0,0:0|0:0|0:0,0:0:0:0:
140,160,72600,1,8,0:0:0:0:
216,96,72800,6,0,P|284:88|304:96,1,84.4999961318971,0|8,0:0|0:0,0:0:0:0:
348,104,73100,2,0,P|424:124|488:116,2,126.749994197846,0|8|0,0:0|0:0|0:0,0:0:0:0:
304,88,73800,1,8,0:0:0:0:
216,32,74000,1,0,0:0:0:0:
116,44,74200,1,8,0:0:0:0:
32,100,74400,6,0,P|52:160|40:208,1,84.4999961318971,0|8,0:0|0:0,0:0:0:0:
28,228,74700,2,0,P|16:292|28:324,1,84.4999961318971
60,340,75000,2,0,P|132:364|192:340,2,126.749994197846,8|0|0,0:0|0:0|0:0,0:0:0:0:
124,260,75800,1,8,0:0:0:0:
248,148,76000,5,4,0:0:0:0:
380,224,76300,1,0,0:0:0:0:
452,64,76600,1,12,0:0:0:0:
248,36,76900,1,0,0:0:0:0:
124,260,77200,1,0,0:0:0:0:
320,316,77600,6,0,P|388:320|416:312,1,84.4999961318971,6|8,0:0|0:0,0:0:0:0:
448,292,77900,2,0,P|440:236|452:188,1,84.4999961318971
468,164,78200,2,0,B|484:116|484:68|484:68|452:84|412:84,1,168.999992263794,8|8,0:0|0:0,0:0:0:0:
316,68,78800,1,0,0:0:0:0:
220,96,79000,1,8,0:0:0:0:
136,40,79200,6,0,P|116:96|124:140,1,84.4999961318971,0|8,0:0|0:0,0:0:0:0:
132,168,79500,2,0,P|136:232|120:284,1,84.4999961318971
116,300,79800,2,0,P|188:320|248:308,2,126.749994197846,8|0|0,0:0|0:0|0:0,0:0:0:0:
56,216,80600,1,8,0:0:0:0:
60,116,80800,6,0,P|108:84|164:84,1,84.4999961318971,0|8,0:0|0:0,0:0:0:0:
184,88,81100,2,0,B|240:96|240:96|280:84,1,84.4999961318971
316,68,81400,2,0,P|408:64|480:100,1,168.999992263794,8|8,0:0|0:0,0:0:0:0:
452,196,82000,1,0,0:0:0:0:
476,296,82200,1,8,0:0:0:0:
320,260,82400,5,4,0:0:0:0:
172,292,82700,1,0,0:0:0:0:
272,120,83000,1,4,0:0:0:0:
92,168,83300,1,0,0:0:0:0:
328,60,83600,1,0,0:0:0:0:
460,200,84000,5,4,0:0:0:0:
348,232,84300,2,0,P|300:248|236:216,1,97.5,0|0,0:0|0:0,0:0:0:0:
184,192,84800,1,0,0:0:0:0:
104,192,85000,1,0,0:0:0:0:
56,248,85200,2,0,P|48:296|56:336,1,65
120,288,85600,6,0,P|144:320|224:344,1,97.5
312,344,86200,2,0,P|376:320|416:320,2,97.5,0|0|0,0:0|0:0|0:0,0:0:0:0:
304,264,87000,1,0,0:0:0:0:
272,192,87200,6,0,P|200:184|160:208,1,97.5
72,152,87800,2,0,P|40:120|48:56,2,97.5,0|0|0,0:0|0:0|0:0,0:0:0:0:
152,156,88600,1,0,0:0:0:0:
220,116,88800,6,0,P|268:84|292:36,1,97.5
400,32,89400,1,0,0:0:0:0:
448,96,89600,6,0,P|448:144|432:176,1,65
396,216,90000,2,0,P|365:252|332:266,1,65
280,280,90400,2,0,P|244:280|188:240,1,97.5
108,312,91000,6,0,P|76:336|20:336,1,97.5,0|0,0:0|0:0,0:0:0:0:
80,224,91600,1,0,0:0:0:0:
80,224,91800,1,0,0:0:0:0:
112,152,92000,2,0,P|152:104|208:96,1,97.5
256,184,92600,5,0,0:0:0:0:
304,288,92900,1,0,0:0:0:0:
416,264,93200,1,0,0:0:0:0:
416,264,93400,1,0,0:0:0:0:
368,152,93600,6,0,L|312:64,2,97.5
256,184,94500,1,0,0:0:0:0:
272,296,94800,2,0,P|224:304|184:296,2,65
256,184,95500,5,0,0:0:0:0:
176,96,95800,1,0,0:0:0:0:
56,96,96100,1,0,0:0:0:0:
56,216,96400,2,0,B|56:288|56:288|112:328,1,130,0|4,0:0|0:0,0:0:0:0:
216,336,97100,6,0,P|260:316|320:312,1,97.5
384,296,97600,2,0,P|448:208|448:176,1,130
360,72,98400,1,0,0:0:0:0:
248,104,98700,5,0,0:0:0:0:
128,104,99000,2,0,L|40:48,2,97.5
152,176,99800,1,0,0:0:0:0:
144,256,100000,6,0,P|112:288|104:352,2,97.5
72,168,100900,1,0,0:0:0:0:
160,88,101200,2,0,P|216:112|240:176,1,130,0|0,0:0|0:0,0:0:0:0:
240,288,101900,6,0,P|296:272|328:240,1,97.5
336,168,102400,1,0,0:0:0:0:
336,168,102600,1,0,0:0:0:0:
376,104,102800,2,0,B|424:96|424:96|456:64|456:64|496:56,1,130,0|4,0:0|0:0,0:0:0:0:
488,176,103500,5,0,0:0:0:0:
440,288,103800,1,0,0:0:0:0:
320,288,104100,2,0,P|304:240|256:208,1,97.5
192,216,104600,1,0,0:0:0:0:
224,288,104800,6,0,P|176:296|136:272,2,97.5
288,192,105700,1,0,0:0:0:0:
296,72,106000,2,0,P|240:40|176:48,1,130
96,116,106700,6,0,P|100:188|88:228,1,97.5
44,308,107300,1,0,0:0:0:0:
180,240,107600,2,0,L|268:208,1,65
416,200,108000,5,4,0:0:0:0:
400,312,108300,1,0,0:0:0:0:
288,296,108600,1,4,0:0:0:0:
176,320,108900,1,0,0:0:0:0:
88,296,109200,1,0,0:0:0:0:
112,148,109600,5,4,0:0:0:0:
188,168,109800,1,0,0:0:0:0:
248,100,110000,2,0,L|296:88,1,35.7500010910034
380,140,110400,2,0,L|345:148,1,35.7500010910034
272,168,110800,2,0,P|284:192|324:224,1,71.5000021820069,4|0,0:0|0:0,0:0:0:0:
400,256,111400,5,0,0:0:0:0:
424,180,111600,1,0,0:0:0:0:
376,112,111800,1,0,0:0:0:0:
320,56,112000,2,0,P|256:64|212:88,1,107.25000327301,4|0,0:0|0:0,0:0:0:0:
112,264,113200,2,0,P|176:256|220:232,1,107.25000327301,4|0,0:0|0:0,0:0:0:0:
324,144,114400,5,4,0:0:0:0:
416,104,114600,1,0,0:0:0:0:
464,184,114800,1,0,0:0:0:0:
404,248,115000,1,0,0:0:0:0:
440,336,115200,2,0,L|392:348,1,35.7500010910034
324,356,115600,2,0,P|305:326|305:290,1,71.5000021820069,4|0,0:0|0:0,0:0:0:0:
332,220,116200,5,0,0:0:0:0:
248,164,116400,1,0,0:0:0:0:
164,236,116600,1,0,0:0:0:0:
128,164,116800,2,0,P|136:124|136:84,2,71.5000021820069,4|0|0,0:0|0:0|0:0,0:0:0:0:
24,216,118000,2,0,B|16:244|16:244|32:284|32:284|16:324|16:324|40:364|108:340,1,214.500006546021,4|4,0:0|0:0,0:0:0:0:
188,296,119400,5,0,0:0:0:0:
264,336,119600,2,0,L|300:336,1,35.7500010910034
352,276,120000,1,0,0:0:0:0:
404,220,120200,1,0,0:0:0:0:
468,276,120400,2,0,P|484:240|484:192,1,71.5000021820069,4|0,0:0|0:0,0:0:0:0:
472,136,121000,1,0,0:0:0:0:
408,92,121200,2,0,L|384:52,1,35.7500010910034
308,20,121600,6,0,P|272:8|204:16,1,107.25000327301,4|0,0:0|0:0,0:0:0:0:
60,120,122800,2,0,P|96:132|164:124,1,107.25000327301,4|0,0:0|0:0,0:0:0:0:
296,120,124000,5,4,0:0:0:0:
352,168,124200,1,0,0:0:0:0:
324,240,124400,1,0,0:0:0:0:
248,256,124600,1,0,0:0:0:0:
180,216,124800,2,0,L|136:224,1,35.7500010910034
76,248,125200,2,0,P|20:264|4:264,1,71.5000021820069,4|0,0:0|0:0,0:0:0:0:
12,160,125800,5,0,0:0:0:0:
64,104,126000,1,0,0:0:0:0:
128,140,126200,1,0,0:0:0:0:
196,104,126400,2,0,P|228:64|232:36,2,71.5000021820069,4|0|0,0:0|0:0|0:0,0:0:0:0:
128,20,127600,1,4,0:0:0:0:
440,176,128800,6,0,P|392:192|320:176,1,90.9999972229005,6|8,0:0|0:0,0:0:0:0:
248,128,129200,2,0,P|192:120|140:136,1,90.9999972229005,0|8,0:0|0:0,0:0:0:0:
152,248,129600,1,0,0:0:0:0:
152,248,129800,1,8,0:0:0:0:
264,288,130000,2,0,B|320:288|352:316|352:316|384:288|448:288,1,181.999994445801
424,176,130600,6,0,P|448:88|468:68,2,90.9999972229005,8|0|8,0:0|0:0|0:0,0:0:0:0:
312,160,131200,2,0,B|280:168|216:152|216:152|160:136|96:152,1,181.999994445801
40,232,131800,2,0,B|96:248|136:240|136:240|168:256|224:256,1,181.999994445801,8|8,0:0|0:0,0:0:0:0:
352,256,132400,2,0,P|400:200|388:84,1,181.999994445801
272,104,133000,2,0,P|336:136|272:200,1,181.999994445801,8|8,0:0|0:0,0:0:0:0:
160,160,133600,6,0,P|120:120|80:120,1,90.9999972229005,6|8,0:0|0:0,0:0:0:0:
64,232,134000,2,0,B|96:280|96:280|136:296,1,90.9999972229005,0|8,0:0|0:0,0:0:0:0:
232,240,134400,2,0,P|296:208|340:224,1,90.9999972229005,0|8,0:0|0:0,0:0:0:0:
424,272,134800,2,0,P|364:332|292:264,1,181.999994445801
368,192,135400,5,8,0:0:0:0:
400,80,135600,1,0,0:0:0:0:
472,168,135800,1,8,0:0:0:0:
400,80,136000,2,0,P|312:64|224:124,2,181.999994445801,0|4|0,0:0|0:0|0:0,0:0:0:0:
336,184,137000,5,8,0:0:0:0:
336,184,137100,1,0,0:0:0:0:
336,184,137200,2,0,P|328:248|312:272,1,90.9999972229005,4|8,0:0|0:0,0:0:0:0:
236,328,137600,2,0,L|140:328,1,90.9999972229005
40,256,138000,2,0,P|32:184|64:116,1,136.499995834351
120,144,138400,6,0,P|152:96|152:56,1,90.9999972229005,6|8,0:0|0:0,0:0:0:0:
272,56,138800,1,0,0:0:0:0:
384,96,139000,1,8,0:0:0:0:
368,208,139200,2,0,P|312:176|288:120,1,90.9999972229005,0|8,0:0|0:0,0:0:0:0:
200,200,139600,2,0,P|232:264|156:348,1,181.999994445801
80,264,140200,6,0,B|48:224|48:224|32:168,2,90.9999972229005,8|0|8,0:0|0:0|0:0,0:0:0:0:
128,160,140800,2,0,P|224:112|280:184,1,181.999994445801
368,240,141400,2,0,P|304:296|184:296,1,181.999994445801,8|8,0:0|0:0,0:0:0:0:
80,288,142000,6,0,B|120:240|120:240|208:240|212:140,1,181.999994445801
320,128,142600,2,0,P|272:72|144:72,1,181.999994445801,8|8,0:0|0:0,0:0:0:0:
112,168,143200,6,0,B|176:240|176:296|160:328|160:328|216:304|264:304,1,272.999991668701,4|8,0:0|0:0,0:0:0:0:
320,248,144000,2,0,P|358:219|400:220,1,90.9999972229005,0|8,0:0|0:0,0:0:0:0:
384,304,144400,5,4,0:0:0:0:
272,96,144800,1,4,0:0:0:0:
80,232,145200,1,4,0:0:0:0:
296,320,145600,2,0,P|384:212|472:312,2,272.999991668701,4|8|4,0:0|0:0|0:0,0:0:0:0:
176,328,147000,6,0,P|112:312|52:212,1,181.999994445801,0|8,0:0|3:1,0:0:0:0:
88,168,147500,2,0,L|160:112,1,48.750001859665,0|0,3:0|3:0,3:0:0:0:
240,136,147800,1,8,3:1:0:0:
296,28,148000,6,0,P|360:84|368:120,1,90.9999972229005,6|8,0:0|0:0,0:0:0:0:
368,216,148400,2,0,L|432:304,2,90.9999972229005,0|8|0,0:0|0:0|0:0,0:0:0:0:
280,216,149000,1,8,0:0:0:0:
164,216,149200,2,0,P|136:132|56:96,1,181.999994445801
48,216,149800,5,8,0:0:0:0:
80,320,150000,1,0,0:0:0:0:
200,320,150200,1,8,0:0:0:0:
316,336,150400,2,0,L|464:200,1,181.999994445801
464,80,151000,2,0,P|384:48|280:72,1,181.999994445801,8|8,0:0|0:0,0:0:0:0:
200,152,151600,2,0,P|107:178|24:152,1,181.999994445801
52,44,152200,2,0,P|100:96|180:36,1,181.999994445801,8|8,0:0|0:0,0:0:0:0:
272,96,152800,6,0,P|304:144|344:168,1,90.9999972229005,4|8,0:0|0:0,0:0:0:0:
444,140,153200,2,0,P|419:98|380:76,1,90.9999972229005,0|8,0:0|0:0,0:0:0:0:
448,240,153600,1,0,0:0:0:0:
448,240,153800,1,8,0:0:0:0:
328,240,154000,6,0,B|224:240|248:152|144:152,1,181.999994445801
88,56,154600,1,8,0:0:0:0:
32,160,154800,1,0,0:0:0:0:
56,272,155000,1,8,0:0:0:0:
168,304,155200,2,0,B|264:336|264:336|348:336,2,181.999994445801,0|4|0,0:0|0:0|0:0,0:0:0:0:
168,192,156200,5,8,0:0:0:0:
168,192,156300,1,0,0:0:0:0:
168,192,156400,2,0,P|184:176|208:80,1,90.9999972229005,4|8,0:0|0:0,0:0:0:0:
96,112,156800,2,0,P|72:184|88:228,1,90.9999972229005,0|8,0:0|0:0,0:0:0:0:
168,272,157200,2,0,P|240:296|304:268,1,136.499995834351
324,240,157600,6,0,P|392:184|412:180,1,90.9999972229005,6|8,0:0|0:0,0:0:0:0:
408,48,158000,2,0,L|324:104,1,90.9999972229005,0|8,0:0|0:0,0:0:0:0:
216,56,158400,2,0,L|132:108,1,90.9999972229005,0|8,0:0|0:0,0:0:0:0:
48,192,158800,2,0,B|128:240|196:196|196:196|240:212,1,181.999994445801
296,296,159400,6,0,P|320:256|320:204,1,90.9999972229005,8|0,0:0|0:0,0:0:0:0:
304,96,159800,1,8,0:0:0:0:
416,56,160000,2,0,B|456:96|472:136|472:136|456:184|392:200,1,181.999994445801
296,224,160600,2,0,P|240:224|144:124,1,181.999994445801,8|8,0:0|0:0,0:0:0:0:
160,16,161200,2,0,P|48:64|40:136,1,181.999994445801
64,240,161800,2,0,P|120:296|240:316,1,181.999994445801,8|8,0:0|0:0,0:0:0:0:
304,320,162400,6,0,P|392:312|472:240,1,195,4|8,0:0|0:0,0:0:0:0:
416,184,163200,2,0,P|392:128|392:96,1,65,0|8,0:0|0:0,0:0:0:0:
464,96,163600,1,4,0:0:0:0:
312,72,164000,1,4,0:0:0:0:
168,136,164400,1,4,0:0:0:0:
64,152,164800,1,6,0:0:0:0:
256,192,164900,12,0,167200,0:0:0:0:
