osu file format v14

[General]
AudioFilename: Undertale Battle Against A True Hero Dual Mix.mp3
AudioLeadIn: 0
PreviewTime: 18400
Countdown: 0
SampleSet: Normal
StackLeniency: 0.7
Mode: 0
LetterboxInBreaks: 1
EpilepsyWarning: 1
WidescreenStoryboard: 1

[Editor]
Bookmarks: 7200,164800
DistanceSpacing: 1
BeatDivisor: 4
GridSize: 8
TimelineZoom: 1

[Metadata]
Title:Battle Against A True Hero Dual Mix
TitleUnicode:Battle Against A True Hero Dual Mix
Artist:toby fox
ArtistUnicode:toby fox
Creator:novotrixes
Version:Easy
Source:Undertale
Tags:Undertale, toby fox, Undyne, Ferdk, OST, original soundtrack, remix
BeatmapID:927805
BeatmapSetID:416229

[Difficulty]
HPDrainRate:2
CircleSize:2.4
OverallDifficulty:1
ApproachRate:2
SliderMultiplier:0.7
SliderTickRate:1

[Events]
//Background and Video events
0,0,"Undyne.jpg",0,0
//Break Periods
2,109600,127200
//Storyboard Layer 0 (Background)
//Storyboard Layer 1 (Fail)
//Storyboard Layer 2 (Pass)
//Storyboard Layer 3 (Foreground)
//Storyboard Sound Samples

[TimingPoints]
800,400,4,2,1,60,1,0
20000,-76.923076923077,4,1,1,90,0,1
32600,-100,4,1,1,80,0,0
32800,-76.923076923077,4,1,1,90,0,1
45600,-100,4,1,1,80,0,0
71200,-76.923076923077,4,1,1,90,0,1
84000,-100,4,1,1,80,0,0
108000,-100,4,2,1,40,0,0
109600,-181.818181818181,4,2,1,80,0,0
128800,-76.923076923077,4,1,1,100,0,1
138200,-100,4,1,1,100,0,0
138400,-76.923076923077,4,1,1,100,0,1
143200,-76.923076923077,4,1,1,100,0,0
148000,-76.923076923077,4,1,1,100,0,1
157400,-100,4,1,1,100,0,0
157600,-76.923076923077,4,1,1,100,0,1
162400,-100,4,1,1,100,0,0
165600,-100,4,1,1,80,0,0
166000,-100,4,1,1,60,0,0
166400,-100,4,1,1,40,0,0
166800,-100,4,1,1,20,0,0
167200,-100,4,1,1,5,0,0

[Colours]
Combo1 : 128,128,255
Combo2 : 91,173,255
Combo3 : 250,78,48
Combo4 : 252,224,93

[HitObjects]
112,72,800,6,0,P|112:216|160:264,1,210,4|0,0:0|0:0,0:0:0:0:
200,184,2400,2,0,P|240:224|248:276,2,105,4|0|0,0:0|0:0|0:0,0:0:0:0:
200,92,4000,6,0,P|320:92|396:44,1,210,4|0,0:0|0:0,0:0:0:0:
460,112,5600,2,0,P|456:176|424:216,2,105,4|0|0,0:0|0:0|0:0,0:0:0:0:
372,128,7200,6,0,B|328:176|360:248|360:248|332:284|288:284,1,210,6|0,0:0|0:0,0:0:0:0:
200,296,8800,2,0,P|144:296|96:260,2,105,4|0|6,0:0|0:0|0:0,0:0:0:0:
168,208,10400,6,0,B|156:160|108:112|108:112|132:72|132:16,1,210,6|0,0:0|0:0,0:0:0:0:
232,40,12000,2,0,L|344:56,2,105,4|0|0,0:0|0:0|0:0,0:0:0:0:
260,128,13600,6,0,P|292:220|240:312,1,210,6|0,0:0|0:0,0:0:0:0:
172,252,15200,2,0,P|148:292|156:352,2,105,4|0|6,0:0|0:0|0:0,0:0:0:0:
160,160,16800,6,0,B|128:100|64:60|64:60|64:116|84:136,1,210,6|0,0:0|0:0,0:0:0:0:
88,220,18400,2,0,P|92:276|72:328,2,105,6|0|0,0:0|0:0|0:0,0:0:0:0:
200,144,20000,6,0,B|236:152|272:132|272:132|312:108|344:108,2,136.499993751526,10|8|8,0:0|0:0|0:0,0:0:0:0:
280,232,21600,2,0,L|240:308,1,68.2499968757631,8|0,0:0|0:0,0:0:0:0:
336,312,22200,2,0,L|372:244,2,68.2499968757631,8|0|8,0:0|0:0|0:0,0:0:0:0:
220,340,23200,6,0,P|124:340|76:320,2,136.499993751526,8|8|8,0:0|0:0|0:0,0:0:0:0:
180,228,24800,2,0,P|156:176|136:156,1,68.2499968757631,4|0,0:0|0:0,0:0:0:0:
64,140,25400,2,0,P|88:192|108:216,2,68.2499968757631,4|0|0,0:0|0:0|0:0,0:0:0:0:
152,60,26400,6,0,P|212:32|288:44,2,136.499993751526,14|8|8,0:0|0:0|0:0,0:0:0:0:
232,148,28000,2,0,P|276:160|304:156,1,68.2499968757631,8|0,0:0|0:0,0:0:0:0:
384,132,28600,2,0,P|428:124|468:132,2,68.2499968757631,8|0|8,0:0|0:0|0:0,0:0:0:0:
440,236,29600,6,0,B|420:296|384:316|384:316|408:352,2,136.499993751526,8|8|8,0:0|0:0|0:0,0:0:0:0:
324,216,31200,2,0,P|260:216|240:224,1,68.2499968757631,4|0,0:0|0:0,0:0:0:0:
168,232,31800,2,0,P|104:232|84:224,2,68.2499968757631,4|0|0,0:0|0:0|0:0,0:0:0:0:
136,116,32800,6,0,B|192:84|200:48|200:48|232:64|256:64,2,136.499993751526,14|8|8,0:0|0:0|0:0,0:0:0:0:
248,160,34400,2,0,B|296:164|296:164|320:152,1,68.2499968757631,8|0,0:0|0:0,0:0:0:0:
384,104,35000,2,0,B|408:96|408:96|456:108,2,68.2499968757631,8|0|8,0:0|0:0|0:0,0:0:0:0:
436,212,36000,6,0,P|428:276|372:336,2,136.499993751526,8|8|8,0:0|0:0|0:0,0:0:0:0:
320,232,37600,2,0,L|232:248,1,68.2499968757631,4|0,0:0|0:0,0:0:0:0:
184,300,38200,2,0,L|104:316,2,68.2499968757631,4|0|0,0:0|0:0|0:0,0:0:0:0:
84,236,39200,6,0,B|128:224|128:224|160:160|204:160,2,136.499993751526,14|8|8,0:0|0:0|0:0,0:0:0:0:
76,116,40800,2,0,P|116:76|136:68,1,68.2499968757631,8|0,0:0|0:0,0:0:0:0:
212,44,41400,2,0,P|264:36|292:44,2,68.2499968757631,8|0|8,0:0|0:0|0:0,0:0:0:0:
256,152,42400,6,0,L|300:296,2,136.499993751526,8|8|8,0:0|0:0|0:0,0:0:0:0:
278,39,44000,2,0,P|330:67|346:91,1,68.2499968757631,4|0,0:0|0:0,0:0:0:0:
388,144,44600,2,0,P|414:173|448:184,2,68.2499968757631,4|0|0,0:0|0:0|0:0,0:0:0:0:
296,140,45600,6,0,P|216:140|144:244,1,210
136,320,47200,2,0,P|64:344|24:340,1,105
64,224,48400,5,0,0:0:0:0:
24,144,48800,2,0,P|24:52|56:8,1,140
232,16,50400,2,0,P|238:84|206:145,1,140
152,72,51600,5,0,0:0:0:0:
112,152,52000,2,0,P|152:284|280:308,1,280,4|0,0:0|0:0,0:0:0:0:
296,120,55200,6,0,P|348:76|428:64,1,140
444,228,56800,2,0,P|396:312|284:312,1,210
280,232,58400,6,0,P|236:188|104:240,1,210,4|0,0:0|0:0,0:0:0:0:
24,228,60000,2,0,B|40:168|88:124|88:124|48:100|48:48,1,210
132,52,61600,6,0,B|280:8|280:136|368:60|412:60,1,280
396,228,64000,1,0,0:0:0:0:
344,216,64400,1,0,0:0:0:0:
288,208,64800,2,0,P|160:208|96:260,1,210,4|0,0:0|0:0,0:0:0:0:
216,320,66400,6,0,L|324:348,2,105
132,284,68000,2,0,P|200:208|204:96,1,210
128,72,69600,6,0,L|80:36,2,52.5,4|8|8,0:0|0:0|0:0,0:0:0:0:
128,116,70400,2,0,P|128:164|112:192,1,70,4|12,0:0|0:0,0:0:0:0:
48,288,71200,6,8,P|96:320|192:312,2,136.499993751526,10|8|8,0:0|0:0|0:0,0:0:0:0:
136,208,72800,2,8,P|186:181|216:184,1,68.2499968757631,8|0,0:0|0:0,0:0:0:0:
272,208,73400,2,8,P|320:216|352:200,2,68.2499968757631,8|0|8,0:0|0:0|0:0,0:0:0:0:
304,104,74400,6,0,P|348:88|452:116,2,136.499993751526,8|8|8,0:0|0:0|0:0,0:0:0:0:
368,224,76000,2,0,L|416:296,1,68.2499968757631,4|0,0:0|0:0,0:0:0:0:
328,272,76600,2,0,L|376:344,2,68.2499968757631,4|0|0,0:0|0:0|0:0,0:0:0:0:
248,216,77600,6,0,B|208:204|184:164|184:164|144:160|128:144,2,136.499993751526,14|8|8,0:0|0:0|0:0,0:0:0:0:
272,128,79200,2,0,P|328:120|344:120,1,68.2499968757631,8|0,0:0|0:0,0:0:0:0:
408,136,79800,2,0,P|441:142|475:144,2,68.2499968757631,8|0|0,0:0|0:0|0:0,0:0:0:0:
336,200,80800,6,0,P|392:264|448:272,2,136.499993751526,8|8|8,0:0|0:0|0:0,0:0:0:0:
296,120,82400,2,0,P|256:160|256:184,1,68.2499968757631,4|0,0:0|0:0,0:0:0:0:
248,240,83000,2,0,P|244:280|224:304,2,68.2499968757631,4|0|0,0:0|0:0|0:0,0:0:0:0:
160,248,84000,6,0,P|172:188|244:148,1,140
376,128,85600,2,0,P|364:188|320:220,1,105
280,132,86800,5,0,0:0:0:0:
196,140,87200,2,0,P|152:188|164:272,1,140
324,232,88800,2,0,P|329:299|283:351,1,140
248,276,90000,5,0,0:0:0:0:
244,192,90400,2,0,B|152:200|160:324|160:324|92:356|64:316,1,280
388,296,93600,6,0,P|400:244|372:160,1,140
236,256,95200,2,0,P|140:300|48:260,1,210
52,176,96800,6,0,P|148:132|240:172,1,210
308,220,98400,2,0,P|376:228|432:104,1,210
356,136,100000,2,0,P|268:108|176:252,1,280
320,324,102400,5,0,0:0:0:0:
388,276,102800,1,0,0:0:0:0:
412,196,103200,2,0,B|396:168|364:152|364:152|308:248|204:292,1,280
68,80,106000,5,0,0:0:0:0:
100,156,106400,2,0,B|116:212|96:256|96:256|68:308|80:368,1,210
152,320,108000,6,0,L|208:296,1,52.5,4|0,0:0|0:0,0:0:0:0:
244,256,108600,2,0,L|264:196,2,52.5,4|0|0,0:0|0:0|0:0,0:0:0:0:
144,88,128800,6,0,P|92:156|88:176,1,90.9999958343508,14|0,0:0|0:0,0:0:0:0:
216,188,129600,2,0,P|236:272|232:296,1,90.9999958343508,0|8,0:0|0:0,0:0:0:0:
112,256,130400,1,0,0:0:0:0:
144,144,130800,2,0,P|196:112|240:112,1,90.9999958343508,0|8,0:0|0:0,0:0:0:0:
400,208,131800,2,0,P|288:224|248:216,2,136.499993751526,0|8|0,0:0|0:0|0:0,0:0:0:0:
248,96,133600,6,0,P|180:96|144:112,1,90.9999958343508,10|0,0:0|0:0,0:0:0:0:
216,208,134400,2,0,P|284:208|320:192,1,90.9999958343508,0|8,0:0|0:0,0:0:0:0:
384,80,135200,1,0,0:0:0:0:
440,184,135600,1,0,0:0:0:0:
352,280,136000,2,0,P|408:320|448:320,2,90.9999958343508,8|0|0,0:0|0:0|0:0,0:0:0:0:
248,208,137200,2,0,P|176:144|96:168,1,181.999991668702,8|0,0:0|0:0,0:0:0:0:
160,240,138400,5,14,0:0:0:0:
264,320,138800,2,0,P|344:320|360:312,1,90.9999958343508
432,208,139600,2,0,P|368:208|328:224,1,90.9999958343508,8|0,0:0|0:0,0:0:0:0:
220,164,140400,2,0,P|164:148|128:112,1,90.9999958343508,0|8,0:0|0:0,0:0:0:0:
312,56,141400,2,0,P|388:28|456:40,2,136.499993751526,0|8|0,0:0|0:0|0:0,0:0:0:0:
144,136,143200,6,0,P|112:204|160:256,1,136.499993751526,12|0,0:0|0:0,0:0:0:0:
212,236,144000,2,0,P|248:228|304:248,1,90.9999958343508,0|4,0:0|0:0,0:0:0:0:
416,320,144800,2,4,P|456:240|456:224,1,90.9999958343508
394,114,145600,6,0,P|234:109|192:208,2,272.999987503052,4|4|10,0:0|0:0|0:0,0:0:0:0:
384,240,148400,6,0,P|404:292|448:320,1,90.9999958343508
456,200,149200,2,0,P|436:148|400:120,1,90.9999958343508,8|0,0:0|0:0,0:0:0:0:
268,128,150000,2,0,P|192:128|168:120,1,90.9999958343508,0|8,0:0|0:0,0:0:0:0:
88,264,151000,2,0,P|148:292|232:296,2,136.499993751526,0|8|0,0:0|0:0|0:0,0:0:0:0:
224,156,152800,6,0,L|328:128,1,90.9999958343508,10|0,0:0|0:0,0:0:0:0:
432,192,153600,2,0,L|328:224,1,90.9999958343508,0|8,0:0|0:0,0:0:0:0:
216,264,154400,2,0,P|156:244|128:208,1,90.9999958343508
224,156,155200,5,8,0:0:0:0:
184,40,155600,2,0,P|272:48|288:56,1,90.9999958343508
352,128,156400,2,0,B|368:184|344:240|344:240|356:300|408:304|408:304|432:296|448:272|448:272|448:248,1,272.999987503052,8|14,0:0|0:0,0:0:0:0:
440,96,158000,6,0,P|404:52|352:40,1,90.9999958343508
264,120,158800,2,0,P|196:128|168:120,1,90.9999958343508,8|0,0:0|0:0,0:0:0:0:
72,32,159600,2,0,P|136:24|176:32,1,90.9999958343508,0|8,0:0|0:0,0:0:0:0:
176,232,160600,6,0,P|120:288|48:304,2,136.499993751526,0|8|0,0:0|0:0|0:0,0:0:0:0:
88,176,162400,6,0,P|144:136|192:136,1,105,8|0,0:0|0:0,0:0:0:0:
216,136,163200,2,0,P|264:128|284:112,1,70,0|12,0:0|0:0,0:0:0:0:
344,80,164000,2,8,P|408:80|420:88,2,70,4|4|14,0:0|0:0|0:0,0:0:0:0:
256,192,164900,12,0,167200,0:0:0:0:
