osu file format v14

[General]
AudioFilename: lemons sucks man.mp3
AudioLeadIn: 0
PreviewTime: -1
Countdown: 1
SampleSet: Soft
StackLeniency: 0.7
Mode: 0
LetterboxInBreaks: 1
WidescreenStoryboard: 0

[Editor]
Bookmarks: 3130,4173,4695,8347,13565,15391,25043,33391,33913,34434,51130,53217,55304,57391,59478,61565,63652,65869,67826,69913,71999,74086,76304,78260,80347,84521,86086,92869,107478
DistanceSpacing: 1.3
BeatDivisor: 2
GridSize: 4
TimelineZoom: 1.3

[Metadata]
Title:ASGORE
TitleUnicode:ASGORE
Artist:toby fox
ArtistUnicode:toby fox
Creator:Mazziv
Version:Insane
Source:
Tags:
BeatmapID:893922
BeatmapSetID:411991

[Difficulty]
HPDrainRate:6
CircleSize:3.6
OverallDifficulty:6
ApproachRate:9.2
SliderMultiplier:1.4
SliderTickRate:1

[Events]
//Background and Video events
0,0,"asgore_by_prettypumpkinhead-d9e6f8h.png",0,0
//Break Periods
//Storyboard Layer 0 (Background)
//Storyboard Layer 1 (Fail)
//Storyboard Layer 2 (Pass)
//Storyboard Layer 3 (Foreground)
//Storyboard Sound Samples

[TimingPoints]
0,260.869565217391,4,2,0,100,1,0
51130,-100,4,3,0,100,0,0

[HitObjects]
208,160,0,5,0,0:0:0:0:
211,169,521,1,0,0:0:0:0:
223,177,1043,2,0,P|256:224|272:232,1,70
304,144,1304,2,0,P|352:152|392:136,1,70
336,64,1565,2,0,P|384:24|392:0,1,70
448,88,1826,1,0,0:0:0:0:
371,146,1956,1,0,0:0:0:0:
456,184,2086,2,0,P|456:232|376:280,1,140
332,348,2478,2,0,P|301:310|333:223,1,140
372,156,2869,2,0,P|336:156|300:108,1,70
200,184,3130,2,0,B|88:216|184:328|256:296|256:296|320:272|344:296,1,280
400,320,3782,5,0,0:0:0:0:
480,272,3913,1,0,0:0:0:0:
400,224,4043,1,0,0:0:0:0:
480,176,4173,2,0,P|440:120|440:88,1,70
416,32,4434,1,0,0:0:0:0:
416,32,4565,1,0,0:0:0:0:
336,144,4695,6,0,P|272:168|240:160,1,70
184,152,4956,1,0,0:0:0:0:
184,152,5086,1,0,0:0:0:0:
192,240,5217,6,0,P|240:304|312:296,1,140
384,280,5608,1,0,0:0:0:0:
440,208,5739,2,0,P|464:152|456:112,1,70
376,136,5999,2,0,P|368:88|336:64,1,70
272,112,6260,2,0,P|232:96|144:128,2,140
360,152,6913,1,0,0:0:0:0:
280,192,7043,1,0,0:0:0:0:
344,256,7173,1,0,0:0:0:0:
432,280,7304,2,0,B|416:344|352:368|352:368|328:352|328:352|304:368|304:368|280:352|280:352|248:368|248:368|184:360,1,280
112,104,8347,5,0,0:0:0:0:
280,168,8869,1,0,0:0:0:0:
96,288,9391,2,0,P|112:328|216:312,1,140
264,264,9782,1,0,0:0:0:0:
312,344,9913,2,0,B|344:320|360:296|360:280,1,70
309,211,10173,2,0,B|277:235|261:259|261:275,1,70
200,328,10434,2,0,P|112:280|104:216,1,140
96,160,10826,2,0,P|80:96|64:72,1,70
0,136,11086,2,0,P|16:200|32:224,1,70
102,247,11347,1,0,0:0:0:0:
64,328,11478,6,0,P|144:320|184:256,1,140
208,192,11869,1,0,0:0:0:0:
208,192,11999,2,0,P|224:128|224:112,1,70
136,140,12260,2,0,P|120:204|120:220,1,70
178,276,12521,2,0,P|234:284|306:244,1,140
360,320,12913,2,0,P|396:261|390:193,1,140
344,120,13304,1,0,0:0:0:0:
288,192,13434,1,0,0:0:0:0:
208,216,13565,6,0,P|144:200|128:184,1,70
56,200,13826,2,0,P|74:263|68:285,1,70
120,336,14086,2,0,P|165:288|187:282,1,70
297,257,14347,6,0,P|266:241|232:240,1,70
366,190,14608,2,0,P|368:225|384:256,1,70
272,168,14868,2,0,P|301:149|320:120,1,70
380,60,15130,6,0,P|404:100|436:128,1,70
440,200,15391,1,0,0:0:0:0:
383,255,15522,1,0,0:0:0:0:
300,268,15652,2,0,B|232:260|168:204|168:204|96:212|32:188,1,280
224,72,16695,5,0,0:0:0:0:
448,320,17217,1,0,0:0:0:0:
112,328,17739,2,0,P|79:318|60:289,1,70
136,248,17999,2,0,P|112:184|120:168,1,70
192,184,18260,2,0,P|192:128|224:96,1,70
272,152,18521,1,0,0:0:0:0:
256,232,18652,1,0,0:0:0:0:
208,296,18782,2,0,P|312:288|336:248,1,140
400,308,19173,2,0,P|409:240|366:187,1,140
280,192,19565,6,0,P|245:188|217:167,1,70
204,84,19826,2,0,P|238:87|266:108,1,70
280,192,20086,2,0,P|277:226|256:254,1,70
172,268,20347,2,0,P|176:234|197:206,1,70
280,192,20608,1,0,0:0:0:0:
224,128,20739,1,0,0:0:0:0:
184,328,20869,2,0,P|248:352|280:344,1,70
328,320,21130,1,0,0:0:0:0:
328,320,21260,1,0,0:0:0:0:
288,248,21391,6,0,P|336:224|360:216,1,70
432,200,21652,1,0,0:0:0:0:
432,200,21782,1,0,0:0:0:0:
424,288,21913,2,0,P|352:240|352:160,1,140
412,144,22304,2,0,P|348:112|268:144,1,140
342,191,22695,2,0,P|294:231|270:239,1,70
216,192,22956,6,0,P|220:288|292:316,1,140
328,336,23347,1,0,0:0:0:0:
316,252,23478,2,0,P|364:200|388:200,1,70
320,128,23739,2,0,P|250:112|238:91,1,70
232,36,23999,2,0,B|184:40|144:108|168:172|212:188|212:188|176:200|176:200|172:220|172:220|132:240,1,280
244,348,25043,5,0,0:0:0:0:
460,88,25565,1,0,0:0:0:0:
132,156,26086,6,0,P|204:240|276:224,1,140
308,224,26478,2,0,P|348:232|392:248,1,70
356,324,26739,2,0,P|316:316|272:300,1,70
232,244,26999,1,0,0:0:0:0:
192,316,27130,2,0,P|152:256|180:184,1,140
116,128,27521,2,0,P|188:112|252:172,1,140
301,220,27913,2,0,P|360:264|372:260,1,70
412,260,28173,6,0,P|332:264|300:216,1,140
252,152,28565,2,0,P|232:80|232:60,1,70
312,60,28826,2,0,P|332:132|332:152,1,70
332,212,29086,1,0,0:0:0:0:
412,180,29217,2,0,P|384:276|328:296,1,140
332,372,29608,2,0,P|280:324|284:248,1,140
304,176,29999,1,0,0:0:0:0:
304,176,30130,1,0,0:0:0:0:
352,108,30260,6,0,P|284:96|264:104,1,70
316,176,30521,1,0,0:0:0:0:
316,176,30652,1,0,0:0:0:0:
240,140,30782,6,0,P|180:204|184:228,1,70
256,224,31043,1,0,0:0:0:0:
256,224,31173,1,0,0:0:0:0:
316,280,31304,6,0,P|396:296|420:288,1,70
368,216,31565,1,0,0:0:0:0:
368,216,31695,1,0,0:0:0:0:
356,132,31826,6,0,P|284:164|276:176,1,70
212,172,32086,1,0,0:0:0:0:
268,236,32217,1,0,0:0:0:0:
184,248,32347,2,0,P|140:100|244:72,1,280
324,292,33391,5,0,0:0:0:0:
208,124,33913,1,0,0:0:0:0:
300,212,34173,2,0,L|336:228,3,35
300,212,34434,2,0,P|256:200|228:208,1,70
188,276,34695,2,0,P|232:288|260:280,1,70
340,292,34956,1,0,0:0:0:0:
156,120,35217,5,0,0:0:0:0:
156,120,35282,1,0,0:0:0:0:
156,120,35347,2,0,P|184:160|272:148,1,140
348,184,35739,2,0,P|327:211|323:245,1,70
332,328,35999,1,0,0:0:0:0:
88,332,36521,6,0,P|176:328|184:332,1,70
236,348,36782,2,0,P|236:313|225:280,1,70
192,204,37043,1,0,0:0:0:0:
444,200,37434,6,0,P|436:152|360:100,1,140
356,184,37826,2,0,P|323:195|290:185,1,70
220,140,38086,1,0,0:0:0:0:
208,308,38347,6,0,L|240:328,3,35
208,308,38608,2,0,P|172:268|168:236,1,70
164,168,38869,1,0,0:0:0:0:
108,104,38999,1,0,0:0:0:0:
52,168,39130,1,0,0:0:0:0:
268,180,39521,2,0,P|344:176|380:128,1,140
300,104,39913,2,0,P|269:87|252:56,1,70
208,128,40173,1,0,0:0:0:0:
148,304,40695,5,0,0:0:0:0:
172,96,41086,1,0,0:0:0:0:
376,208,41478,1,0,0:0:0:0:
260,328,41739,2,0,P|220:304|212:264,1,70
232,204,41999,2,0,P|272:228|280:268,1,70
340,308,42260,1,0,0:0:0:0:
340,308,42521,1,0,0:0:0:0:
92,80,42782,5,0,0:0:0:0:
171,105,42913,1,0,0:0:0:0:
171,189,43043,1,0,0:0:0:0:
91,215,43173,1,0,0:0:0:0:
42,147,43304,1,0,0:0:0:0:
256,280,43695,2,0,P|328:256|372:184,1,140
224,208,44086,2,0,P|176:256|172:288,1,70
164,340,44347,1,0,0:0:0:0:
365,127,44869,5,0,0:0:0:0:
445,17,44999,1,0,0:0:0:0:
444,152,45130,1,0,0:0:0:0:
365,43,45260,1,0,0:0:0:0:
494,85,45391,1,0,0:0:0:0:
288,236,45782,2,0,P|232:232|184:164,1,140
268,156,46173,2,0,P|284:116|324:92,1,70
344,172,46434,1,0,0:0:0:0:
400,332,46956,6,0,P|416:288|408:244,1,70
340,232,47217,2,0,P|339:266|325:298,1,70
325,298,47478,1,0,0:0:0:0:
172,100,47869,2,0,P|248:156|256:204,1,140
172,184,48260,2,0,P|137:183|102:187,1,70
140,264,48521,1,0,0:0:0:0:
128,104,49043,5,0,0:0:0:0:
240,332,49434,1,0,0:0:0:0:
368,116,49826,1,0,0:0:0:0:
204,156,50086,2,0,P|240:192|264:196,1,70
332,160,50347,2,0,P|296:124|272:120,1,70
212,68,50608,1,0,0:0:0:0:
132,216,50869,2,0,P|192:264|216:272,1,70
260,316,51130,5,8,0:0:0:0:
334,263,51261,1,0,0:0:0:0:
306,176,51391,1,0,0:0:0:0:
215,176,51522,1,0,0:0:0:0:
186,263,51652,2,0,P|200:300|312:320,1,140,8|0,0:0|0:0,0:0:0:0:
376,300,52043,1,0,0:0:0:0:
448,244,52173,2,0,P|380:208|372:208,1,70,8|0,0:0|0:0,0:0:0:0:
408,120,52434,2,0,P|476:156|484:156,1,70
476,64,52695,2,0,P|400:40|340:64,1,140,8|0,0:0|0:0,0:0:0:0:
276,120,53086,1,0,0:0:0:0:
212,188,53217,6,0,P|144:212|116:212,2,70,8|0|0,0:0|0:0|0:0,0:0:0:0:
276,124,53608,1,0,0:0:0:0:
320,204,53739,2,0,P|380:244|396:244,2,70,8|0|0,0:0|0:0|0:0,0:0:0:0:
276,124,54130,1,0,0:0:0:0:
244,208,54260,2,0,P|244:300|252:320,1,70,8|0,0:0|0:0,0:0:0:0:
312,332,54521,2,0,P|312:240|304:220,1,70
316,172,54782,2,0,P|336:104|400:84,1,140,8|0,0:0|0:0,0:0:0:0:
408,176,55173,1,0,0:0:0:0:
352,248,55304,5,0,0:0:0:0:
316,172,55434,1,0,0:0:0:0:
256,240,55565,1,0,0:0:0:0:
224,156,55695,1,0,0:0:0:0:
164,224,55826,2,0,P|168:304|248:324,1,140
304,340,56217,1,0,0:0:0:0:
396,340,56347,6,0,P|472:328|480:324,1,70
492,244,56608,2,0,P|416:256|408:260,1,70
336,276,56869,2,0,P|220:216|220:156,1,140
200,132,57260,1,0,0:0:0:0:
292,128,57391,6,0,P|360:164|436:136,1,140
496,200,57782,2,0,P|430:240|417:320,1,140
324,308,58173,2,0,P|320:232|300:212,1,70
276,164,58434,1,0,0:0:0:0:
196,120,58565,1,0,0:0:0:0:
104,120,58695,2,0,P|68:184|68:200,1,70
40,264,58956,2,0,B|28:288|28:288|80:320|144:288,1,140,2|0,0:0|0:0,0:0:0:0:
228,288,59347,1,0,0:0:0:0:
316,260,59478,6,0,P|376:212|380:204,1,70
364,128,59739,2,0,P|304:176|300:184,1,70
232,220,59999,2,0,P|148:216|108:164,1,140
188,124,60391,1,0,0:0:0:0:
112,76,60521,2,0,P|188:32|196:32,1,70
188,124,60782,2,0,P|112:168|104:168,1,70
56,212,61043,2,0,P|76:288|180:304,1,140
216,316,61434,1,0,0:0:0:0:
308,308,61565,5,0,0:0:0:0:
384,260,61695,1,0,0:0:0:0:
308,312,61826,1,0,0:0:0:0:
292,224,61956,1,0,0:0:0:0:
308,308,62086,2,0,P|240:296|188:236,1,140
156,164,62478,1,0,0:0:0:0:
248,172,62608,2,0,P|332:172|360:164,1,70
292,88,62869,2,0,P|208:88|180:96,1,70
132,92,63130,1,0,0:0:0:0:
