osu file format v14

[General]
AudioFilename: asgore fight music.mp3
AudioLeadIn: 0
PreviewTime: 42554
Countdown: 0
SampleSet: Normal
StackLeniency: 0.7
Mode: 0
LetterboxInBreaks: 0
WidescreenStoryboard: 0

[Editor]
Bookmarks: 34250
DistanceSpacing: 1
BeatDivisor: 2
GridSize: 4
TimelineZoom: 0.9500078

[Metadata]
Title:ASGORE
TitleUnicode:ASGORE
Artist:toby fox
ArtistUnicode:toby fox
Creator:-Nighthawk-
Version:Normal
Source:Undertale
Tags:soundtrack chiptune midi orchestral King of The Mountain Bergentruckung Asgore Undertale toby fox Boss Fight Retro Bit Tune Candlestorm Zenithlight Flying Pan FLP
BeatmapID:793072
BeatmapSetID:360889

[Difficulty]
HPDrainRate:3
CircleSize:4
OverallDifficulty:3
ApproachRate:5
SliderMultiplier:0.7
SliderTickRate:1

[Events]
//Background and Video events
Video,-512,"asgore fight3.avi"
0,0,"photo-original.jpg",0,0
//Break Periods
2,68876,75805
2,143839,150768
//Storyboard Layer 0 (Background)
//Storyboard Layer 1 (Fail)
//Storyboard Layer 2 (Pass)
//Storyboard Layer 3 (Foreground)
//Storyboard Sound Samples

[TimingPoints]
70,522.875816993464,4,1,0,30,1,0
34369,457.00737527115,4,1,0,30,1,0
34826,534.107375271151,4,1,0,30,1,0
35360,260.286749235408,4,1,0,30,1,0
43689,-100,4,1,0,30,0,1
50977,-100,4,1,0,30,0,0
60347,-100,4,1,0,30,0,1
67635,-100,4,1,0,30,0,0
74923,-100,4,1,0,30,0,0
85335,-100,4,1,1,30,0,1
91581,-100,4,1,5,30,0,1
93664,-100,4,1,1,30,0,1
100952,-100,4,1,5,30,0,1
101993,-100,4,1,1,30,0,1
108240,-100,4,1,5,30,0,1
110322,-100,4,1,1,30,0,1
116569,-100,4,1,0,30,0,1
118651,-100,4,1,0,30,0,0
126980,-100,4,1,0,30,0,1
141296,-100,4,1,0,30,0,1
143639,-100,4,2,0,30,0,0
160297,-100,4,1,0,30,0,0

[Colours]
Combo1 : 162,249,0
Combo2 : 255,172,0
Combo3 : 255,0,0
Combo4 : 255,0,230
Combo5 : 128,0,255
Combo6 : 0,0,255
Combo7 : 17,172,255
Combo8 : 0,221,0

[HitObjects]
264,176,34369,5,0,0:0:0:0:
200,60,34826,1,0,0:0:0:0:
336,96,35360,2,0,L|336:256,1,140,4|0,0:0|0:0,0:0:0:0:
300,296,36140,1,0,0:0:0:0:
240,332,36401,2,0,P|160:300|131:262,1,105
111,189,37182,1,0,0:0:0:0:
96,120,37442,2,0,P|167:146|172:222,2,140
60,255,39004,5,0,0:0:0:0:
197,278,39524,2,0,P|250:226|257:157,1,140
260,93,40305,2,0,P|282:48|323:35,1,70
186,81,40956,2,0,P|148:37|78:47,1,105
121,101,41606,2,0,B|132:137|153:183|319:164,1,210
301,165,42648,6,0,L|454:144,2,140,0|0|4,0:0|0:0|0:0,0:0:0:0:
102,112,44470,1,0,0:0:0:0:
64,170,44730,1,0,0:0:0:0:
48,66,45120,1,0,0:0:0:0:
64,170,45511,1,0,0:0:0:0:
133,170,45771,2,0,P|209:58|285:70,1,210,4|0,0:0|0:0,0:0:0:0:
333,90,46812,5,0,0:0:0:0:
409,157,47203,1,0,0:0:0:0:
418,261,47593,1,0,0:0:0:0:
357,226,47853,2,0,P|274:148|355:241,1,420,4|0,0:0|0:0,0:0:0:0:
285,227,49675,1,0,0:0:0:0:
285,227,49805,1,0,0:0:0:0:
285,227,49936,1,0,0:0:0:0:
62,56,50977,5,0,0:0:0:0:
173,140,51497,1,0,0:0:0:0:
293,68,52018,1,0,0:0:0:0:
92,129,52799,2,0,L|44:193,1,70
55,289,53449,1,0,0:0:0:0:
159,276,53840,1,0,0:0:0:0:
206,226,54100,2,0,B|268:143|268:143|375:57,1,210
386,137,55141,5,0,0:0:0:0:
298,246,55662,1,0,0:0:0:0:
160,224,56182,2,0,P|184:120|304:136,1,210
337,139,57224,1,0,0:0:0:0:
419,203,57614,1,0,0:0:0:0:
316,224,58004,1,0,0:0:0:0:
286,290,58265,2,0,P|392:289|416:195,1,210
400,135,59306,5,0,0:0:0:0:
271,80,59826,1,0,0:0:0:0:
256,216,60347,2,0,P|200:120|96:176,1,210,4|0,0:0|0:0,0:0:0:0:
118,139,61388,1,0,0:0:0:0:
125,243,61779,1,0,0:0:0:0:
197,318,62169,1,0,0:0:0:0:
197,248,62429,2,0,P|201:188|252:123,1,140
308,161,63210,5,0,0:0:0:0:
370,191,63470,1,0,0:0:0:0:
468,228,63861,1,0,0:0:0:0:
392,296,64251,1,0,0:0:0:0:
392,296,64512,2,0,B|329:439|200:288|270:227|340:166|210:20|132:200,1,420,4|0,0:0|0:0,0:0:0:0:
122,198,66334,1,0,0:0:0:0:
122,198,66464,1,0,0:0:0:0:
122,198,66594,1,0,0:0:0:0:
422,30,67635,6,0,B|471:78|471:78|521:170,2,140
95,166,77005,6,0,B|137:119|137:119|213:79|213:79|261:35,2,210
124,227,78827,1,0,0:0:0:0:
55,240,79088,2,0,P|143:296|180:186,2,245
124,227,81170,2,0,P|150:132|254:188,2,245
256,192,83252,12,0,84814,0:0:0:0:
72,82,85335,6,0,B|137:108|137:108|190:162,1,140,4|0,0:0|0:0,0:0:0:0:
230,211,86115,1,0,2:0:0:0:
276,263,86376,2,0,B|322:316|322:316|389:345,1,140
454,359,87157,1,0,2:0:0:0:
481,294,87417,2,0,B|491:226|491:226|472:153,1,140
450,90,88198,1,0,2:0:0:0:
391,129,88458,2,0,B|330:164|330:164|243:183,1,140
193,195,89239,1,0,2:0:0:0:
129,225,89499,6,0,P|88:292|120:343,1,140
170,382,90280,1,0,2:0:0:0:
228,344,90540,2,0,B|281:299|281:299|316:224,1,140
330,167,91321,1,0,2:0:0:0:
391,200,91581,2,0,P|331:96|264:196,1,280
202,102,93013,2,0,P|174:142|102:157,1,105
92,222,93664,6,0,L|236:276,1,140
289,294,94445,1,0,2:0:0:0:
355,314,94705,2,0,B|415:346|410:281|445:255|500:305,2,140
289,294,96006,1,0,2:0:0:0:
278,224,96267,1,0,0:0:0:0:
208,225,96527,1,0,2:0:0:0:
211,155,96787,2,0,B|201:87|260:114|297:89|268:21,2,140
216,224,98089,5,0,2:0:0:0:
236,290,98349,1,0,0:0:0:0:
287,337,98609,1,0,2:0:0:0:
303,268,98869,2,0,B|349:260|348:216|292:183|353:152,2,140
198,280,100301,1,0,0:0:0:0:
102,236,100691,1,0,0:0:0:0:
102,236,100952,2,0,B|72:189|72:189|54:110,2,105
171,243,101993,6,0,L|241:168|241:168,2,70,0|0|0,0:0|2:0|0:0,0:0:0:0:
136,304,102774,1,0,2:0:0:0:
205,305,103034,2,0,B|264:274|264:274|323:200,1,140
351,160,103815,1,0,2:0:0:0:
407,119,104075,2,0,L|495:72,2,70,0|0|0,0:0|2:0|0:0,0:0:0:0:
351,160,104856,1,0,2:0:0:0:
290,124,105116,2,0,B|246:102|246:102|194:103|194:103|138:81,1,140
92,64,105897,1,0,2:0:0:0:
94,133,106157,6,0,B|61:144|61:144|30:201,2,70,0|0|0,0:0|2:0|0:0,0:0:0:0:
134,190,106938,1,0,2:0:0:0:
198,217,107199,2,0,B|240:230|240:230|298:227|298:227|365:244,1,140
402,254,107980,1,0,2:0:0:0:
422,187,108240,2,0,B|386:77|386:77|263:76,1,210
221,80,109281,2,0,B|127:80|127:80|91:190,1,210
74,258,110322,2,0,P|91:315|168:294,1,140
210,258,111103,5,0,2:0:0:0:
275,281,111363,1,0,0:0:0:0:
323,230,111624,1,0,2:0:0:0:
387,257,111884,1,0,0:0:0:0:
423,197,112144,2,0,P|453:232|454:273,2,70,0|0|0,2:0|0:0|2:0,0:0:0:0:
364,158,112925,1,0,0:0:0:0:
303,122,113185,1,0,2:0:0:0:
258,176,113446,1,0,0:0:0:0:
201,135,113706,1,0,2:0:0:0:
162,193,113966,6,0,B|146:228|146:228|154:288|154:288|137:331,2,140
201,135,115268,1,0,2:0:0:0:
262,167,115528,2,0,B|234:235|234:235|246:308,2,140
340,97,116959,1,0,0:0:0:0:
239,64,117350,1,0,0:0:0:0:
223,104,117610,2,0,B|211:173|211:173|228:241|228:241|220:318,1,210
150,312,118651,6,0,P|30:245|180:57,1,420
219,52,120473,1,0,0:0:0:0:
289,55,120734,2,0,P|277:142|152:180,1,210
123,136,121775,2,0,L|66:81,2,70
173,186,122556,1,0,0:0:0:0:
173,186,122816,2,0,P|267:219|288:317,1,210
288,317,123857,5,0,0:0:0:0:
354,340,124117,2,0,L|373:281,1,35
432,329,124508,2,0,L|451:270,1,35
457,227,124898,2,0,B|434:161|434:161|444:91|444:91|416:14,1,210
420,25,125939,1,0,0:0:0:0:
314,25,126330,1,0,0:0:0:0:
349,128,126720,1,0,0:0:0:0:
349,128,126980,6,0,P|214:69|151:238,1,350,4|0,0:0|0:0,0:0:0:0:
163,288,128542,1,0,0:0:0:0:
232,287,128802,1,0,0:0:0:0:
265,224,129063,2,0,P|207:76|58:130,1,350,4|0,0:0|0:0,0:0:0:0:
121,253,130885,1,0,0:0:0:0:
106,184,131145,2,0,B|130:101|194:87|282:219|203:184|156:200|156:274|245:346|334:308|333:210,1,420
344,144,132967,5,0,0:0:0:0:
355,75,133227,2,0,B|434:147|434:147|503:263,1,210,4|0,0:0|0:0,0:0:0:0:
486,235,134268,1,0,0:0:0:0:
428,275,134529,2,0,L|395:219,1,35
345,162,135049,1,0,0:0:0:0:
349,167,135310,2,0,P|194:140|186:294,1,350,4|0,0:0|0:0,0:0:0:0:
222,351,136871,5,0,0:0:0:0:
259,291,137132,1,0,0:0:0:0:
260,221,137392,2,0,P|382:265|446:203,1,210,4|0,0:0|0:0,0:0:0:0:
477,166,138433,1,0,0:0:0:0:
412,139,138693,2,0,L|380:124,1,35
477,166,139214,5,0,0:0:0:0:
256,192,139474,12,0,143639,0:0:0:0:
256,48,151968,6,0,L|301:48,4,35
188,68,152749,1,0,0:0:0:0:
129,105,153009,2,0,P|87:136|59:188,1,105
90,282,153790,1,0,0:0:0:0:
38,329,154050,1,0,0:0:0:0:
143,329,154441,1,0,0:0:0:0:
222,260,154831,1,0,0:0:0:0:
279,299,155091,2,0,B|322:204|322:204|398:111,1,210
443,77,156133,6,0,P|479:141|397:322,1,280
300,316,157564,1,0,0:0:0:0:
323,213,157955,2,0,P|255:221|204:273,2,140
366,158,159256,2,0,B|293:128|224:162|224:162|224:84,1,210
262,39,160297,6,0,P|157:57|69:241,1,280,4|0,0:0|0:0,0:0:0:0:
148,260,161729,1,0,0:0:0:0:
230,195,162119,2,0,P|165:74|34:39,1,280
62,103,163421,1,0,0:0:0:0:
92,165,163681,1,0,0:0:0:0:
99,234,163941,1,0,0:0:0:0:
225,294,164462,6,0,P|245:222|197:138,2,140
99,234,166023,1,0,0:0:0:0:
100,94,166544,1,0,0:0:0:0:
178,24,166934,1,0,0:0:0:0:
278,56,167325,1,0,0:0:0:0:
225,102,167585,2,0,L|153:158,1,70
233,174,168106,2,0,L|285:219,1,70
307,153,168626,6,0,P|412:171|500:355,1,280,4|0,0:0|0:0,0:0:0:0:
406,265,170058,1,0,0:0:0:0:
310,308,170448,2,0,P|374:187|505:152,1,280
479,86,171750,1,0,0:0:0:0:
409,93,172010,1,0,0:0:0:0:
345,121,172270,1,0,0:0:0:0:
218,61,172791,6,0,P|198:133|246:217,2,140
338,117,174353,1,0,0:0:0:0:
385,248,174873,1,0,0:0:0:0:
330,337,175264,1,0,0:0:0:0:
312,233,175654,1,0,0:0:0:0:
301,195,175914,2,0,P|193:233|288:249,1,280,4|0,0:0|0:0,0:0:0:0:
375,262,177346,5,0,0:0:0:0:
441,181,177736,1,0,0:0:0:0:
372,167,177997,2,0,P|314:75|417:108,1,280,4|0,0:0|0:0,0:0:0:0:
436,211,179428,1,0,0:0:0:0:
346,265,179819,1,0,0:0:0:0:
293,218,180079,2,0,P|186:303|62:246,1,280,4|0,0:0|0:0,0:0:0:0:
72,147,181511,5,0,0:0:0:0:
172,176,181901,1,0,0:0:0:0:
216,121,182161,2,0,P|347:110|397:169,1,210,4|0,0:0|0:0,0:0:0:0:
256,192,183202,12,4,187367,0:0:0:0:
