osu file format v14

[General]
AudioFilename: 18 - .mp3
AudioLeadIn: 0
PreviewTime: 290667
Countdown: 0
SampleSet: Normal
StackLeniency: 0.2
Mode: 0
LetterboxInBreaks: 1
WidescreenStoryboard: 0

[Editor]
DistanceSpacing: 1.2
BeatDivisor: 4
GridSize: 4
TimelineZoom: 2.1

[Metadata]
Title:yuki no hane tokino kaze
TitleUnicode:雪の羽 時の風
Artist:tiko-u
ArtistUnicode:tiko-μ
Creator:wonders
Version:Insane
Source:G senjou no maou
Tags:Barbarian On The Groove chata
BeatmapID:426754
BeatmapSetID:177272

[Difficulty]
HPDrainRate:7
CircleSize:5
OverallDifficulty:6
ApproachRate:8
SliderMultiplier:1.4
SliderTickRate:1

[Events]
//Background and Video events
0,0,"5335d1c9gb3bfb4a3ba87&690.jpg",0,0
//Break Periods
2,28856,30841
//Storyboard Layer 0 (Background)
//Storyboard Layer 1 (Fail)
//Storyboard Layer 2 (Pass)
//Storyboard Layer 3 (Foreground)
//Storyboard Sound Samples

[TimingPoints]
282,652.173913043478,4,1,0,0,1,0
10064,-125,4,1,0,0,0,0
11048,652.173913043478,4,1,0,0,1,0
11156,-66.6666666666667,4,1,0,0,0,0
23765,-200,4,1,0,0,0,0
24906,-125,4,1,0,0,0,0
27515,-200,4,1,0,0,0,0
28819,-100,4,1,0,0,0,0
34200,-200,4,1,0,0,0,0
35341,-100,4,1,0,0,0,0
40069,-111.111111111111,4,1,0,0,0,0
40721,-125,4,1,0,0,0,0
41374,-83.3333333333333,4,1,0,0,0,0
62895,-100,4,1,0,0,0,0
82461,-166.666666666667,4,1,0,0,0,0
83113,-83.3333333333333,4,1,0,0,0,0
86374,-166.666666666667,4,1,0,0,0,0
87352,-83.3333333333333,4,1,0,0,0,0

[Colours]
Combo1 : 137,133,135
Combo2 : 143,78,105
Combo3 : 112,160,160
Combo4 : 242,237,243

[HitObjects]
288,164,282,5,0,0:0:0:0:
188,148,608,1,0,0:0:0:0:
124,68,934,1,0,0:0:0:0:
280,192,1260,1,0,0:0:0:0:
396,52,1586,2,0,L|384:148,1,70
400,224,2075,1,0,0:0:0:0:
260,328,2401,1,0,0:0:0:0:
104,280,2727,5,0,0:0:0:0:
104,280,2890,2,0,L|204:268,1,70
236,200,3542,2,0,L|320:236,1,70
400,224,4195,1,0,0:0:0:0:
320,40,4521,1,0,0:0:0:0:
320,40,4684,2,0,L|344:132,1,70
356,336,5336,5,0,0:0:0:0:
336,360,5499,2,0,L|244:368,1,70
92,232,6151,2,0,L|176:256,1,70
256,256,6803,1,0,0:0:0:0:
268,240,6912,1,0,0:0:0:0:
276,220,7021,1,0,0:0:0:0:
276,200,7129,1,0,0:0:0:0:
272,180,7238,1,0,0:0:0:0:
260,164,7347,1,0,0:0:0:0:
244,152,7455,2,0,P|328:144|352:140,1,105
372,120,8108,1,0,0:0:0:0:
424,36,8434,1,0,0:0:0:0:
424,36,8597,1,0,0:0:0:0:
416,204,8923,5,0,0:0:0:0:
416,204,9086,1,0,0:0:0:0:
384,296,9412,1,0,0:0:0:0:
372,312,9521,1,0,0:0:0:0:
352,320,9629,1,0,0:0:0:0:
340,304,9738,1,0,0:0:0:0:
336,284,9847,1,0,0:0:0:0:
340,264,9955,1,0,0:0:0:0:
348,248,10064,2,0,P|284:252|224:232,1,112
140,128,11048,5,0,0:0:0:0:
56,300,11374,1,0,0:0:0:0:
0,88,11700,1,0,0:0:0:0:
184,56,12026,2,0,P|264:68|300:64,1,105.000004005432
184,56,12515,1,0,0:0:0:0:
140,128,12678,1,0,0:0:0:0:
144,208,12841,2,0,P|164:272|160:312,1,105.000004005432
88,384,13330,6,0,P|168:340|184:320,1,105.000004005432
264,168,13982,1,0,0:0:0:0:
340,384,14308,1,0,0:0:0:0:
472,60,14634,2,0,P|440:148|420:168,1,105.000004005432
433,155,15124,1,0,0:0:0:0:
372,216,15287,1,0,0:0:0:0:
388,300,15450,2,0,P|464:348|484:348,1,105.000004005432
252,368,15939,6,0,L|352:336,1,105.000004005432
40,332,16591,1,0,0:0:0:0:
160,292,16917,1,0,0:0:0:0:
208,184,17243,2,0,P|188:128|188:72,1,105.000004005432
288,20,17732,2,0,L|256:72,1,52.5000020027161
356,64,18058,1,0,0:0:0:0:
356,64,18221,6,0,L|432:40,1,52.5000020027161
328,144,18547,1,0,0:0:0:0:
204,256,18874,6,0,L|128:268,1,52.5000020027161
84,216,19200,1,0,0:0:0:0:
120,52,19526,6,0,L|132:102,1,52.5000020027161
204,148,19852,1,0,0:0:0:0:
336,276,20178,6,0,L|324:344,1,52.5000020027161
404,228,20504,1,0,0:0:0:0:
448,296,21156,5,0,0:0:0:0:
424,308,21319,1,0,0:0:0:0:
396,312,21482,1,0,0:0:0:0:
372,304,21645,1,0,0:0:0:0:
348,292,21808,1,0,0:0:0:0:
256,188,22134,5,0,0:0:0:0:
248,212,22297,1,0,0:0:0:0:
244,240,22461,1,0,0:0:0:0:
248,268,22624,1,0,0:0:0:0:
260,292,22787,1,0,0:0:0:0:
168,320,23113,5,0,0:0:0:0:
140,320,23276,1,0,0:0:0:0:
116,312,23439,1,0,0:0:0:0:
96,292,23602,1,0,0:0:0:0:
88,268,23765,2,0,P|40:236|-16:216,1,105
48,128,25721,5,0,0:0:0:0:
120,72,26047,1,0,0:0:0:0:
220,56,26374,2,0,P|268:52|312:56,1,84
364,120,27352,1,0,0:0:0:0:
392,204,27515,2,0,P|440:224|516:216,1,122.5
228,348,31591,5,0,0:0:0:0:
236,332,31754,1,0,0:0:0:0:
240,316,31917,1,0,0:0:0:0:
240,300,32080,1,0,0:0:0:0:
236,284,32243,1,0,0:0:0:0:
188,208,32569,5,0,0:0:0:0:
172,200,32732,1,0,0:0:0:0:
160,188,32895,1,0,0:0:0:0:
156,172,33058,1,0,0:0:0:0:
160,156,33221,1,0,0:0:0:0:
236,48,33547,5,0,0:0:0:0:
240,64,33711,1,0,0:0:0:0:
240,80,33874,1,0,0:0:0:0:
236,96,34037,1,0,0:0:0:0:
228,112,34200,2,0,P|280:120|340:108,1,105
416,60,36156,5,0,0:0:0:0:
452,144,36482,1,0,0:0:0:0:
432,240,36808,2,0,P|412:320|424:376,1,140
352,300,37787,1,0,0:0:0:0:
352,300,37950,2,0,P|399:279|432:239,1,105
424,164,39091,2,0,L|396:144,1,35
328,104,39417,6,0,L|256:92,1,70
164,128,40069,6,0,L|104:192,1,62.9999980773926
40,264,40721,6,0,P|100:280|136:276,1,84
100,320,41374,2,0,L|60:352,2,41.9999987182618
264,248,42026,6,0,P|240:160|264:76,1,167.999994873047
324,36,43004,1,0,0:0:0:0:
408,56,43167,2,0,P|440:72|452:96,2,41.9999987182618
324,36,43656,2,0,L|328:104,1,41.9999987182618
384,140,43982,2,0,P|304:144|256:156,1,125.999996154785
228,180,44634,1,0,0:0:0:0:
200,212,44797,1,0,0:0:0:0:
188,252,44961,1,0,0:0:0:0:
184,292,45124,1,0,0:0:0:0:
200,332,45287,6,0,P|256:264|264:260,1,83.9999974365235
336,288,45776,2,0,L|344:240,1,41.9999987182618
412,192,46102,2,0,L|376:156,1,41.9999987182618
404,48,46428,2,0,P|384:56|352:96,2,41.9999987182618
140,76,47243,2,0,P|232:88|272:84,1,125.999996154785
224,128,47895,2,0,L|184:152,1,41.9999987182618
76,208,48384,2,0,L|120:248,1,41.9999987182618
144,308,48711,2,0,L|128:356,1,41.9999987182618
52,368,49037,1,0,0:0:0:0:
248,300,49200,6,0,P|328:292|356:296,1,83.9999974365235,0|0,0:0|0:0,0:0:0:0:
372,284,49689,1,0,0:0:0:0:
412,268,49852,1,0,0:0:0:0:
444,244,50015,1,0,0:0:0:0:
468,208,50178,2,0,L|480:160,1,41.9999987182618
408,72,50504,2,0,L|428:120,1,41.9999987182618
220,80,50993,1,0,0:0:0:0:
220,80,51156,1,0,0:0:0:0:
252,108,51319,2,0,P|312:108|356:96,1,83.9999974365235
392,148,51808,2,0,L|384:196,2,41.9999987182618
320,228,52461,6,0,L|340:376,1,125.999996154785,0|0,0:0|0:0,0:0:0:0:
252,320,53113,1,0,0:0:0:0:
172,352,53439,1,0,0:0:0:0:
172,352,53602,2,0,L|68:340,1,83.9999974365235
44,248,54091,2,0,L|112:256,1,41.9999987182618
184,264,54417,6,0,P|196:200|192:148,1,83.9999974365235
264,240,55069,1,0,0:0:0:0:
264,240,55232,1,0,0:0:0:0:
264,240,55395,1,0,0:0:0:0:
264,240,55558,1,0,0:0:0:0:
264,240,55721,2,0,L|372:256,1,83.9999974365235
396,176,56211,2,0,L|336:176,1,35
464,100,56537,2,0,L|404:100,1,35
304,40,56863,2,0,L|248:40,1,35
128,112,57352,5,0,0:0:0:0:
96,184,57678,2,0,L|144:360,1,167.999994873047
264,320,58656,1,0,0:0:0:0:
336,360,58819,2,0,L|500:308,1,167.999994873047
484,204,59634,2,0,L|460:248,1,41.9999987182618
424,160,59961,1,0,0:0:0:0:
352,60,60287,1,0,0:0:0:0:
256,144,60939,1,0,0:0:0:0:
332,240,61591,1,0,0:0:0:0:
332,240,61754,2,0,L|224:284,1,83.9999974365235
256,144,62243,5,0,0:0:0:0:
184,300,62406,1,0,0:0:0:0:
184,300,62569,2,0,L|148:260,1,41.9999987182618
76,176,62895,6,0,P|132:188|176:184,1,70
136,84,63547,2,0,P|176:76|228:76,1,70
288,32,64200,2,0,P|324:64|344:108,1,70
280,252,64852,2,0,P|288:192|304:156,1,70
416,300,65504,2,0,P|400:248|376:212,1,70
184,344,66156,2,0,P|256:340|320:312,1,140
68,268,68439,5,0,0:0:0:0:
112,196,68765,1,0,0:0:0:0:
196,184,69091,1,0,0:0:0:0:
276,216,69417,2,0,P|336:216|372:200,1,70
344,213,70395,5,0,0:0:0:0:
371,294,70721,1,0,0:0:0:0:
371,294,71047,2,0,L|356:376,1,70
447,294,71700,2,0,L|460:220,1,70
456,140,72352,1,0,0:0:0:0:
384,96,72678,1,0,0:0:0:0:
300,108,73004,1,0,0:0:0:0:
232,160,73656,6,0,P|184:168|140:148,1,70
108,88,74308,2,0,P|52:84|8:92,1,70
48,168,74961,2,0,L|24:252,1,70
92,292,75613,1,0,0:0:0:0:
140,224,75939,2,0,L|228:224,1,70
280,176,76591,1,0,0:0:0:0:
276,92,76917,2,0,L|200:92,1,70
206,92,77895,6,0,L|276:92,1,70
356,64,78547,1,0,0:0:0:0:
296,220,79200,1,0,0:0:0:0:
460,192,79852,1,0,0:0:0:0:
460,192,80830,1,0,0:0:0:0:
392,240,81156,1,0,0:0:0:0:
308,224,81482,1,0,0:0:0:0:
200,120,81808,2,0,P|252:148|292:148,1,70
384,44,82461,6,0,L|364:96,1,41.9999987182618
308,224,83113,5,0,0:0:0:0:
308,224,83276,1,0,0:0:0:0:
261,149,83439,2,0,L|308:148,1,41.9999987182618
432,148,83765,6,0,P|448:180|436:216,1,41.9999987182618
372,304,84091,2,0,P|356:272|368:236,1,41.9999987182618
500,232,84417,37,0,0:0:0:0:
428,252,84743,21,0,0:0:0:0:
452,352,84906,2,0,L|440:300,1,41.9999987182618
340,268,85395,6,0,L|353:327,1,41.9999987182618
452,352,85721,1,0,0:0:0:0:
500,232,86047,2,0,L|444:248,1,41.9999987182618
316,168,86374,6,0,L|364:176,2,41.9999987182618
