osu file format v9

[General]
AudioFilename: 09. Azai Gonzou.mp3
AudioLeadIn: 0
PreviewTime: -1
Countdown: 1
SampleSet: Normal
StackLeniency: 0.7
Mode: 0
LetterboxInBreaks: 1

[Editor]
DistanceSpacing: 0.8
BeatDivisor: 4
GridSize: 8

[Metadata]
Title:Azai Gonzou
Artist:tiko -u-
Creator:BakaloidSky
Version:Hard
Source:Akabei Soft2
Tags:Akabei Soft2, G-senjou no maou, Marche Slave, Tchaikovsky

[Difficulty]
HPDrainRate:9
CircleSize:6
OverallDifficulty:8
ApproachRate:9
SliderMultiplier:1.8
SliderTickRate:2

[Events]
//Background and Video events
0,0,"azai gonzou.png"
//Break Periods
//Storyboard Layer 0 (Background)
//Storyboard Layer 1 (Fail)
//Storyboard Layer 2 (Pass)
//Storyboard Layer 3 (Foreground)
//Storyboard Sound Samples
//Background Colour Transformations
3,100,163,162,255

[TimingPoints]
242,633.345648387608,4,1,0,100,1,0

[HitObjects]
256,80,242,2,0,B|344:88|368:128|384:208,1,180
256,192,1192,1,0
256,304,1508,2,0,B|168:296|144:256|128:176,1,180
128,128,2458,2,0,B|160:88|208:80,1,90
272,80,3092,1,0
304,80,3250,1,0
336,80,3408,2,0,B|400:144,1,90
400,208,4042,1,0
336,208,4358,1,0
304,208,4517,1,0
272,208,4675,2,0,B|272:264|192:304,1,90
168,280,5308,1,0
168,200,5942,2,0,B|160:136|248:120,1,90
216,128,6575,1,0
344,200,7208,2,0,B|352:136|264:120,1,90
304,128,7842,1,0
256,192,8475,1,0
296,240,9108,2,0,B|256:280|216:240,2,90,8|8|8
312,64,10375,1,0
368,64,10692,2,0,B|440:80|416:168,1,90
424,176,11325,1,0
368,176,11642,1,0
344,176,11800,1,0
312,176,11958,2,0,B|312:232|365:238,1,90
368,296,12592,1,0
312,296,12908,1,0
280,296,13067,1,0
256,296,13225,2,0,B|232:288|224:256,2,45
256,240,13858,1,0
256,176,14175,2,0,B|208:176|160:208|152:248|160:304,1,180
160,296,15125,1,0
160,296,15442,1,0
104,296,15758,1,0
104,272,15917,1,0
104,248,16075,2,0,B|104:160|104:136|208:144,1,180
200,200,17025,1,0
200,224,17183,1,0
200,248,17342,1,0
280,248,17659,1,0
352,248,17975,2,0,B|368:128|272:96,1,180
160,192,19242,1,0
256,104,19559,1,0
352,192,19875,1,0
256,272,20192,1,0
256,280,20509,2,0,B|256:88,1,180
336,96,21459,1,0
360,112,21617,1,0
368,136,21775,1,0
368,200,22092,1,0
368,264,22409,1,0
360,288,22567,1,0
336,296,22725,1,0
256,116,23042,2,0,B|256:296,1,180
176,296,23992,1,0
176,296,24309,1,0
176,296,24625,2,0,B|128:272|128:216,1,90
128,144,25259,2,0,B|144:96|184:72,1,90
256,72,25892,1,0
280,72,26050,1,0
304,72,26209,1,0
368,144,26525,1,0
416,184,26842,1,0
416,184,27159,2,0,B|424:264|336:240|336:240,1,90
264,240,27792,2,0,B|208:232|192:312,1,90
88,216,28425,1,0
144,104,28742,1,0
272,160,29059,1,0
216,272,29375,1,0
424,192,30009,1,0
328,192,30642,2,0,B|272:264|240:264|176:184,1,180
160,112,31592,1,0
160,272,31909,1,0
360,272,32225,1,0
360,112,32542,1,0
186,195,33175,2,0,B|240:128|272:128|328:200,1,180
352,272,34125,1,0
352,112,34442,1,0
152,112,34759,1,0
152,272,35076,1,0
352,272,35709,2,0,B|432:192|336:96,1,180
160,112,36659,1,0
160,272,36976,1,0
352,112,37292,1,0
352,272,37609,1,0
72,336,38242,1,0
72,336,38559,1,0
72,336,38876,1,0
448,56,39509,1,0
448,56,39826,1,0
448,56,40142,1,0
256,192,40776,2,0,B|264:248|208:288,1,90
224,272,41409,1,0
256,192,41726,1,0
256,192,42042,2,0,B|312:184|352:240,1,90
337,221,42676,1,0
256,192,42992,1,0
256,192,43309,2,0,B|248:136|304:96,1,90
285,110,43942,1,0
256,192,44259,1,0
256,192,44576,2,0,B|200:200|160:144,1,90
174,162,45209,1,0
256,192,45526,1,0
176,296,45842,2,0,B|248:224|272:352|360:256,1,180
336,192,46792,1,0
256,192,47109,1,0
176,192,47426,1,0
336,96,47742,2,0,B|264:24|240:152|152:56,1,180
171,74,48692,1,0
171,74,49009,1,0
88,192,49326,1,0
112,192,49484,1,0
88,192,49642,1,0
112,192,49959,2,0,B|104:248|160:256,1,90
160,320,50592,1,0
168,320,50909,2,0,B|264:360|376:304,1,180
400,192,52176,1,0
384,192,52334,1,0
400,192,52493,1,0
384,192,52809,2,0,B|392:136|336:128,1,90
256,128,53443,2,0,B|208:144|176:200|208:256|256:264|256:264,1,180
384,312,54709,1,0
432,312,54868,1,0
408,280,55026,1,0
408,336,55343,2,0,B|296:336,1,90
257,263,55976,2,0,B|256:264|304:256|336:200|304:144|256:128,1,180
64,64,57243,1,0
112,64,57401,1,0
88,88,57559,1,0
88,40,57876,2,0,B|192:40,1,90
256,72,58509,2,0,B|320:72|368:104|368:160|368:208,1,180
312,192,59459,1,0
280,184,59618,1,0
256,184,59776,1,0
232,192,59934,1,0
216,208,60093,1,0
200,232,60251,1,0
192,256,60409,1,0
176,280,60568,1,0
144,288,60726,2,0,B|104:248|144:208,1,90
144,160,61359,2,0,B|88:112|176:64,1,90
216,88,61993,1,0
280,96,62309,1,0
312,104,62468,1,0
336,128,62626,1,0
376,176,62943,1,0
384,240,63259,2,0,B|368:288|320:312,1,90
272,312,63893,1,0
240,304,64051,1,0
216,288,64209,1,0
216,224,64526,2,0,B|208:168|136:152,1,90
136,144,65001,1,0
104,144,65159,2,0,B|88:184,4,45
152,96,66109,1,0
216,120,66426,1,0
240,144,66584,1,0
256,168,66743,1,0
256,232,67059,2,0,B|256:296|352:288,1,90
368,272,67693,1,0
368,248,67851,1,0
368,216,68009,1,0
256,192,68643,12,0,73393
480,224,73710,6,0,B|432:264|392:216,1,90
400,200,74185,5,0
400,176,74343,2,0,B|344:136|288:200,1,90
320,200,74818,1,0
320,224,74976,2,0,B|280:256|216:224|208:216,1,90
232,200,75451,1,0
232,176,75610,2,0,B|176:136|120:200,1,90
152,200,76085,1,0
152,224,76243,2,0,B|112:248|48:224,1,90
64,200,76718,1,0
72,176,76876,1,0
104,128,77193,1,0
128,112,77351,1,0
152,104,77510,1,0
208,120,77826,1,0
232,136,77985,1,0
240,160,78143,1,0
248,184,78301,1,0
264,208,78460,1,0
288,224,78618,1,0
312,232,78776,1,0
400,192,79410,1,0
256,184,80043,2,0,B|224:216,3,45
344,128,80993,1,0
424,72,81310,1,0
424,72,81943,1,0
424,304,82576,1,0
424,304,82893,1,0
424,304,83210,1,0
96,304,83843,1,0
96,304,84476,1,0
104,72,85110,1,0
104,72,85426,1,0
104,72,85743,1,0
256,192,86377,12,0,91127
256,192,91443,5,0
448,48,92077,1,0
448,320,92710,1,0
448,320,93027,1,0
448,320,93343,1,0
80,320,93977,1,0
80,320,94610,1,0
80,48,95243,1,0
80,48,95560,1,0
80,48,95877,1,0
256,56,96510,2,0,B|376:88|352:208|352:208,1,180
256,192,97460,1,0
256,328,97777,2,0,B|136:296|160:176|160:176,1,180
256,192,98727,1,0
256,328,99043,2,0,B|376:296|352:176|352:176,1,180
256,192,99993,1,0
256,56,100310,2,0,B|136:88|160:208|160:208,1,180
384,96,101577,1,0
440,96,101893,1,0
384,152,102210,2,0,B|336:152|320:208,1,90
320,264,102843,1,0
256,264,103160,2,0,B|200:256|200:200,2,90
256,200,104110,1,0
256,168,104269,1,0
256,144,104427,1,0
256,88,104744,2,0,B|200:96|192:168,1,90
200,200,105377,1,0
144,200,105694,2,0,B|88:216|96:288,2,90
144,144,106644,2,0,B|144:96|200:80,1,90
256,80,107277,1,0
280,80,107435,1,0
312,80,107594,1,0
312,192,108227,1,0
248,192,108544,2,0,B|192:192|184:264,1,90
184,304,109177,1,0
240,304,109494,1,0
352,192,110127,1,0
352,168,110285,1,0
352,136,110444,1,0
352,80,110760,2,0,B|288:80|296:152,1,90
256,192,111710,12,0,113927
448,56,114244,5,0
80,56,115510,1,0
72,336,116777,1,0
136,96,118044,1,0
360,96,118677,1,0
360,272,119310,1,0
136,272,119944,1,0
192,136,120577,1,0
312,136,121211,1,0
312,256,121844,1,0
200,256,122477,1,0
288,160,122794,1,0
224,160,123111,1,0
288,224,123427,1,0
224,224,123744,1,0
256,192,124061,1,0
256,192,124219,1,0
256,192,124377,2,0,B|248:280|288:320|368:320,1,180
352,256,125327,1,0
352,224,125486,1,0
352,200,125644,2,0,B|360:128|336:80|256:72,1,180
192,72,126594,1,0
128,72,126911,2,0,B|80:88|80:160,1,90
80,208,127544,1,0
80,272,127861,1,0
96,296,128019,1,0
112,312,128177,2,0,B|176:320|184:256|184:256,1,90
184,208,128811,1,0
184,152,129127,1,0
296,192,129444,1,0
296,248,129761,1,0
296,304,130077,2,0,B|392:320|384:176,1,180
384,144,131027,1,0
360,128,131186,1,0
336,120,131344,2,0,B|288:112|248:184,1,90
256,232,131977,2,0,B|200:296|128:240|88:176,1,180
104,144,132927,2,0,B|144:112|192:112,2,90
186,112,133877,1,0
208,112,134036,1,0
240,112,134194,1,0
320,48,134511,2,0,B|424:136|240:152|328:200|360:240|360:240,1,180
333,208,135461,1,0
152,336,135777,2,0,B|256:248|72:232|160:184|192:144|192:144,1,180
165,175,136727,1,0
208,120,137044,2,0,B|240:80|296:96,1,90
264,152,137678,2,0,B|336:160|352:224,1,90
232,200,138311,2,0,B|287:232|277:297,2,90
232,136,139261,1,0
288,136,139578,1,0
288,192,139894,2,0,B|296:240|344:264,1,90
392,264,140528,2,0,B|392:160,1,90
392,120,141161,1,0
336,120,141478,1,0
336,64,141794,1,0
280,64,142111,2,0,B|216:72|160:152|160:192,1,180
168,248,143061,1,0
184,272,143219,1,0
208,288,143378,1,0
304,288,143694,1,0
328,272,143853,1,0
352,248,144011,1,0
360,160,144328,1,0
296,112,144644,2,0,B|256:72|216:112|216:112,1,90
256,160,145278,1,0
256,184,145436,1,0
256,208,145594,1,0
216,248,145911,2,0,B|256:288|296:248|296:248,1,90
152,192,146544,1,0
296,247,146861,2,0,B|296:248|256:288|216:248,2,90
256,208,147811,1,0
256,184,147969,1,0
256,160,148128,1,0
216,128,148444,2,0,B|256:88|296:128|296:128,1,90
360,192,149078,1,0
360,240,149394,2,0,B|352:296|296:296,1,90
256,304,150028,1,0
256,192,150344,1,0
208,296,150661,2,0,B|152:288|152:232,1,90
152,192,151294,1,0
256,192,151611,1,0
152,136,151928,2,0,B|160:80|216:80,1,90
256,80,152561,1,0
312,88,152878,1,0
312,88,153036,1,0
312,88,153194,2,0,B|368:88|376:160,1,90
376,192,153828,1,0
320,192,154144,1,0
264,192,154461,1,0
264,248,154778,2,0,B|208:248|192:176,1,90
144,200,155411,1,0
144,144,155728,1,0
200,144,156045,2,0,B|200:88|264:88,1,90
312,88,156678,1,0
312,144,156995,1,0
256,192,157311,2,0,B|256:264|176:272,1,90
256,192,157945,2,0,B|184:192|176:112,1,90
256,192,158578,2,0,B|256:120|336:112,1,90
256,192,159211,2,0,B|328:192|336:272,1,90
400,192,159845,1,0
392,168,160003,1,0
376,152,160161,2,0,B|336:136,1,45
336,136,160478,2,0,B|280:152|264:216,1,90
256,304,161111,1,0
256,192,161745,1,0
112,192,162378,1,0
120,168,162536,1,0
136,152,162694,2,0,B|176:136,1,45
176,136,163011,2,0,B|232:152|248:216,1,90
256,192,163645,1,0
368,192,164278,1,0
368,128,164911,2,0,B|304:144|312:216,1,90
312,232,165545,1,0
264,248,165861,2,0,B|200:232|208:160,1,90
208,128,166495,1,0
264,128,166811,2,0,B|248:64|176:72,1,90
144,72,167445,1,0
144,128,167761,2,0,B|160:192|232:184,1,90
232,184,168236,1,0
256,184,168395,2,0,B|312:184|344:272,1,90
328,256,168870,1,0
328,296,169028,2,0,B|280:336|225:276,1,90
248,272,169503,1,0
248,248,169661,2,0,B|184:232|192:160,1,90
168,128,170295,1,0
344,128,170611,1,0
344,280,170928,1,0
168,280,171245,1,0
256,128,171561,1,0
344,280,171878,1,0
168,280,172195,1,0
