osu file format v7

[General]
AudioFilename: tieff - Sound of Night.mp3
AudioLeadIn: 0
PreviewTime: 72145
Countdown: 1
SampleSet: Soft
StackLeniency: 0.7
Mode: 0
LetterboxInBreaks: 1

[Editor]
DistanceSpacing: 1
BeatDivisor: 4
GridSize: 8

[Metadata]
Title:Sound of Night
Artist:tieff
Creator:tieff
Version:Normal
Source:
Tags:

[Difficulty]
HPDrainRate:5
CircleSize:4
OverallDifficulty:4
SliderMultiplier:1.6
SliderTickRate:2

[Events]
//Background and Video events
0,0,"98fbe4df4500e356d2a1f0822104056f.jpg"
//Break Periods
//Storyboard Layer 0 (Background)
//Storyboard Layer 1 (Fail)
//Storyboard Layer 2 (Pass)
//Storyboard Layer 3 (Foreground)
//Storyboard Sound Samples
//Background Colour Transformations
3,100,163,162,255

[TimingPoints]
40133,500,4,2,1,50,1,0
72020,-100,4,2,0,50,0,0
72270,-100,4,2,1,50,0,0
76020,-100,4,2,0,50,0,0
87020,-100,4,2,0,55,0,0
87270,-100,4,2,0,60,0,0
87520,-100,4,2,0,64,0,0
87770,-100,4,2,0,65,0,0
88020,-100,4,2,0,60,0,0
88270,-100,4,2,0,50,0,0
93145,-100,4,2,0,35,0,0
93395,-100,4,2,0,50,0,0
96020,-100,4,2,1,50,0,0
105520,-100,4,2,0,50,0,0
105895,-100,4,2,1,50,0,0
112270,-100,4,2,1,45,0,0
112520,-100,4,2,1,40,0,0
112770,-100,4,2,1,35,0,0
113020,-100,4,2,1,30,0,0
113270,-100,4,2,1,25,0,0
113520,-100,4,2,1,20,0,0

[Colours]
Combo1 : 128,128,192
Combo2 : 0,128,255
Combo3 : 0,128,255
Combo4 : 0,128,192

[HitObjects]
416,96,40133,2,0,B|328:80|248:80,1,160,4|2
176,88,40883,1,4
184,168,41133,2,0,B|184:224|176:256,1,80,8|2
256,272,41633,2,0,B|312:256|360:256,1,80,4|2
328,176,42133,6,4,B|320:120|320:80,1,80
400,88,42633,2,8,B|408:144|408:184,1,80,10|6
400,248,43133,2,0,B|312:256|208:288,2,160,8|4|4
480,256,44383,2,0,B|480:192|472:160,1,80,8|2
456,96,44883,1,4
384,128,45133,2,0,B|336:120|296:112,1,80,10|8
232,80,45633,2,0,B|224:144|216:176,1,80,4|8
288,200,46133,5,4
368,208,46383,1,4
360,288,46633,1,2
280,280,46883,1,2
200,272,47133,2,0,B|200:200|224:96,2,160,8|4|4
280,264,48383,5,0
304,184,48633,1,2
304,104,48883,1,2
320,24,49133,2,0,B|208:16|128:32,2,160,8|4|4
400,32,50383,1,4
392,112,50633,2,0,B|400:168|400:200,1,80,2|2
400,272,51133,1,8
336,328,51383,2,0,B|272:320|240:320,2,80,8|4|8
320,248,52133,6,0,B|336:176|336:80,1,160,4|2
256,80,52883,2,0,B|248:128|248:176,1,80,4|8
224,240,53383,2,0,B|152:240|120:248,2,80,8|4|0
304,248,54133,2,4,B|312:304|304:344,1,80
224,328,54633,2,4,B|168:320|144:320,1,80,8|4
64,328,55133,1,8
48,248,55383,2,0,B|56:200|56:160,2,80,8|4|8
128,232,56133,6,0,B|200:232|304:248,2,160,4|2|8
48,240,57383,1,0
40,160,57633,1,2
120,152,57883,1,2
200,160,58133,6,0,B|272:160|376:176,2,160,0|2|8
208,80,59383,1,0
128,72,59633,1,2
120,152,59883,1,2
112,232,60133,6,0,B|104:280|96:320,1,80,4|2
176,328,60633,2,0,B|232:320|288:328,1,80,4|2
336,336,61133,2,0,B|344:256|344:160,1,160,8|4
336,96,61883,1,2
256,88,62133,6,0,B|176:80|144:88,1,80,4|2
96,80,62633,1,4
88,160,62883,1,2
168,168,63133,2,0,B|288:176|352:168,2,160,8|4|4
152,248,64383,6,0,B|152:312|144:352,1,80,2|2
224,344,64883,2,0,B|352:336|400:320,1,160,4|8
464,336,65633,2,0,B|472:280|472:240,1,80,4|8
464,176,66133,5,4
456,96,66383,1,4
376,104,66633,1,2
384,184,66883,1,4
464,176,67133,2,0,B|392:176|288:192,1,160,8|4
232,216,67883,1,2
152,224,68133,6,0,B|152:288|144:320,1,80,4|0
64,312,68633,2,0,B|72:208|88:128,1,160,2|8
80,72,69383,1,2
160,88,69633,2,0,B|240:80|280:88,1,80,4|2
320,96,70133,6,0,B|304:192|312:296,2,160,4|4|8
392,64,71383,2,0,B|440:56|480:56,2,80,8|0|8
312,56,72133,6,0,B|256:48|136:48,1,160,4|2
72,64,72883,1,0
80,144,73133,1,8
160,136,73383,2,0,B|192:136|256:144,1,80,0|2
312,176,73883,1,0
392,160,74133,2,0,B|408:280|400:336,1,160,0|2
320,312,74883,1,0
240,304,75133,1,8
160,304,75383,1,0
80,312,75633,2,0,B|88:272|88:224,1,80,2|2
80,152,76133,6,0,B|120:144|256:144,1,160,4|2
320,160,76883,1,0
328,240,77133,1,8
408,232,77383,1,0
400,152,77633,2,0,B|392:88|384:64,1,80,2|0
304,64,78133,6,0,B|224:48|128:56,2,160,4|2|8
352,128,79383,2,0,B|392:208|320:288,1,160,2|2
248,288,80133,6,0,B|160:280|104:296,2,120,4|2|0
328,296,81133,2,0,B|384:288|472:296,2,120,8|0|2
248,312,82133,2,0,B|200:320|112:320,2,120,0|2|0
280,240,83133,2,0,B|288:152|256:64,2,160,8|2|4
168,208,84508,6,0,B|152:272|152:344,1,120,2|2
232,336,85133,2,0,B|280:328|360:336,1,120,8|2
472,328,85883,2,0,B|464:272|464:216,1,80,2|8
464,128,86508,1,2
344,120,86883,6,0,B|296:112|256:112,1,80,2|8
256,192,87383,2,0,B|248:248|240:280,1,80,2|0
160,280,87883,2,0,B|88:272|56:280,1,80,2|4
48,200,88383,6,0,B|48:144|32:112,2,80,2|0|2
128,208,89133,2,0,B|216:200|280:208,2,120,8|2|0
152,288,90133,2,0,B|160:224|160:152,1,120,0|2
136,48,90883,1,2
216,72,91133,2,0,B|296:72|368:88,1,120,8|0
456,88,91883,1,2
408,152,92133,2,0,B|400:208|408:280,2,120,2|2|4
408,152,93258,1,4
288,136,93633,5,0
208,128,93883,1,2
128,136,94133,2,0,B|72:128|-24:136,2,120,0|2|0
200,280,95383,2,2,B|256:256|368:272,1,160
256,192,96133,12,4,97133
256,192,98133,12,4,99133
424,112,100133,5,4
344,104,100383,2,0,B|280:112|256:120,1,80,2|8
192,136,100883,2,0,B|168:224|232:304,1,160,2|4
288,248,101633,2,0,B|280:184|264:144,1,80,8|2
256,88,102133,5,4
176,80,102383,2,0,B|112:88|88:96,1,80,2|8
24,112,102883,2,0,B|0:200|64:280,1,160,2|4
120,224,103633,2,0,B|112:160|96:120,1,80,8|2
104,64,104133,6,0,B|168:48|296:56,1,160,4|8
344,64,104883,1,2
336,144,105133,2,0,B|328:184|328:232,1,80,4|2
344,304,105633,2,0,B|224:304|152:320,1,160,8|4
104,296,106383,1,2
104,216,106633,1,8
96,136,106883,1,2
152,80,107133,2,0,B|208:80|240:88,1,80,4|4
224,168,107633,2,0,B|216:232|224:272,1,80,8|2
304,248,108133,2,0,B|368:240|488:248,2,160,4|8|4
224,264,109383,1,4
144,272,109633,6,0,B|152:144|136:96,1,160,8|4
216,88,110383,2,0,B|272:88|304:96,1,80,2|8
376,88,110883,1,2
416,160,111133,2,0,B|416:240|400:304,2,120,4|2|0
488,128,112133,5,0
408,136,112383,1,0
328,144,112633,1,0
248,144,112883,1,0
168,144,113133,1,0
88,152,113383,1,2
8,152,113633,1,2
