osu file format v7

[General]
AudioFilename: tieff - Sound of Night.mp3
AudioLeadIn: 0
PreviewTime: 72145
Countdown: 1
SampleSet: Soft
StackLeniency: 0.7
Mode: 0
LetterboxInBreaks: 1

[Editor]
DistanceSpacing: 1.20000004768372
BeatDivisor: 4
GridSize: 8

[Metadata]
Title:Sound of Night
Artist:tieff
Creator:tieff
Version:Easy
Source:
Tags:

[Difficulty]
HPDrainRate:3
CircleSize:3
OverallDifficulty:3
SliderMultiplier:1.3
SliderTickRate:1

[Events]
//Background and Video events
0,0,"98fbe4df4500e356d2a1f0822104056f.jpg"
//Break Periods
//Storyboard Layer 0 (Background)
//Storyboard Layer 1 (Fail)
//Storyboard Layer 2 (Pass)
//Storyboard Layer 3 (Foreground)
//Storyboard Sound Samples
//Background Colour Transformations
3,100,163,162,255

[TimingPoints]
40133,500,4,2,1,50,1,0
72020,-100,4,2,0,50,0,0
72270,-100,4,2,1,50,0,0
76020,-100,4,2,0,50,0,0
87020,-100,4,2,0,55,0,0
87270,-100,4,2,0,60,0,0
87520,-100,4,2,0,64,0,0
87770,-100,4,2,0,65,0,0
88020,-100,4,2,0,60,0,0
88270,-100,4,2,0,50,0,0
93145,-100,4,2,0,35,0,0
93395,-100,4,2,0,50,0,0
96020,-100,4,2,1,50,0,0
105520,-100,4,2,0,50,0,0
106008,-100,4,2,1,50,0,0
112270,-100,4,2,1,45,0,0
112520,-100,4,2,1,40,0,0
112770,-100,4,2,1,35,0,0
113020,-100,4,2,1,30,0,0
113270,-100,4,2,1,25,0,0
113520,-100,4,2,1,20,0,0

[Colours]
Combo1 : 128,128,192
Combo2 : 0,128,255
Combo3 : 0,128,255
Combo4 : 0,128,192

[HitObjects]
408,80,40133,2,0,B|304:72|256:80,1,130,4|2
120,88,41133,2,0,B|120:144|128:232,1,130,8|2
280,232,42133,6,0,B|360:224,1,65,4|4
408,72,43133,2,0,B|344:64|264:104,1,130,8|2
128,80,44133,6,0,B|120:152|120:224,1,130,4|2
272,248,45133,2,0,B|344:240|432:248,1,130,8|2
416,88,46133,5,4
184,88,46883,2,0,B|96:96,1,65,8|10
128,248,47633,1,2
272,256,48133,6,0,B|368:240|424:256,1,130,4|2
496,128,49133,2,0,B|488:176|488:272,1,130,8|2
360,168,50133,6,0,B|264:184|208:168,1,130,4|2
136,296,51133,2,0,B|144:248|144:152,1,130,8|2
136,72,52133,5,4
288,88,52633,1,2
272,240,53133,1,8
120,232,53633,1,2
152,136,54133,6,4,B|232:144,1,65
368,160,54883,1,8
360,240,55133,2,0,B|272:224|208:232,1,130,8|2
168,72,56133,6,0,B|112:184|168:336,1,260,4|8
256,192,57633,1,2
352,320,58133,2,0,B|408:208|352:56,1,260,4|8
256,192,59633,1,2
136,280,60133,6,0,B|248:336|400:280,1,260,4|8
256,192,61633,1,2
384,96,62133,2,0,B|272:40|120:96,1,260,4|8
256,192,63633,1,2
104,200,64133,5,4
104,200,64633,1,2
96,48,65133,2,0,B|200:48|248:56,1,130,8|2
384,64,66133,5,4
384,216,66633,1,4
232,192,67133,2,0,B|216:136|248:32,1,130,8|2
88,88,68133,6,0,B|144:80|232:80,1,130,4|2
376,80,69133,2,0,B|384:176|376:232,1,130,8|2
256,312,70133,5,4
264,160,70633,1,4
112,152,71133,1,8
96,304,71633,1,2
256,312,72133,6,0,B|360:280|480:296,1,195,4|2
464,216,73133,2,0,B|480:72,1,130,8|2
320,72,74133,6,0,B|216:104|96:88,1,195,4|2
112,168,75133,2,0,B|96:312,1,130,8|2
256,288,76133,6,0,B|320:264|480:256,1,195,4|2
480,176,77133,2,0,B|432:160|336:152,1,130,8|2
200,160,78133,6,0,B|176:224|184:296,2,130,0|2|8
256,104,79383,2,0,B|320:96|408:96,1,130,2|2
448,144,80133,6,0,B|472:288|296:336,1,260,0|8
64,240,82133,6,0,B|40:96|216:48,1,260,0|8
360,64,83633,1,2
352,216,84133,6,0,B|256:192|144:216,1,195,4|2
88,240,85133,2,0,B|40:168|56:96,1,130,8|2
208,96,86133,6,0,B|304:72|416:96,1,195,4|2
448,152,87133,2,0,B|456:240|416:296,1,130,8|2
272,272,88133,6,0,B|144:208|8:224,1,260,4|8
48,72,89633,1,2
200,104,90133,6,0,B|264:96|352:96,1,130,0|2
480,136,91133,2,0,B|472:184|472:288,1,130,8|2
320,256,92133,6,0,B|296:248|208:240,1,97.5,0|2
104,248,92883,2,4,B|104:200|128:136,1,97.5
192,64,93633,6,0,B|232:72|272:80,1,65,0|2
336,88,94133,2,0,B|368:152|352:232,2,130,0|2|8
264,128,95383,2,0,B|104:120,1,130,2|2
256,192,96133,12,4,100133
424,96,100633,5,8
272,104,101133,2,4,B|200:112,1,65
128,128,101633,2,0,B|88:192|144:272,1,130,8|4
256,152,102633,5,8
312,296,103133,2,4,B|384:288,1,65
456,272,103633,2,0,B|496:208|440:128,1,130,8|4
304,88,104633,5,8
152,104,105133,2,4,B|160:184,1,65
176,248,105633,2,0,B|216:240|336:240,1,130,12|4
384,248,106383,6,0,B|392:176,1,65,2|8
288,72,107133,1,4
208,80,107383,1,4
128,80,107633,2,0,B|112:152|112:232,1,130,8|4
264,256,108633,6,0,B|304:248|416:248,1,130,8|4
472,240,109383,1,4
464,160,109633,2,0,B|400:128|320:144,1,130,8|4
264,168,110383,2,0,B|192:192|120:176,1,130,2|2
64,144,111133,1,4
64,144,111383,1,4
56,224,111633,2,0,B|48:304|56:368,1,130,8|4
136,352,112383,6,0,B|208:344,1,65,0|0
272,312,112883,2,0,B|360:304,1,65
392,248,113383,2,0,B|480:240,1,65,2|2
