osu file format v11

[General]
AudioFilename: the pillows - Comic Sonic (TV Size).mp3
AudioLeadIn: 2000
PreviewTime: 45410
Countdown: 0
SampleSet: Soft
StackLeniency: 0.7
Mode: 0
LetterboxInBreaks: 0

[Editor]
Bookmarks: 610,7010,13410,26210,32610,45410,58210,79610
DistanceSpacing: 0.45
BeatDivisor: 4
GridSize: 4

[Metadata]
Title:Comic Sonic (TV Size)
TitleUnicode:
Artist:the pillows
ArtistUnicode:
Creator:GiNa
Version:Winber1's Insane
Source:SKET DANCE
Tags:gina91189 winber1 bossandy boss ending ed1
BeatmapID:164616
BeatmapSetID:37592

[Difficulty]
HPDrainRate:6
CircleSize:4
OverallDifficulty:7
ApproachRate:8
SliderMultiplier:1.8
SliderTickRate:2

[Events]
//Background and Video events
0,0,"sket dance.jpg"
Video,500,"Comic Sonic.avi"
//Break Periods
//Storyboard Layer 0 (Background)
//Storyboard Layer 1 (Fail)
//Storyboard Layer 2 (Pass)
//Storyboard Layer 3 (Foreground)
//Storyboard Sound Samples
//Background Colour Transformations
3,100,163,162,255

[TimingPoints]
612,400,4,2,1,85,1,0
7012,-100,4,2,1,75,0,0
7312,-100,4,2,1,5,0,0
7412,-100,4,2,1,75,0,0
8912,-100,4,2,1,5,0,0
9012,-100,4,2,1,75,0,0
10512,-100,4,2,1,5,0,0
10612,-100,4,2,1,75,0,0
12112,-100,4,2,1,5,0,0
12212,-100,4,2,1,75,0,0
13412,-100,4,1,0,55,0,0
13612,-100,4,2,1,75,0,0
19812,-100,4,1,0,55,0,0
20012,-100,4,2,1,75,0,0
26212,-100,4,2,1,65,0,0
32612,-100,4,1,0,55,0,0
32812,-100,4,2,1,75,0,0
39012,-100,4,1,0,55,0,0
39212,-100,4,2,1,75,0,0
42212,-100,4,1,0,55,0,0
42412,-100,4,2,1,75,0,0
45412,-100,4,1,0,80,0,1
45612,-100,4,2,1,90,0,1
56612,-100,4,2,1,90,0,0
58212,-100,4,2,1,90,0,1
74212,-100,4,2,1,85,0,0
80612,-100,4,2,1,90,0,0
86212,-100,4,1,1,80,0,0
86312,-100,4,2,1,80,0,0
88278,-100,4,2,1,80,0,0

[Colours]
Combo1 : 243,238,14
Combo2 : 36,251,106
Combo3 : 45,78,234
Combo4 : 255,21,21

[HitObjects]
104,292,612,1,8,0:0:0
104,292,712,1,8,0:0:0
104,292,812,1,8,0:0:0
104,292,912,1,8,0:0:0
104,292,1012,1,8,0:0:0
408,292,1412,5,8,0:0:0
408,292,1512,1,8,0:0:0
408,292,1612,1,8,0:0:0
408,292,1712,1,8,0:0:0
408,292,1812,1,8,0:0:0
245,43,2212,5,8,0:0:0
225,50,2312,1,8,0:0:0
209,63,2412,1,8,0:0:0
198,81,2512,1,8,0:0:0
195,102,2612,1,8,0:0:0
198,123,2712,1,8,0:0:0
209,141,2812,1,8,0:0:0
225,154,2912,1,8,0:0:0
245,162,3012,1,8,0:0:0
266,162,3112,1,8,0:0:0
286,155,3212,1,8,0:0:0
302,141,3312,1,8,0:0:0
312,123,3412,1,8,0:0:0
64,84,3812,5,8,0:0:0
76,104,3912,1,8,0:0:0
88,124,4012,2,8,B|120:172,2,45
448,84,4612,5,8,0:0:0
436,104,4712,1,8,0:0:0
424,124,4812,2,8,B|392:172,2,45
145,255,5412,5,8,0:0:0
152,281,5512,1,8,0:0:0
164,305,5612,1,8,0:0:0
182,325,5712,1,8,0:0:0
204,341,5812,1,8,0:0:0
230,350,5912,1,8,0:0:0
256,354,6012,1,8,0:0:0
283,350,6112,1,8,0:0:0
309,341,6212,1,8,0:0:0
331,325,6312,1,8,0:0:0
349,305,6412,1,8,0:0:0
361,281,6512,1,8,0:0:0
368,255,6612,1,8,0:0:0
256,248,7012,6,0,B|256:104,1,135,4|0,0:0|0:0,0:0:0
256,80,7412,1,8,0:0:0
356,40,7612,2,0,B|392:128|496:140,1,180,2|2,0:0|0:0,0:0:0
456,240,8212,2,0,B|488:280|480:324,1,90,10|0,0:0|0:0,0:0:0
316,364,8612,6,0,B|184:328,1,135
154,320,9012,1,8,0:0:0
52,356,9212,2,0,B|-8:288|8:184,1,180,2|2,0:0|0:0,0:0:0
84,112,9812,2,0,B|172:132,1,90,10|0,0:0|0:0,0:0:0
408,52,10212,6,0,B|340:56|304:128,1,135
280,200,10612,2,0,B|308:288,1,90,8|2,0:0|0:0,0:0:0
280,200,11212,2,0,B|184:200,1,90,2|10,0:0|0:0,0:0:0
80,200,11612,1,0,0:0:0
124,356,11812,6,0,B|172:304|248:316,1,135
320,328,12212,2,0,B|408:296,1,90,8|2,0:0|0:0,0:0:0
328,344,12812,2,0,B|416:312,1,90,2|10,0:0|0:0,0:0:0
492,240,13212,1,0,0:0:0
388,144,13412,5,4,0:0:0
396,36,13612,2,0,B|300:48,1,90,0|8,0:0|0:0,0:0:0
204,80,14012,1,2,0:0:0
104,36,14212,2,0,B|32:28|-8:104|28:164,2,180,0|8|0,0:0|0:0|0:0,0:0:0
128,140,15212,2,0,B|152:232,1,90,0|8,0:0|0:0,0:0:0
64,292,15612,2,0,B|108:240|196:268|200:336,1,180,2|2,0:0|0:0,0:0:0
199,333,16212,1,8,0:0:0
199,333,16412,1,0,0:0:0
336,208,16612,6,0,B|356:296,1,90
440,232,17012,2,0,B|420:144,1,90,8|2,0:0|0:0,0:0:0
484,56,17412,1,0,0:0:0
376,40,17612,1,2,0:0:0
268,28,17812,2,0,B|96:84,1,180,8|0,0:0|0:0,0:0:0
96,83,18412,1,0,0:0:0
64,284,18612,1,8,0:0:0
156,192,18812,2,0,B|328:136,1,180,2|2,0:0|0:0,0:0:0
412,72,19412,2,0,B|464:76|488:120,1,90,10|0,0:0|0:0,0:0:0
460,276,19812,5,4,0:0:0
356,252,20012,2,0,B|304:252|280:296,1,90,0|8,0:0|0:0,0:0:0
188,348,20412,2,0,B|140:360|104:320,2,90,0|0|2,0:0|0:0|0:0,0:0:0
180,240,21012,2,0,B|212:168|212:168|188:124|208:68,1,180,10|0,0:0|0:0,0:0:0
207,69,21612,1,0,0:0:0
308,112,21812,1,8,0:0:0
100,124,22012,1,2,0:0:0
100,124,22412,1,0,0:0:0
48,220,22612,2,0,B|68:312,1,90,10|0,0:0|0:0,0:0:0
208,356,23012,5,0,0:0:0
244,256,23212,1,0,0:0:0
336,196,23412,1,8,0:0:0
444,216,23612,1,2,0:0:0
508,300,23812,1,0,0:0:0
444,216,24012,2,0,B|408:120|488:44,1,180,8|2,0:0|0:0,0:0:0
308,96,24612,1,0,0:0:0
308,96,24812,2,0,B|232:32|132:68,1,180,8|2,0:0|0:0,0:0:0
64,144,25412,1,0,0:0:0
100,244,25612,2,0,B|108:340,2,90,2|8|2,0:0|0:0|0:0,0:0:0
264,268,26212,6,0,B|292:308|340:316,1,90,4|0,0:0|0:0,0:0:0
348,208,26612,1,8,0:0:0
440,152,26812,2,0,B|476:60,1,90,2|0,0:0|0:0,0:0:0
472,68,27212,1,2,0:0:0
336,32,27412,2,0,B|300:124,1,90,10|0,0:0|0:0,0:0:0
200,144,27812,5,0,0:0:0
108,92,28012,1,0,0:0:0
36,172,28212,2,0,B|28:224|60:256,1,90,8|2,0:0|0:0,0:0:0
36,360,28612,1,0,0:0:0
140,332,28812,2,0,B|232:300,2,90,2|10|0,0:0|0:0|0:0,0:0:0
328,360,29412,6,0,B|376:352|412:380,1,90,4|0,0:0|0:0,0:0:0
504,324,29812,1,8,0:0:0
432,244,30012,2,0,B|412:152,1,90,2|0,0:0|0:0,0:0:0
452,56,30412,1,2,0:0:0
344,72,30612,1,10,0:0:0
344,72,30812,1,0,0:0:0
192,24,31012,6,0,B|84:20|48:120,1,180,2|8,0:0|0:0,0:0:0
116,200,31612,1,2,0:0:0
68,296,31812,2,0,B|124:368,1,90,0|2,0:0|0:0,0:0:0
216,312,32212,2,0,B|304:340,1,90,10|0,0:0|0:0,0:0:0
384,268,32612,5,4,0:0:0
356,164,32812,2,0,B|384:80,1,90,0|8,0:0|0:0,0:0:0
464,196,33212,1,0,0:0:0
384,268,33412,2,0,B|320:285|253:246|253:171,2,180,0|8|2,0:0|0:0|0:0,0:0:0
480,320,34412,1,0,0:0:0
384,268,34612,1,8,0:0:0
224,344,34812,2,0,B|44:316,1,180,2|2,0:0|0:0,0:0:0
24,212,35412,1,8,0:0:0
24,212,35612,1,0,0:0:0
80,120,35812,6,0,B|168:140,1,90
268,100,36212,2,0,B|316:120|324:168,1,90,8|2,0:0|0:0,0:0:0
388,80,36612,1,0,0:0:0
488,116,36812,1,2,0:0:0
428,204,37012,2,0,B|316:192|280:292,1,180,10|0,0:0|0:0,0:0:0
188,336,37612,1,0,0:0:0
80,324,37812,1,8,0:0:0
12,240,38012,2,0,B|-12:140|68:80,1,180,2|2,0:0|0:0,0:0:0
168,44,38612,2,0,B|252:104,1,90,10|0,0:0|0:0,0:0:0
428,40,39012,5,4,0:0:0
412,148,39212,2,0,B|360:148|336:104,1,90,0|8,0:0|0:0,0:0:0
272,192,39612,2,0,B|224:180|188:220,2,90,0|0|2,0:0|0:0|0:0,0:0:0
160,148,40212,2,0,B|192:220|192:220|168:264|188:320,1,180,10|0,0:0|0:0,0:0:0
276,380,40812,1,0,0:0:0
304,276,41012,1,8,0:0:0
392,340,41212,1,2,0:0:0
392,340,41612,1,0,0:0:0
476,272,41812,2,0,B|456:180,1,90,10|0,0:0|0:0,0:0:0
352,40,42212,5,4,0:0:0
256,96,42412,1,0,0:0:0
160,40,42612,1,8,0:0:0
256,96,42812,1,2,0:0:0
256,200,43012,1,0,0:0:0
172,304,43212,2,0,B|256:360|340:304,1,180,8|8,0:0|0:0,0:0:0
340,80,43812,2,0,B|256:24|172:80,1,180,8|4,0:0|0:0,0:0:0
256,224,44612,5,8,0:0:0
256,204,44712,1,8,0:0:0
256,184,44812,1,8,0:0:0
256,164,44912,1,8,0:0:0
256,144,45012,1,8,0:0:0
256,124,45112,1,8,0:0:0
256,104,45212,1,8,0:0:0
256,84,45312,1,8,0:0:0
256,64,45412,5,4,0:0:0
356,20,45612,1,0,0:0:0
404,116,45812,1,8,0:0:0
308,164,46012,2,0,B|308:252,1,90
308,360,46412,1,0,0:0:0
404,308,46612,2,0,B|452:304|484:344,2,90,8|0|0,0:0|0:0|0:0,0:0:0
308,256,47212,1,0,0:0:0
212,308,47412,2,0,B|112:344,1,90,8|0,0:0|0:0,0:0:0
28,292,47812,1,0,0:0:0
28,292,47912,1,8,0:0:0
96,140,48112,1,0,0:0:0
96,140,48212,1,8,0:0:0
44,44,48412,1,8,0:0:0
44,44,48512,1,8,0:0:0
44,44,48612,6,0,B|84:20|132:36,1,90,4|0,0:0|0:0,0:0:0
232,76,49012,2,0,B|320:40,1,90,8|0,0:0|0:0,0:0:0
216,184,49412,2,0,B|128:220,1,90
64,304,49812,1,8,0:0:0
172,320,50012,1,0,0:0:0
324,264,50212,2,0,B|352:224|344:172,2,90,0|0|8,0:0|0:0|0:0,0:0:0
392,348,50812,1,0,0:0:0
476,116,51012,1,0,0:0:0
476,116,51112,2,0,B|436:88|388:104,1,90,8|0,0:0|0:0,0:0:0
340,124,51412,1,8,0:0:0
200,48,51612,1,8,0:0:0
180,56,51712,1,8,0:0:0
160,64,51812,6,0,B|120:48|72:48,1,90,4|0,0:0|0:0,0:0:0
32,148,52212,2,0,B|44:188|40:244,1,90,8|0,0:0|0:0,0:0:0
108,320,52612,1,0,0:0:0
160,224,52812,1,0,0:0:0
108,320,53012,1,8,0:0:0
216,328,53212,1,0,0:0:0
216,328,53312,1,0,0:0:0
216,328,53412,2,0,B|264:324|304:352,1,90
408,336,53812,2,0,B|388:244,1,90,8|0,0:0|0:0,0:0:0
500,264,54212,1,0,0:0:0
476,156,54412,1,8,0:0:0
472,140,54512,1,0,0:0:0
468,124,54612,1,8,0:0:0
444,20,54812,1,8,0:0:0
256,192,55012,12,2,56412,0:0:0
256,56,56812,5,2,0:0:0
200,148,57012,1,8,0:0:0
312,148,57212,1,8,0:0:0
355,237,57412,6,8,B|387:273,1,45
294,280,57612,2,8,B|306:328,1,45
218,282,57812,2,8,B|206:330,1,45
156,237,58012,2,8,B|124:277,1,45
52,252,58212,6,0,B|60:204|44:160,1,90,4|0,0:0|0:0,0:0:0
8,60,58612,1,8,0:0:0
8,60,58812,1,0,0:0:0
160,208,59012,2,0,B|144:256|152:304,1,90
252,260,59412,1,8,0:0:0
252,260,59612,1,0,0:0:0
328,336,59812,2,0,B|368:272|448:276,1,135,0|0,0:0|0:0,0:0:0
476,232,60212,2,0,B|476:188|452:140,1,90,8|0,0:0|0:0,0:0:0
372,76,60612,1,0,0:0:0
372,76,60712,1,8,0:0:0
208,132,60912,1,0,0:0:0
208,132,61012,1,8,0:0:0
132,72,61212,1,8,0:0:0
116,64,61312,1,8,0:0:0
100,56,61412,6,0,B|92:104|72:144,1,90,4|0,0:0|0:0,0:0:0
4,224,61812,2,0,B|32:264|36:312,1,90,8|0,0:0|0:0,0:0:0
136,344,62212,1,0,0:0:0
120,236,62412,1,0,0:0:0
220,272,62612,2,0,B|268:276|296:320,2,90,8|0|0,0:0|0:0|0:0,0:0:0
292,192,63212,2,0,B|388:176,1,90,0|8,0:0|0:0,0:0:0
480,220,63612,1,0,0:0:0
380,177,63812,1,0,0:0:0
380,177,63912,1,8,0:0:0
456,40,64112,1,0,0:0:0
456,40,64212,1,8,0:0:0
352,64,64412,1,8,0:0:0
336,60,64512,1,8,0:0:0
320,56,64612,5,4,0:0:0
256,192,64812,1,0,0:0:0
192,56,65012,1,8,0:0:0
192,328,65412,5,0,0:0:0
256,192,65612,1,0,0:0:0
320,328,65812,1,8,0:0:0
256,192,66012,1,0,0:0:0
128,232,66212,2,0,B|84:252|64:300,1,90
128,152,66612,2,0,B|84:132|64:84,1,90,8|0,0:0|0:0,0:0:0
52,192,67012,1,0,0:0:0
164,64,67212,1,8,0:0:0
204,84,67312,1,0,0:0:0
216,128,67412,1,8,0:0:0
348,64,67612,1,8,0:0:0
308,84,67712,1,0,0:0:0
296,128,67812,1,4,0:0:0
256,192,67912,12,2,69212,0:0:0
448,204,69612,5,2,0:0:0
372,317,69812,1,8,0:0:0
256,244,70012,1,8,0:0:0
140,317,70212,1,8,0:0:0
64,204,70412,1,2,0:0:0
176,126,70612,1,8,0:0:0
336,126,70812,1,8,0:0:0
256,192,71012,12,2,72412,0:0:0
402,107,72812,5,2,0:0:0
419,235,73012,1,8,0:0:0
340,338,73212,1,8,0:0:0
212,355,73412,1,8,0:0:0
109,276,73612,1,0,0:0:0
92,148,73812,1,8,0:0:0
171,45,74012,1,8,0:0:0
200,192,74212,5,8,0:0:0
200,192,74312,1,8,0:0:0
200,192,74412,1,8,0:0:0
200,192,74512,1,8,0:0:0
200,192,74612,1,8,0:0:0
312,192,75012,5,8,0:0:0
312,192,75112,1,8,0:0:0
312,192,75212,1,8,0:0:0
312,192,75312,1,8,0:0:0
312,192,75412,1,8,0:0:0
308,352,75812,5,8,0:0:0
315,332,75912,1,8,0:0:0
315,311,76012,1,8,0:0:0
309,291,76112,1,8,0:0:0
294,275,76212,1,8,0:0:0
276,264,76312,1,8,0:0:0
256,261,76412,1,8,0:0:0
235,265,76512,1,8,0:0:0
216,275,76612,1,8,0:0:0
203,291,76712,1,8,0:0:0
195,311,76812,1,8,0:0:0
196,332,76912,1,8,0:0:0
203,351,77012,1,8,0:0:0
76,88,77412,6,8,B|52:32,2,45
84,108,77712,1,8,0:0:0
92,128,77812,1,8,0:0:0
436,88,78212,6,8,B|460:32,2,45
428,108,78512,1,8,0:0:0
420,128,78612,1,8,0:0:0
179,273,79012,5,8,0:0:0
205,248,79112,1,8,0:0:0
217,213,79212,1,8,0:0:0
216,176,79312,1,8,0:0:0
207,139,79412,2,8,B|186:97,1,45
256,80,79612,2,8,B|256:28,1,45
305,139,79812,1,8,0:0:0
295,177,79912,1,8,0:0:0
294,214,80012,1,8,0:0:0
306,249,80112,1,8,0:0:0
332,274,80212,1,8,0:0:0
448,320,80612,5,8,0:0:0
456,276,80712,1,8,0:0:0
464,232,80812,1,8,0:0:0
472,188,80912,1,8,0:0:0
480,144,81012,1,8,0:0:0
64,320,81412,5,8,0:0:0
56,276,81512,1,8,0:0:0
48,232,81612,1,8,0:0:0
40,188,81712,1,8,0:0:0
32,144,81812,1,8,0:0:0
311,267,82212,5,8,0:0:0
270,284,82312,1,8,0:0:0
225,280,82412,1,8,0:0:0
187,256,82512,1,8,0:0:0
165,217,82612,1,8,0:0:0
164,172,82712,1,8,0:0:0
183,131,82812,1,8,0:0:0
220,105,82912,1,8,0:0:0
264,98,83012,1,8,0:0:0
307,113,83112,1,8,0:0:0
337,145,83212,1,8,0:0:0
349,189,83312,1,8,0:0:0
340,233,83412,1,8,0:0:0
256,192,83812,5,8,0:0:0
300,192,83912,1,8,0:0:0
344,192,84012,1,8,0:0:0
388,192,84112,1,8,0:0:0
432,192,84212,1,8,0:0:0
256,192,84612,5,8,0:0:0
212,192,84712,1,8,0:0:0
168,192,84812,1,8,0:0:0
124,192,84912,1,8,0:0:0
80,192,85012,1,8,0:0:0
256,336,85412,5,8,0:0:0
292,308,85512,1,8,0:0:0
308,264,85612,1,8,0:0:0
292,220,85712,1,8,0:0:0
256,192,85812,1,8,0:0:0
220,156,85912,1,8,0:0:0
204,112,86012,1,8,0:0:0
220,68,86112,1,8,0:0:0
256,40,86212,1,4,0:0:0
256,192,86312,12,12,88278,0:0:0
