osu file format v11

[General]
AudioFilename: the pillows - Comic Sonic (TV Size).mp3
AudioLeadIn: 2000
PreviewTime: 45410
Countdown: 0
SampleSet: Soft
StackLeniency: 0.7
Mode: 0
LetterboxInBreaks: 0

[Editor]
DistanceSpacing: 1
BeatDivisor: 2
GridSize: 4

[Metadata]
Title:Comic Sonic (TV Size)
TitleUnicode:
Artist:the pillows
ArtistUnicode:
Creator:GiNa
Version:Normal
Source:SKET DANCE
Tags:gina91189 winber1 bossandy boss ending ed1
BeatmapID:120774
BeatmapSetID:37592

[Difficulty]
HPDrainRate:4
CircleSize:4
OverallDifficulty:4
ApproachRate:5
SliderMultiplier:1.1
SliderTickRate:2

[Events]
//Background and Video events
0,0,"sket dance.jpg"
Video,500,"Comic Sonic.avi"
//Break Periods
//Storyboard Layer 0 (Background)
//Storyboard Layer 1 (Fail)
//Storyboard Layer 2 (Pass)
//Storyboard Layer 3 (Foreground)
//Storyboard Sound Samples
//Background Colour Transformations
3,100,163,162,255

[TimingPoints]
612,400,4,2,1,85,1,0
7012,-100,4,2,1,75,0,0
13412,-100,4,1,0,55,0,0
13812,-100,4,2,1,75,0,0
19812,-100,4,1,0,55,0,0
20012,-100,4,2,1,75,0,0
21812,-100,4,2,2,65,0,0
22012,-100,4,2,1,75,0,0
26212,-100,4,2,1,65,0,0
32612,-100,4,1,0,55,0,0
32812,-100,4,2,1,75,0,0
39012,-100,4,1,0,55,0,0
39412,-100,4,2,1,75,0,0
41012,-100,4,2,2,65,0,0
41212,-100,4,2,1,75,0,0
42212,-100,4,1,0,55,0,0
42612,-100,4,2,1,75,0,0
45412,-100,4,2,0,80,0,1
45812,-100,4,2,1,90,0,1
55412,-100,4,2,2,80,0,1
55612,-100,4,2,1,90,0,1
56612,-100,4,2,1,90,0,0
58212,-100,4,2,1,90,0,1
68212,-100,4,2,2,80,0,1
68412,-100,4,2,1,90,0,1
73812,-100,4,2,0,80,0,1
74212,-100,4,2,1,85,0,0
80612,-100,4,2,1,90,0,0
88278,-100,4,2,1,80,0,0

[Colours]
Combo1 : 243,238,14
Combo2 : 36,251,106
Combo3 : 45,78,234
Combo4 : 255,21,21

[HitObjects]
104,136,612,2,0,B|120:104|152:96,2,55,2|0|2,0:0|0:0|0:0,0:0:0
104,248,1412,2,0,B|120:280|152:284,2,55,2|0|2,0:0|0:0|0:0,0:0:0
200,192,2212,2,0,B|312:192,2,110,2|2|2,0:0|0:0|0:0,0:0:0
256,288,3412,1,2,0:0:0
312,384,3812,6,0,B|372:384,2,55,2|0|2,0:0|0:0|0:0,0:0:0
202,384,4612,2,0,B|147:384,2,55,2|0|2,0:0|0:0|0:0,0:0:0
256,288,5412,2,0,B|256:172,1,110,2|2,0:0|0:0,0:0:0
184,256,6212,1,2,0:0:0
140,288,6412,1,0,0:0:0
88,304,6612,1,2,0:0:0
84,192,7012,5,4,0:0:0
116,88,7412,2,0,B|156:124,1,55,8|0,0:0|0:0,0:0:0
260,164,8012,2,0,B|228:208,2,55,2|2|0,0:0|0:0|0:0,0:0:0
312,144,8612,5,2,0:0:0
416,188,9012,2,0,B|428:216|416:244,1,55,8|0,0:0|0:0,0:0:0
332,312,9612,2,0,B|304:324|276:312,2,55,2|2|0,0:0|0:0|0:0,0:0:0
332,256,10212,5,2,0:0:0
228,216,10612,2,0,B|144:184|60:216,2,165,8|0|2,0:0|0:0|0:0,0:0:0
324,160,12212,1,8,0:0:0
324,160,12412,1,0,0:0:0
228,216,12812,2,0,B|172:208|132:168,1,110,2|0,0:0|0:0,0:0:0
104,120,13412,6,0,B|156:92|208:92,2,110,4|8|0,0:0|0:0|0:0,0:0:0
104,230,14612,2,0,B|156:258|208:258,2,110,8|0|8,0:0|0:0|0:0,0:0:0
88,176,15612,1,0,0:0:0
352,100,16612,6,0,B|404:64|464:104,1,110,0|8,0:0|0:0,0:0:0
408,200,17412,2,0,B|460:236|520:196,2,110,0|8|0,0:0|0:0|0:0,0:0:0
460,104,18612,2,0,B|416:72,1,55,8|0,0:0|0:0,0:0:0
200,264,19812,6,0,B|160:224,2,55,4|0|8,0:0|0:0|0:0,0:0:0
256,260,20412,1,0,0:0:0
308,244,20612,2,0,B|356:216|376:144,1,110,0|8,0:0|0:0,0:0:0
264,144,21412,2,0,B|212:76|116:76,1,165,0|0,0:0|0:0,0:0:0
84,180,22412,2,0,B|84:220|64:240,2,55,0|8|0,0:0|0:0|0:0,0:0:0
139,180,23012,6,0,B|140:240|168:288,1,110,0|8,0:0|0:0,0:0:0
244,363,23812,2,0,B|300:380|356:363,1,110,0|8,0:0|0:0,0:0:0
431,285,24612,2,0,B|440:228|431:173,1,110,0|8,0:0|0:0,0:0:0
420,120,25212,1,0,0:0:0
168,216,26212,5,4,0:0:0
268,168,26612,2,0,B|332:152|416:212|432:284,1,220,8|2,0:0|0:0,0:0:0
392,320,27612,1,0,0:0:0
352,284,27812,2,0,B|320:236|256:236,1,110,2|8,0:0|0:0,0:0:0
204,240,28412,1,0,0:0:0
272,328,28812,2,0,B|216:328,2,55,0|2|0,0:0|0:0|0:0,0:0:0
300,280,29412,6,0,B|288:224|324:176,1,110,4|8,0:0|0:0,0:0:0
380,168,30012,2,0,B|340:84|248:72,1,165,0|2,0:0|0:0,0:0:0
200,76,30812,1,0,0:0:0
152,104,31012,2,0,B|128:156|152:216,1,110,2|8,0:0|0:0,0:0:0
184,252,31612,1,0,0:0:0
288,216,32012,2,0,B|295:187|316:167,2,55,0|2|0,0:0|0:0|0:0,0:0:0
288,271,32612,6,0,B|288:327,2,55,4|0|8,0:0|0:0|0:0,0:0:0
380,212,33412,2,0,B|412:164|380:108,2,110,0|8|0,0:0|0:0|0:0,0:0:0
280,160,34612,2,0,B|168:160,1,110,8|0,0:0|0:0,0:0:0
124,268,35412,1,8,0:0:0
99,153,35812,6,0,B|111:89|179:89,2,110,0|8|0,0:0|0:0|0:0,0:0:0
200,196,37012,2,0,B|256:216|316:192,1,110,8|0,0:0|0:0,0:0:0
220,128,37812,2,0,B|240:72|216:12,1,110,8|0,0:0|0:0,0:0:0
128,80,38612,1,8,0:0:0
48,152,39012,6,0,B|96:256,1,110,4|8,0:0|0:0,0:0:0
188,308,39812,2,0,B|240:324|300:308,1,110,0|8,0:0|0:0,0:0:0
244,212,40612,2,0,B|324:184|412:212,2,165,0|0|8,0:0|0:0|0:0,0:0:0
216,104,42212,6,0,B|172:64|104:84,1,110,4|8,0:0|0:0,0:0:0
148,188,43012,2,0,B|108:232|128:300,1,110,0|8,0:0|0:0,0:0:0
228,328,43812,2,0,B|272:368|340:348,1,110,0|8,0:0|0:0,0:0:0
368,248,44612,2,0,B|368:192,1,55,2|2,0:0|0:0,0:0:0
423,193,45012,2,0,B|423:137,1,55,8|2,0:0|0:0,0:0:0
368,138,45412,5,4,0:0:0
388,32,45812,1,8,0:0:0
284,64,46212,2,0,B|244:120|276:176,1,110,0|8,0:0|0:0,0:0:0
324,180,46812,1,0,0:0:0
284,220,47012,2,0,B|264:280|224:312,1,110,0|8,0:0|0:0,0:0:0
144,236,47812,2,0,B|124:176|84:144,1,110,0|8,0:0|0:0,0:0:0
176,84,48612,6,0,B|288:84,1,110,4|8,0:0|0:0,0:0:0
392,104,49412,2,0,B|436:156|392:204,1,110,0|8,0:0|0:0,0:0:0
316,276,50212,2,0,B|256:276,2,55,0|0|8,0:0|0:0|0:0,0:0:0
296,328,50812,2,0,B|212:360|132:332,1,165,0|8,0:0|0:0,0:0:0
96,228,51812,6,0,B|56:180|96:124,1,110,4|8,0:0|0:0,0:0:0
204,126,52612,2,0,B|243:173|203:229,1,110,0|8,0:0|0:0,0:0:0
148,132,53412,2,0,B|148:16,1,110,0|8,0:0|0:0,0:0:0
203,22,54012,2,0,B|271:22,1,55
296,124,54612,1,8,0:0:0
404,96,55012,6,0,B|446:128|454:187|418:258|347:295|288:286|248:235,1,330,4|8,0:0|0:0,0:0:0
216,192,56412,2,0,B|184:148,1,55
216,40,57012,1,8,0:0:0
108,68,57412,2,0,B|108:124,1,55,2|2,0:0|0:0,0:0:0
53,123,57812,2,0,B|53:183,1,55,8|2,0:0|0:0,0:0:0
53,233,58212,6,0,B|109:233,2,55,4|0|8,0:0|0:0|0:0,0:0:0
76,284,58812,1,0,0:0:0
124,308,59012,2,0,B|164:348|232:340,2,110,0|8|0,0:0|0:0|0:0,0:0:0
16,320,60212,1,8,0:0:0
16,320,60412,2,0,B|44:240|120:188,1,165,0|8,0:0|0:0,0:0:0
196,117,61412,5,4,0:0:0
196,117,61612,1,0,0:0:0
196,117,61812,2,0,B|276:40,1,110,8|0,0:0|0:0,0:0:0
320,76,62412,1,0,0:0:0
360,112,62612,6,0,B|440:188,1,110,8|0,0:0|0:0,0:0:0
352,256,63412,2,0,B|280:344,1,110,8|0,0:0|0:0,0:0:0
268,232,64212,1,8,0:0:0
268,124,64612,5,4,0:0:0
268,124,65012,1,8,0:0:0
172,180,65412,1,0,0:0:0
172,180,65812,1,8,0:0:0
64,180,66212,6,0,B|52:240|100:284,1,110,0|8,0:0|0:0,0:0:0
144,308,66812,1,0,0:0:0
252,320,67212,1,0,0:0:0
308,312,67412,1,8,0:0:0
284,204,67812,6,0,B|320:108|248:32|120:32|84:112,1,330,4|8,0:0|0:0,0:0:0
84,166,69212,2,0,B|84:226,1,55
180,272,69812,1,8,0:0:0
256,192,70212,6,0,B|284:204|316:192,1,55,2|2,0:0|0:0,0:0:0
328,140,70612,2,0,B|300:128|268:140,1,55,8|2,0:0|0:0,0:0:0
220,148,71012,1,4,0:0:0
256,192,71212,12,0,73812,0:0:0
124,288,74212,21,4,0:0:0
228,288,74612,1,2,0:0:0
292,200,75012,2,0,B|312:180|344:184,1,55,2|0,0:0|0:0,0:0:0
396,200,75412,1,2,0:0:0
344,104,75812,6,0,B|344:32|280:20,2,110,2|2|2,0:0|0:0|0:0,0:0:0
232,112,77012,1,2,0:0:0
148,184,77412,2,0,B|148:296,1,110,2|2,0:0|0:0,0:0:0
38,294,78212,2,0,B|38:178,1,110,2|2,0:0|0:0,0:0:0
92,88,79012,2,0,B|144:44|192:88,2,110,2|2|2,0:0|0:0|0:0,0:0:0
56,128,80012,1,0,0:0:0
44,184,80212,1,2,0:0:0
152,156,80612,6,0,B|208:156,1,55,2|0,0:0|0:0,0:0:0
260,156,81012,1,2,0:0:0
340,232,81412,2,0,B|284:232,1,55,2|0,0:0|0:0,0:0:0
232,232,81812,1,8,0:0:0
152,308,82212,2,0,B|264:308,2,110,2|2|2,0:0|0:0|0:0,0:0:0
88,220,83412,1,8,0:0:0
156,132,83812,6,0,B|216:132|260:92,1,110,2|2,0:0|0:0,0:0:0
300,196,84612,2,0,B|240:196|196:236,1,110,2|8,0:0|0:0,0:0:0
284,304,85412,2,0,B|336:288,1,55,2|0,0:0|0:0,0:0:0
384,260,85812,2,0,B|428:160,1,110,2|4,0:0|0:0,0:0:0
256,192,86412,12,4,88278,0:0:0
