osu file format v11

[General]
AudioFilename: the pillows - Comic Sonic (TV Size).mp3
AudioLeadIn: 2000
PreviewTime: 45410
Countdown: 0
SampleSet: Soft
StackLeniency: 0.7
Mode: 0
LetterboxInBreaks: 0

[Editor]
DistanceSpacing: 1
BeatDivisor: 2
GridSize: 4

[Metadata]
Title:Comic Sonic (TV Size)
TitleUnicode:
Artist:the pillows
ArtistUnicode:
Creator:GiNa
Version:Easy
Source:SKET DANCE
Tags:gina91189 winber1 bossandy boss ending ed1
BeatmapID:120771
BeatmapSetID:37592

[Difficulty]
HPDrainRate:2
CircleSize:3
OverallDifficulty:2
ApproachRate:3
SliderMultiplier:0.8
SliderTickRate:2

[Events]
//Background and Video events
0,0,"sket dance.jpg"
Video,500,"Comic Sonic.avi"
//Break Periods
//Storyboard Layer 0 (Background)
//Storyboard Layer 1 (Fail)
//Storyboard Layer 2 (Pass)
//Storyboard Layer 3 (Foreground)
//Storyboard Sound Samples
//Background Colour Transformations
3,100,163,162,255

[TimingPoints]
612,400,4,2,1,85,1,0
7012,-100,4,2,1,75,0,0
13412,-100,4,1,0,55,0,0
13812,-100,4,2,1,75,0,0
18612,-100,4,2,2,65,0,0
18812,-100,4,2,1,75,0,0
19812,-100,4,1,0,55,0,0
20212,-100,4,2,1,75,0,0
23412,-100,4,2,2,65,0,0
23612,-100,4,2,1,75,0,0
25012,-100,4,2,2,65,0,0
25212,-100,4,2,1,75,0,0
26212,-100,4,2,1,65,0,0
28212,-100,4,2,2,65,0,0
28412,-100,4,2,1,65,0,0
32612,-100,4,1,0,55,0,0
33012,-100,4,2,2,65,0,0
33212,-100,4,2,1,75,0,0
37812,-100,4,2,2,65,0,0
38012,-100,4,2,1,75,0,0
39012,-100,4,1,0,55,0,0
39412,-100,4,2,2,65,0,0
39612,-100,4,2,1,75,0,0
41012,-100,4,2,2,65,0,0
41212,-100,4,2,1,75,0,0
42212,-100,4,1,0,55,0,0
42612,-100,4,2,2,65,0,0
42812,-100,4,2,1,75,0,0
45412,-100,4,2,0,80,0,1
45812,-100,4,2,1,90,0,1
49012,-100,4,2,2,80,0,1
49212,-100,4,2,1,90,0,1
50612,-100,4,2,2,80,0,1
50812,-100,4,2,1,90,0,1
53812,-100,4,2,2,80,0,1
54012,-100,4,2,1,90,0,1
55412,-100,4,2,2,80,0,1
55612,-100,4,2,1,90,0,1
56612,-100,4,2,1,90,0,0
58212,-100,4,2,1,90,0,1
58612,-100,4,2,2,80,0,1
58812,-100,4,2,1,90,0,1
61812,-100,4,2,2,80,0,1
62012,-100,4,2,1,90,0,1
68212,-100,4,2,2,80,0,1
68412,-100,4,2,1,90,0,1
70612,-100,4,2,2,80,0,1
70812,-100,4,2,1,80,0,1
74212,-100,4,2,1,80,0,0
75812,-100,4,2,1,85,0,0
80612,-100,4,2,1,90,0,0
88278,-100,4,2,1,80,0,0

[Colours]
Combo1 : 243,238,14
Combo2 : 36,251,106
Combo3 : 45,78,234
Combo4 : 255,21,21

[HitObjects]
80,192,612,2,0,B|80:272,2,80,2|2|2,0:0|0:0|0:0,0:0:0
116,120,1812,1,2,0:0:0
184,76,2212,2,0,B|308:28|408:116,1,240,2|2,0:0|0:0,0:0:0
412,196,3812,6,0,B|416:244|384:276,2,80,2|2|2,0:0|0:0|0:0,0:0:0
332,212,5012,1,2,0:0:0
308,288,5412,2,0,B|172:320|95:210,1,240,2|2,0:0|0:0,0:0:0
76,136,7012,5,4,0:0:0
148,100,7412,2,0,B|224:112|224:112|300:76,1,160,8|2,0:0|0:0,0:0:0
312,156,8612,1,2,0:0:0
392,156,9012,2,0,B|392:240,1,80,8|2,0:0|0:0,0:0:0
284,352,10212,5,2,0:0:0
208,332,10612,2,0,B|100:308|124:188|124:188|164:152,1,240,8|2,0:0|0:0,0:0:0
220,212,12212,1,8,0:0:0
240,136,12612,1,2,0:0:0
80,112,13412,6,0,B|100:64|148:64,1,80,4|8,0:0|0:0,0:0:0
156,144,14212,1,0,0:0:0
220,96,14612,1,8,0:0:0
232,176,15012,1,0,0:0:0
208,252,15412,2,0,B|248:268|288:232,1,80,8|0,0:0|0:0,0:0:0
416,148,16612,6,0,B|416:228,2,80,0|8|0,0:0|0:0|0:0,0:0:0
344,112,17812,1,8,0:0:0
264,112,18212,2,0,B|204:96|144:132,1,120,0|0,0:0|0:0,0:0:0
192,324,19812,6,0,B|236:324|236:324|272:292,1,80,4|8,0:0|0:0,0:0:0
262,219,20612,1,0,0:0:0
332,256,21012,1,8,0:0:0
328,176,21412,1,0,0:0:0
260,136,21812,2,0,B|260:57,1,80,8|0,0:0|0:0,0:0:0
100,56,23012,6,0,B|32:160|68:288,1,240,0|8,0:0|0:0,0:0:0
144,256,24612,2,0,B|228:256|296:308,1,160,0|0,0:0|0:0,0:0:0
420,216,26212,5,4,0:0:0
496,192,26612,2,0,B|436:64|300:96,2,240,8|2|2,0:0|0:0|0:0,0:0:0
420,216,29412,5,4,0:0:0
348,184,29812,2,0,B|211:147|148:272,1,240,8|2,0:0|0:0,0:0:0
228,292,31412,2,0,B|204:372,1,80,8|2,0:0|0:0,0:0:0
48,352,32612,6,0,B|48:268|128:200|212:200,1,240,4|8,0:0|0:0,0:0:0
264,148,34212,2,0,B|292:180|280:232,2,80,0|8|0,0:0|0:0|0:0,0:0:0
120,80,35812,6,0,B|96:128|36:108,2,80,0|8|0,0:0|0:0|0:0,0:0:0
196,52,37012,1,8,0:0:0
184,132,37412,2,0,B|196:193|158:245,1,120,0|0,0:0|0:0,0:0:0
284,92,39012,6,0,B|332:180|332:180|408:196|428:272,1,240,4|8,0:0|0:0,0:0:0
352,300,40612,2,0,B|296:320|232:300,1,120,0|0,0:0|0:0,0:0:0
96,152,42212,6,0,B|152:204|208:168|208:168|264:140|320:188,1,240,4|8,0:0|0:0,0:0:0
384,228,43812,1,0,0:0:0
416,156,44212,2,0,B|428:116|416:76,1,80,4|2,0:0|0:0,0:0:0
260,44,45412,5,4,0:0:0
196,92,45812,1,8,0:0:0
132,136,46212,2,0,B|132:224,2,80,0|8|0,0:0|0:0|0:0,0:0:0
56,160,47412,2,0,B|28:192,1,40,8|0,0:0|0:0,0:0:0
180,324,48612,6,0,B|272:336|336:284,1,160,4|0,0:0|0:0,0:0:0
392,236,49812,1,8,0:0:0
432,168,50212,2,0,B|372:152|312:168,1,120
136,88,51812,6,0,B|84:152,1,80,4|8,0:0|0:0,0:0:0
148,200,52612,2,0,B|148:288,1,80,0|8,0:0|0:0,0:0:0
228,264,53412,2,0,B|348:264,1,120,0|0,0:0|0:0,0:0:0
276,76,55012,6,0,B|292:20|372:-4|452:20|468:76,1,240,4|8,0:0|0:0,0:0:0
440,152,56612,2,0,B|403:174|360:166,2,80,0|8|0,0:0|0:0|0:0,0:0:0
452,232,57812,1,8,0:0:0
420,304,58212,6,0,B|364:352|248:352|192:300,1,240,4|8,0:0|0:0,0:0:0
244,240,59812,1,0,0:0:0
280,168,60212,2,0,B|240:148|204:168,1,80,8|0,0:0|0:0,0:0:0
156,104,61012,1,8,0:0:0
80,72,61412,6,0,B|56:148|80:236,1,160,4|0,0:0|0:0,0:0:0
120,300,62612,1,8,0:0:0
192,336,63012,2,0,B|232:348|272:380,2,80,0|8|0,0:0|0:0|0:0,0:0:0
292,212,64612,6,0,B|332:196|372:212,1,80,4|8,0:0|0:0,0:0:0
332,284,65412,2,0,B|348:324|332:364,1,80,0|8,0:0|0:0,0:0:0
260,328,66212,2,0,B|220:344|180:328,1,80,0|8,0:0|0:0,0:0:0
144,256,67012,1,0,0:0:0
256,140,67812,6,0,B|272:84|352:60|432:84|448:140,1,240,4|8,0:0|0:0,0:0:0
392,200,69412,1,0,0:0:0
452,256,69812,2,0,B|436:312|356:336|276:312|260:256,1,240,8|4,0:0|0:0,0:0:0
256,192,71212,12,4,74212,0:0:0
124,268,75012,5,2,0:0:0
176,208,75412,1,2,0:0:0
96,192,75812,6,0,B|96:32,2,160,2|2|2,0:0|0:0|0:0,0:0:0
136,260,77812,2,0,B|164:292|220:284,2,80,2|2|2,0:0|0:0|0:0,0:0:0
192,204,79012,5,2,0:0:0
240,140,79412,1,2,0:0:0
292,200,79812,2,0,B|376:200,1,80,2|2,0:0|0:0,0:0:0
372,280,80612,6,0,B|436:340,2,80,2|2|2,0:0|0:0|0:0,0:0:0
292,280,81812,1,2,0:0:0
212,280,82212,2,0,B|124:296|72:208,2,160,2|2|2,0:0|0:0|0:0,0:0:0
200,200,84212,5,2,0:0:0
132,160,84612,2,0,B|179:79|267:95,1,160,2|2,0:0|0:0,0:0:0
280,176,85812,1,2,0:0:0
264,256,86212,1,4,0:0:0
256,192,86412,12,4,88278,0:0:0
