osu file format v14

[General]
AudioFilename: cat no banana full song.mp3
AudioLeadIn: 0
PreviewTime: -1
Countdown: 1
SampleSet: None
StackLeniency: 0.7
Mode: 2
LetterboxInBreaks: 1
WidescreenStoryboard: 0

[Editor]
DistanceSpacing: 1
BeatDivisor: 12
GridSize: 32
TimelineZoom: 1

[Metadata]
Title:angry banana
TitleUnicode:angry banana
Artist:the cat
ArtistUnicode:the cat
Creator:Larana
Version:BANANA-NA
Source:
Tags:
BeatmapID:1652105
BeatmapSetID:787095

[Difficulty]
HPDrainRate:7
CircleSize:4
OverallDifficulty:6
ApproachRate:7
SliderMultiplier:1.4
SliderTickRate:1

[Events]
//Background and Video events
0,0,"2a0.jpg",0,0
//Break Periods
//Storyboard Layer 0 (Background)
//Storyboard Layer 1 (Fail)
//Storyboard Layer 2 (Pass)
//Storyboard Layer 3 (Foreground)
//Storyboard Sound Samples

[TimingPoints]
0,500,4,1,0,100,1,0

[HitObjects]
171,204,14500,5,0,0:0:0:0:
171,204,14750,1,0,0:0:0:0:
171,204,15125,1,0,0:0:0:0:
171,204,15500,5,0,0:0:0:0:
148,173,19416,1,0,0:0:0:0:
241,241,19750,1,0,0:0:0:0:
294,123,20083,1,0,0:0:0:0:
191,193,20416,1,0,0:0:0:0:
306,198,20750,5,0,0:0:0:0:
315,197,21125,1,0,0:0:0:0:
371,134,21416,1,0,0:0:0:0:
256,159,21708,2,0,B|253:106|182:83|182:83|143:101|143:101|106:122,1,198.333333333333
131,183,22041,1,0,0:0:0:0:
151,191,22458,1,0,0:0:0:0:
175,211,22750,1,0,0:0:0:0:
291,221,23166,5,0,0:0:0:0:
321,143,23416,1,0,0:0:0:0:
201,218,23708,1,0,0:0:0:0:
206,149,23958,6,0,P|220:68|134:113,1,221.666666666667
136,178,24541,1,0,0:0:0:0:
235,205,24916,1,0,0:0:0:0:
235,205,25000,1,0,0:0:0:0:
191,216,25333,1,0,0:0:0:0:
336,181,25708,1,0,0:0:0:0:
296,108,26000,1,0,0:0:0:0:
296,108,26208,1,0,0:0:0:0:
296,108,26375,1,0,0:0:0:0:
168,157,26791,5,0,0:0:0:0:
307,188,27125,1,0,0:0:0:0:
230,218,27458,1,0,0:0:0:0:
230,218,27750,1,0,0:0:0:0:
230,218,28083,1,0,0:0:0:0:
363,186,28458,1,0,0:0:0:0:
254,143,28750,1,0,0:0:0:0:
193,128,29083,6,0,P|173:70|78:115,1,186.666666666667
66,166,29500,1,0,0:0:0:0:
170,176,29833,1,0,0:0:0:0:
316,238,30416,5,0,0:0:0:0:
316,238,30500,1,0,0:0:0:0:
360,128,30750,1,0,0:0:0:0:
163,217,31125,1,0,0:0:0:0:
348,236,31416,1,0,0:0:0:0:
348,236,31583,1,0,0:0:0:0:
348,236,31750,1,0,0:0:0:0:
348,236,31958,1,0,0:0:0:0:
348,236,32291,5,0,0:0:0:0:
301,222,32499,1,0,0:0:0:0:
308,124,32708,1,0,0:0:0:0:
162,244,33083,5,0,0:0:0:0:
148,169,33375,2,0,P|174:83|101:83,1,186.666666666667
54,138,34041,1,0,0:0:0:0:
111,169,34375,1,0,0:0:0:0:
276,163,34708,1,0,0:0:0:0:
82,241,35041,1,0,0:0:0:0:
339,213,35291,1,0,0:0:0:0:
360,133,35708,1,0,0:0:0:0:
360,133,36083,1,0,0:0:0:0:
243,128,36750,5,0,0:0:0:0:
384,229,37416,5,0,0:0:0:0:
286,232,37583,1,0,0:0:0:0:
241,235,37750,1,0,0:0:0:0:
266,221,37916,1,0,0:0:0:0:
255,113,38125,1,0,0:0:0:0:
110,174,38416,1,0,0:0:0:0:
496,156,38708,1,0,0:0:0:0:
266,215,39000,1,0,0:0:0:0:
266,215,39125,1,0,0:0:0:0:
325,55,39375,1,0,0:0:0:0:
213,155,39875,6,0,P|230:67|137:136,1,268.333333333333
146,197,40541,1,0,0:0:0:0:
294,205,40833,1,0,0:0:0:0:
294,205,40916,1,0,0:0:0:0:
202,232,41125,1,0,0:0:0:0:
295,126,41416,1,0,0:0:0:0:
124,184,41791,1,0,0:0:0:0:
324,218,42125,5,0,0:0:0:0:
386,115,42375,1,0,0:0:0:0:
207,158,42750,1,0,0:0:0:0:
209,243,43083,1,0,0:0:0:0:
364,218,43375,1,0,0:0:0:0:
363,217,43500,1,0,0:0:0:0:
290,107,43708,1,0,0:0:0:0:
106,203,44041,1,0,0:0:0:0:
226,193,44250,1,0,0:0:0:0:
226,193,44416,1,0,0:0:0:0:
226,193,44583,1,0,0:0:0:0:
226,193,44750,1,0,0:0:0:0:
226,193,44791,1,0,0:0:0:0:
411,153,45041,1,0,0:0:0:0:
224,141,45458,1,0,0:0:0:0:
208,184,45750,1,0,0:0:0:0:
213,188,46625,5,0,0:0:0:0:
340,206,46916,1,0,0:0:0:0:
341,110,47208,1,0,0:0:0:0:
341,110,47416,1,0,0:0:0:0:
331,112,47583,1,0,0:0:0:0:
331,112,47750,1,0,0:0:0:0:
35,118,48041,5,0,0:0:0:0:
228,202,48583,1,0,0:0:0:0:
262,151,48916,1,0,0:0:0:0:
162,212,49291,1,0,0:0:0:0:
162,212,49416,1,0,0:0:0:0:
162,212,49625,1,0,0:0:0:0:
162,212,49791,1,0,0:0:0:0:
318,238,50041,1,0,0:0:0:0:
322,182,50416,1,0,0:0:0:0:
188,149,50833,6,0,P|216:98|296:98,1,140
241,170,51458,1,0,0:0:0:0:
317,172,51791,1,0,0:0:0:0:
236,204,52125,1,0,0:0:0:0:
305,233,52458,1,0,0:0:0:0:
244,233,52791,5,0,0:0:0:0:
302,147,53083,1,0,0:0:0:0:
382,233,53416,1,0,0:0:0:0:
165,223,53750,1,0,0:0:0:0:
214,149,54041,1,0,0:0:0:0:
249,209,54458,5,0,0:0:0:0:
344,106,54708,1,0,0:0:0:0:
357,220,55041,1,0,0:0:0:0:
357,220,55125,1,0,0:0:0:0:
289,143,55416,1,0,0:0:0:0:
231,158,55833,2,0,P|144:193|194:232,1,198.333333333333
247,244,56416,1,0,0:0:0:0:
311,188,56833,5,0,0:0:0:0:
299,98,57083,1,0,0:0:0:0:
137,151,57416,1,0,0:0:0:0:
184,183,57583,1,0,0:0:0:0:
184,183,57791,1,0,0:0:0:0:
184,183,57958,1,0,0:0:0:0:
282,170,58250,5,0,0:0:0:0:
291,166,58416,1,0,0:0:0:0:
323,263,58708,1,0,0:0:0:0:
181,232,59083,1,0,0:0:0:0:
248,126,59458,5,0,0:0:0:0:
360,219,59708,1,0,0:0:0:0:
225,218,60083,1,0,0:0:0:0:
225,218,60250,1,0,0:0:0:0:
225,218,60416,1,0,0:0:0:0:
225,218,60583,1,0,0:0:0:0:
249,195,60916,5,0,0:0:0:0:
237,148,61416,1,0,0:0:0:0:
182,174,61750,1,0,0:0:0:0:
289,193,62041,1,0,0:0:0:0:
299,190,62250,1,0,0:0:0:0:
299,190,62416,1,0,0:0:0:0:
316,81,62708,5,0,0:0:0:0:
196,137,63083,1,0,0:0:0:0:
261,225,63416,1,0,0:0:0:0:
424,178,63708,1,0,0:0:0:0:
424,178,63750,1,0,0:0:0:0:
353,99,64041,1,0,0:0:0:0:
277,183,64333,1,0,0:0:0:0:
222,196,64791,5,0,0:0:0:0:
224,124,65041,2,0,P|178:38|125:127,1,245
166,207,65458,1,0,0:0:0:0:
277,183,65791,5,0,0:0:0:0:
214,286,66083,1,0,0:0:0:0:
326,233,66416,1,0,0:0:0:0:
321,118,66708,1,0,0:0:0:0:
194,215,67041,1,0,0:0:0:0:
199,153,67791,5,0,0:0:0:0:
248,108,68083,1,0,0:0:0:0:
315,84,68416,1,0,0:0:0:0:
322,113,68791,5,0,0:0:0:0:
196,162,69416,1,0,0:0:0:0:
242,230,70083,5,0,0:0:0:0:
265,113,70750,5,0,0:0:0:0:
204,186,71125,1,0,0:0:0:0:
333,188,71375,1,0,0:0:0:0:
333,188,71416,1,0,0:0:0:0:
355,162,71708,1,0,0:0:0:0:
373,110,72083,1,0,0:0:0:0:
181,171,72375,1,0,0:0:0:0:
181,172,72625,1,0,0:0:0:0:
181,172,72750,1,0,0:0:0:0:
306,198,73041,1,0,0:0:0:0:
194,266,73375,1,0,0:0:0:0:
281,84,73750,1,0,0:0:0:0:
356,198,74125,5,0,0:0:0:0:
213,194,74416,1,0,0:0:0:0:
327,197,74750,1,0,0:0:0:0:
327,197,74791,1,0,0:0:0:0:
266,158,75125,2,0,P|212:66|168:159,1,256.666666666667
194,214,75750,1,0,0:0:0:0:
279,224,76083,5,0,0:0:0:0:
238,253,76416,1,0,0:0:0:0:
356,215,76708,1,0,0:0:0:0:
307,58,77000,1,0,0:0:0:0:
213,198,77250,1,0,0:0:0:0:
213,198,77333,1,0,0:0:0:0:
213,198,77458,1,0,0:0:0:0:
213,198,77750,1,0,0:0:0:0:
385,191,78000,1,0,0:0:0:0:
190,122,78458,1,0,0:0:0:0:
303,247,78708,1,0,0:0:0:0:
353,75,79041,5,0,0:0:0:0:
252,192,79416,1,0,0:0:0:0:
365,213,79708,1,0,0:0:0:0:
191,252,80083,1,0,0:0:0:0:
191,252,80291,1,0,0:0:0:0:
191,252,80458,1,0,0:0:0:0:
212,126,80916,5,0,0:0:0:0:
212,141,81083,1,0,0:0:0:0:
359,268,81375,1,0,0:0:0:0:
342,132,81875,5,0,0:0:0:0:
205,229,82125,1,0,0:0:0:0:
341,208,82708,1,0,0:0:0:0:
206,193,83041,1,0,0:0:0:0:
220,117,83333,1,0,0:0:0:0:
250,244,83625,1,0,0:0:0:0:
250,244,83791,1,0,0:0:0:0:
286,227,84208,5,0,0:0:0:0:
153,197,84458,1,0,0:0:0:0:
317,196,84791,1,0,0:0:0:0:
293,123,85125,5,0,0:0:0:0:
270,253,85416,1,0,0:0:0:0:
213,163,85666,2,0,P|176:82|120:133,1,186.666666666667
131,195,86250,1,0,0:0:0:0:
199,188,86541,5,0,0:0:0:0:
300,186,86833,1,0,0:0:0:0:
180,233,87125,1,0,0:0:0:0:
342,221,87416,1,0,0:0:0:0:
321,93,87708,1,0,0:0:0:0:
198,208,88083,1,0,0:0:0:0:
226,218,88416,5,0,0:0:0:0:
355,178,88750,1,0,0:0:0:0:
194,144,89125,1,0,0:0:0:0:
161,244,89500,5,0,0:0:0:0:
273,218,89750,1,0,0:0:0:0:
286,154,90083,1,0,0:0:0:0:
227,129,90333,2,0,L|331:56,1,116.666666666667
336,129,90916,1,0,0:0:0:0:
237,186,91416,5,0,0:0:0:0:
289,233,91750,1,0,0:0:0:0:
185,225,92208,5,0,0:0:0:0:
219,122,92458,1,0,0:0:0:0:
338,248,92750,1,0,0:0:0:0:
256,232,93125,5,0,0:0:0:0:
340,155,93416,1,0,0:0:0:0:
212,205,93791,1,0,0:0:0:0:
309,263,94083,1,0,0:0:0:0:
161,243,94458,1,0,0:0:0:0:
161,243,94666,1,0,0:0:0:0:
161,243,94833,1,0,0:0:0:0:
323,208,95125,1,0,0:0:0:0:
230,246,95458,1,0,0:0:0:0:
255,84,95750,1,0,0:0:0:0:
376,263,96208,5,0,0:0:0:0:
377,263,96291,1,0,0:0:0:0:
219,252,96750,1,0,0:0:0:0:
343,188,97083,1,0,0:0:0:0:
236,217,97416,1,0,0:0:0:0:
236,217,97583,1,0,0:0:0:0:
236,217,97750,1,0,0:0:0:0:
248,124,98125,5,0,0:0:0:0:
159,181,98416,1,0,0:0:0:0:
366,234,98833,5,0,0:0:0:0:
368,184,99083,1,0,0:0:0:0:
252,298,99375,1,0,0:0:0:0:
201,265,99708,1,0,0:0:0:0:
270,225,100166,5,0,0:0:0:0:
270,225,100375,1,0,0:0:0:0:
270,225,100541,1,0,0:0:0:0:
136,194,101125,5,0,0:0:0:0:
332,228,101458,5,0,0:0:0:0:
345,147,101750,1,0,0:0:0:0:
239,218,102083,1,0,0:0:0:0:
186,152,102375,2,0,P|184:58|86:131,1,268.333333333333
84,212,103208,5,0,0:0:0:0:
202,260,103500,1,0,0:0:0:0:
346,206,103833,1,0,0:0:0:0:
304,123,104125,1,0,0:0:0:0:
235,212,104458,1,0,0:0:0:0:
341,239,104708,1,0,0:0:0:0:
196,163,105083,1,0,0:0:0:0:
196,163,105250,1,0,0:0:0:0:
264,144,105750,5,0,0:0:0:0:
164,238,106083,1,0,0:0:0:0:
315,223,106458,1,0,0:0:0:0:
320,185,106833,5,0,0:0:0:0:
