osu file format v5

[General]
AudioFilename: The Cheat Theme Song.mp3
AudioLeadIn: 0
PreviewTime: -1
Countdown: 1
SampleSet: None
StackLeniency: 0.7
Mode: 0

[Metadata]
Title:The Cheat Theme Song
Artist:the Skate Party
Creator:SSJTapkar
Version:
Source:
Tags:

[Difficulty]
HPDrainRate:4
CircleSize:6
OverallDifficulty:4
SliderMultiplier:1.4
SliderTickRate:1

[Events]
//Background and Video events
1,0,"clip0003.avi"
//Break Periods
//Storyboard Layer 0 (Background)
//Storyboard Layer 1 (Failing)
//Storyboard Layer 2 (Passing)
//Storyboard Layer 3 (Foreground)
//Storyboard Sound Samples
//Background Colour Transformations
3,100,163,162,255

[TimingPoints]
0,1000,4,0,0,100

[HitObjects]
256,192,7531,1,0
256,192,7874,1,0
352,192,8983,1,0
352,192,9387,1,0
96,192,13459,1,0
96,192,13845,1,0
416,192,15028,1,0
416,192,15407,1,0
96,192,19409,1,0
96,192,19751,1,0
416,192,20813,1,0
416,192,21197,1,0
0,352,22389,1,0
288,160,23143,1,0
192,288,23857,1,0
128,160,24394,1,0
352,64,24827,1,0
320,160,25383,1,0
256,160,25731,1,0
64,224,26809,1,0
192,224,27188,1,0
256,160,28396,1,0
128,256,29611,1,0
128,256,29752,1,0
192,224,30174,1,0
192,224,30349,1,0
256,224,30702,1,0
256,224,30902,1,0
256,224,31095,1,0
128,192,34269,1,0
128,192,34606,1,0
416,192,35717,1,0
416,192,36053,1,0
160,192,40159,1,0
160,192,40527,1,0
384,192,41586,1,0
384,192,41959,1,0
256,192,46067,1,0
256,192,46445,1,0
256,288,47612,1,0
256,288,47957,1,0
256,192,52081,1,0
256,192,52463,1,0
256,192,52809,1,0
256,288,53556,1,0
256,288,53938,1,0
256,288,54277,1,0
288,256,54959,1,0
288,256,55366,1,0
224,256,56515,1,0
224,256,56920,1,0
