osu file format v9

[General]
AudioFilename: 01 - SHIVER.mp3
AudioLeadIn: 0
PreviewTime: 4041
Countdown: 1
SampleSet: Normal
StackLeniency: 0.7
Mode: 0
LetterboxInBreaks: 1

[Editor]
Bookmarks: 38424,80549,130549,160549,213049
DistanceSpacing: 1
BeatDivisor: 4
GridSize: 8

[Metadata]
Title:SHIVER
Artist:the GazettE
Creator:LaunchedthousandShip
Version:Insane
Source:Kuroshitsuji
Tags:kino77 OP

[Difficulty]
HPDrainRate:8
CircleSize:4
OverallDifficulty:8
ApproachRate:8
SliderMultiplier:2.8
SliderTickRate:0.5

[Events]
//Background and Video events
0,0,"bg1.jpg"
//Break Periods
//Storyboard Layer 0 (Background)
//Storyboard Layer 1 (Fail)
//Storyboard Layer 2 (Pass)
//Storyboard Layer 3 (Foreground)
//Storyboard Sound Samples
//Background Colour Transformations
3,100,163,162,255

[TimingPoints]
4095,500,4,1,0,60,1,0
4345,-100,4,2,0,100,0,0
4595,-100,4,1,0,60,0,0
5470,-100,4,1,0,85,0,0
5720,-100,4,1,0,60,0,0
6970,-100,4,2,0,100,0,0
7220,-100,4,1,0,85,0,0
7845,-100,4,1,0,60,0,0
10720,-100,4,2,0,100,0,0
10720,-100,4,2,0,100,0,0
10720,-100,4,2,0,100,0,0
10970,-100,4,1,0,85,0,0
11220,-100,4,1,0,60,0,0
12345,-100,4,2,0,100,0,0
12595,-100,4,1,0,60,0,0
13470,-100,4,1,0,85,0,0
13720,-100,4,1,0,60,0,0
14970,-100,4,2,0,100,0,0
15220,-100,4,1,0,85,0,0
15720,-100,4,1,0,60,0,0
15720,-100,4,1,0,60,0,0
16345,-100,4,2,0,100,0,0
16595,-100,4,1,0,60,0,0
17345,-100,4,2,0,100,0,0
17595,-100,4,1,0,60,0,0
18470,-100,4,2,0,100,0,0
18720,-100,4,1,0,60,0,0
18720,-100,4,1,0,60,0,0
20470,-100,4,2,0,100,0,0
20720,-100,4,1,0,60,0,0
22532,-100,4,2,0,100,0,0
22657,-100,4,1,0,60,0,0
24532,-100,4,2,0,100,0,0
24657,-100,4,1,0,60,0,0
26532,-100,4,2,0,100,0,0
26657,-100,4,1,0,60,0,0
28532,-100,4,2,0,100,0,0
28657,-100,4,1,0,60,0,0
30532,-100,4,2,0,100,0,0
30657,-100,4,1,0,60,0,0
32532,-100,4,2,0,100,0,0
32657,-100,4,1,0,60,0,0
38353,-100,4,2,0,100,0,0
39853,-100,4,1,0,60,0,0
40353,-100,4,2,0,100,0,0
40353,-100,4,2,0,100,0,0
41728,-100,4,1,0,60,0,0
46353,-100,4,2,0,100,0,0
47853,-100,4,1,0,60,0,0
48353,-100,4,2,0,100,0,0
49728,-100,4,1,0,60,0,0
54353,-100,4,2,0,100,0,0
55603,-100,4,1,0,60,0,0
56353,-100,4,2,0,100,0,0
57603,-100,4,1,0,60,0,0
62228,-200,4,1,0,60,0,0
64728,-100,4,1,0,75,0,0
65345,-100,4,1,0,85,0,0
66345,-100,4,2,0,100,0,0
66595,-100,4,1,0,60,0,0
67470,-100,4,1,0,85,0,0
67720,-100,4,1,0,60,0,0
68970,-100,4,2,0,100,0,0
69220,-100,4,1,0,85,0,0
69720,-100,4,1,0,60,0,0
72720,-100,4,2,0,100,0,0
72970,-100,4,1,0,85,0,0
73220,-100,4,1,0,60,0,0
74345,-100,4,2,0,100,0,0
74595,-100,4,1,0,60,0,0
75470,-100,4,1,0,85,0,0
75720,-100,4,1,0,60,0,0
76970,-100,4,2,0,100,0,0
77220,-100,4,1,0,85,0,0
78345,-100,4,2,0,100,0,0
78595,-100,4,1,0,60,0,0
79345,-100,4,2,0,100,0,0
79595,-100,4,1,0,70,0,0
79970,-100,4,1,0,80,0,0
80470,-100,4,1,0,100,0,0
82603,-100,4,1,0,60,0,0
86353,-100,4,2,0,100,0,0
87853,-100,4,1,0,60,0,0
88353,-100,4,2,0,100,0,0
89728,-100,4,1,0,60,0,0
94353,-100,4,2,0,100,0,0
95853,-100,4,1,0,60,0,0
96353,-100,4,2,0,100,0,0
97728,-100,4,1,0,60,0,0
102353,-100,4,2,0,100,0,0
103603,-100,4,1,0,60,0,0
104353,-100,4,2,0,100,0,0
105603,-100,4,1,0,60,0,0
110228,-200,4,1,0,60,0,0
112470,-100,4,1,0,60,0,0
112720,-100,4,1,0,70,0,0
113345,-100,4,1,0,85,0,0
114345,-100,4,2,0,100,0,0
114595,-100,4,1,0,60,0,0
115470,-100,4,1,0,85,0,0
115720,-100,4,1,0,60,0,0
116970,-100,4,2,0,100,0,0
117220,-100,4,1,0,85,0,0
117720,-100,4,1,0,60,0,0
120720,-100,4,2,0,100,0,0
120970,-100,4,1,0,85,0,0
121220,-100,4,1,0,60,0,0
122345,-100,4,2,0,100,0,0
122595,-100,4,1,0,60,0,0
123470,-100,4,1,0,85,0,0
123720,-100,4,1,0,60,0,0
124970,-100,4,2,0,100,0,0
125220,-100,4,1,0,85,0,0
125720,-100,4,1,0,60,0,0
126345,-100,4,2,0,100,0,0
126595,-100,4,1,0,60,0,0
127345,-100,4,2,0,100,0,0
127595,-100,4,1,0,60,0,0

[Colours]
Combo1 : 215,24,231
Combo2 : 35,35,35
Combo3 : 255,255,255
Combo4 : 0,128,128

[HitObjects]
392,56,4095,1,0
392,56,4220,1,0
456,176,4470,2,0,B|440:304|320:328,1,210,4|0
312,184,5095,1,0
312,184,5220,2,0,B|184:168|160:48,1,210
440,56,6095,5,0
440,56,6345,1,0
440,56,6595,2,0,B|384:104|376:184,1,140
264,256,7095,2,0,B|128:200|72:56,1,280,2|0
64,344,8095,5,0
64,344,8220,1,0
168,248,8470,1,0
168,248,8595,1,0
280,168,8845,2,0,B|339:121|415:123,1,140
304,32,9345,5,0
304,32,9595,1,0
176,80,9845,1,0
64,168,10095,1,0
64,168,10220,2,0,B|64:288|176:344,1,210
166,338,10845,1,2
166,338,11095,1,0
346,46,12095,5,0
346,46,12220,1,0
264,160,12470,2,0,B|208:264|96:280,1,210,4|0
224,344,13095,1,0
224,344,13220,2,0,B|440:344,1,210
472,64,14095,5,0
336,56,14345,1,0
200,88,14595,1,0
80,160,14845,1,0
32,288,15095,2,0,B|176:280|312:352,1,280,2|0
256,72,16095,5,0
256,72,16220,1,0
320,200,16470,2,0,B|376:304|488:320,1,210,4|0
256,312,17095,1,0
256,312,17220,1,0
192,184,17470,2,0,B|136:80|24:64,1,210,4|0
28,64,18345,1,0
72,200,18595,5,4
72,200,18845,2,0,B|40:344,1,140
160,256,19345,1,0
160,256,19595,2,0,B|176:328,2,70
296,216,20095,6,0,B|432:168|496:24,1,280,0|4
352,40,20845,1,0
352,40,21095,2,0,B|336:80|296:96,2,70
216,56,21595,6,0,B|144:32,1,70
184,96,21845,2,0,B|108:91,1,70
160,144,22095,2,0,B|85:159,1,70
152,194,22345,2,0,B|84:227,1,70
160,240,22595,2,0,B|48:328,1,140,4|0
352,240,23095,2,0,B|464:328,1,140
408,192,23595,6,0,B|432:120,1,70
368,160,23845,2,0,B|372:84,1,70
320,136,24095,2,0,B|304:61,1,70
270,128,24345,2,0,B|236:60,1,70
224,136,24595,2,0,B|136:24,1,140,4|0
224,248,25095,2,0,B|136:360,1,140
280,336,25595,5,0
280,336,25720,1,0
280,336,25845,1,0
280,336,25970,1,0
280,336,26095,2,0,B|424:336,1,140
480,208,26595,1,4
480,208,26720,1,0
440,72,26970,1,0
440,72,27095,2,0,B|296:72,1,140
168,104,27595,5,0
168,104,27720,1,0
168,104,27845,1,0
168,104,27970,1,0
168,104,28095,2,0,B|24:104,1,140
88,232,28595,1,4
88,232,28720,1,0
40,360,28970,1,0
40,360,29095,2,0,B|184:360,1,140
472,360,29595,6,0,B|400:360,6,70
472,216,30595,2,0,B|496:112|472:0,2,210,4|0|0
400,336,31595,2,0,B|472:336,6,70
256,336,32595,2,0,B|152:360|40:336,2,210,4|0|0
256,200,33595,5,0
256,200,33720,1,0
256,200,33845,1,0
256,200,33970,1,0
256,200,34095,1,0
256,200,34220,1,0
256,200,34345,2,0,B|256:56,1,140
400,48,34845,6,0,B|464:80|480:160,1,140
400,272,35345,1,0
400,272,35470,1,0
400,272,35595,2,0,B|344:320|264:304,2,140
296,176,36345,1,0
296,176,36470,1,0
296,176,36595,1,0
200,80,36845,5,0
200,80,36970,1,0
200,80,37095,1,0
200,80,37220,1,0
200,80,37345,2,0,B|48:136|48:304,1,280
168,216,38095,5,0
168,216,38220,1,0
344,336,38470,2,0,B|272:336,1,70,4|0
96,72,38970,2,0,B|33:36,1,70,4|0
344,104,39470,2,0,B|380:41,1,70,4|0
40,296,40095,5,0
40,296,40220,1,0
248,344,40470,2,0,B|320:344,1,70,4|0
480,72,40970,2,0,B|418:36,1,70,4|0
120,144,41470,2,0,B|156:81,1,70,4|0
288,120,41845,5,0
288,120,41970,1,0
288,120,42095,1,0
288,120,42220,1,0
288,120,42345,2,0,B|432:120,1,140
480,248,42845,5,0
352,296,43095,1,0
352,296,43220,1,0
216,336,43470,1,0
216,336,43595,2,0,B|72:336,1,140
40,200,44095,1,0
40,200,44220,2,0,B|72:96|208:72,1,210
176,216,44845,5,0
64,296,45095,2,0,B|144:368|272:328,2,210
176,216,46095,5,0
176,216,46220,1,0
344,344,46470,2,0,B|272:344,1,70,4|0
104,80,46970,2,0,B|41:44,1,70,4|0
352,120,47470,2,0,B|388:57,1,70,4|0
32,288,48095,5,0
32,288,48220,1,0
232,360,48470,2,0,B|304:360,1,70,4|0
72,144,48970,2,0,B|10:180,1,70,4|0
312,80,49470,2,0,B|348:17,1,70,4|0
208,40,49845,5,0
208,40,49970,1,0
208,40,50095,1,0
208,40,50220,1,0
208,40,50345,2,0,B|96:128,1,140
304,344,50845,6,0,B|416:256,1,140
414,257,51220,1,0
464,128,51470,2,0,B|392:40|264:40,1,210
304,176,52095,1,0
304,176,52220,2,0,B|304:287|216:359,1,210
88,296,52845,6,0,B|88:152,1,140
88,156,53220,1,0
424,88,53470,1,0
424,88,53595,2,0,B|424:232,1,140
296,168,54095,6,0,B|224:168,1,70
96,128,54470,1,4
96,128,54970,1,4
96,128,55470,2,0,B|40:224|104:336,1,210,4|0
240,352,56095,6,0,B|240:280,1,70
200,152,56470,1,4
200,152,56970,1,4
200,152,57470,2,0,B|296:96|408:160,1,210,4|0
360,288,58095,5,0
360,288,58220,1,0
360,288,58345,2,0,B|72:288,1,280
152,96,59095,2,0,B|440:96,1,280
320,176,59845,5,0
192,224,60095,1,0
72,288,60345,1,0
72,288,60470,2,0,B|178:335|282:285,1,210
400,344,61095,5,0
472,224,61345,1,0
472,224,61470,1,0
416,96,61720,1,0
416,96,61845,2,0,B|272:96,1,140
144,40,62345,5,0
144,40,62470,1,0
144,40,62595,2,0,B|136:120,1,70
400,336,63095,2,0,B|416:256,1,70
64,296,63595,2,0,B|128:336,1,70
400,120,64095,2,0,B|368:48,1,70
371,56,64595,1,0
88,240,65095,5,0
416,328,65595,1,0
416,328,65720,1,0
224,168,66095,1,0
224,168,66220,1,0
56,184,66470,2,0,B|72:56|192:32,1,210,4|0
304,152,67095,1,0
304,152,67220,2,0,B|432:136|456:16,1,210
448,360,68095,5,0
288,312,68345,1,0
168,200,68595,2,0,B|104:152|96:72,1,140
40,240,69095,2,0,B|336:240,1,280,2|0
40,48,70095,5,0
40,48,70220,1,0
208,48,70470,1,0
208,48,70595,1,0
128,192,70845,2,0,B|187:145|263:147,1,140
384,256,71345,5,0
192,320,71595,1,0
128,128,71845,1,0
320,64,72095,1,0
320,64,72220,2,0,B|428:114|432:239,1,210
81,156,72845,1,2
81,156,73095,1,0
456,344,74095,5,0
456,344,74220,1,0
320,240,74470,2,0,B|216:184|200:72,1,210,4|0
40,112,75095,1,0
40,112,75220,2,0,B|144:168|160:280,1,210
416,56,76095,5,0
120,32,76345,1,0
96,328,76595,1,0
392,352,76845,1,0
256,192,77095,2,0,B|160:72|0:64,1,280,2|0
352,32,78095,5,0
352,32,78220,1,0
184,64,78470,2,0,B|240:168|352:184,1,210,4|0
160,352,79095,1,0
160,352,79220,1,0
328,320,79470,2,0,B|272:216|160:200,1,210,4|0
256,64,80095,1,0
256,128,80345,1,0
256,192,80595,5,0
256,192,80970,1,0
256,192,81345,1,0
256,192,82095,1,0
256,192,82220,1,0
256,192,82470,1,0
112,40,82845,6,0,B|48:72|32:152,1,140
32,149,83220,1,0
168,128,83470,1,0
168,128,83595,2,0,B|216:184|200:264,1,140
64,240,84095,1,0
64,240,84220,1,0
168,336,84470,2,0,B|96:336,1,70
240,336,84845,5,0
240,336,84970,1,0
240,336,85095,1,0
240,336,85220,1,0
240,336,85345,2,0,B|392:280|392:112,1,280
288,216,86095,5,0
288,216,86220,1,0
136,72,86470,2,0,B|64:72,1,70,4|0
384,72,86970,2,0,B|321:36,1,70,4|0
480,312,87470,2,0,B|444:249,1,70,4|0
56,88,88095,5,0
56,88,88220,1,0
72,296,88470,2,0,B|144:296,1,70,4|0
360,64,88970,2,0,B|423:28,1,70,4|0
112,104,89470,2,0,B|148:41,1,70,4|0
176,184,89845,5,0
176,184,89970,1,0
176,184,90095,1,0
176,184,90220,1,0
176,184,90345,2,0,B|320:184,1,140
456,176,90845,5,0
376,288,91095,1,0
376,288,91220,1,0
248,336,91470,1,0
112,328,91720,1,0
112,328,91845,1,0
184,208,92095,5,0
184,208,92220,1,0
304,136,92470,1,0
304,136,92595,1,0
184,208,92845,5,0
104,96,93095,2,0,B|32:176|72:304,2,210
184,208,94095,5,0
184,208,94220,1,0
72,32,94470,2,0,B|0:32,1,70,4|0
144,312,94970,2,0,B|81:276,1,70,4|0
352,112,95470,2,0,B|316:49,1,70,4|0
24,352,96095,5,0
24,352,96220,1,0
168,200,96470,2,0,B|96:200,1,70,4|0
392,320,96970,2,0,B|329:356,1,70,4|0
352,40,97470,2,0,B|316:103,1,70,4|0
424,192,97845,5,0
424,192,97970,1,0
424,192,98095,1,0
424,192,98220,1,0
424,192,98345,2,0,B|464:128|432:56,1,140
88,192,98845,6,0,B|48:256|80:328,1,140
79,325,99220,1,0
216,352,99470,2,0,B|432:352,1,210
456,216,100095,1,0
456,216,100220,2,0,B|488:104|456:0,1,210
320,48,100845,6,0,B|168:48,1,140
180,48,101220,1,0
72,136,101470,2,0,B|40:248|72:352,1,210
208,352,102095,6,0,B|208:280,1,70
256,152,102470,1,4
256,152,102970,1,4
256,152,103470,2,0,B|352:96|464:160,1,210,4|0
368,264,104095,6,0,B|296:264,1,70
168,320,104470,1,4
168,320,104970,1,4
168,320,105470,2,0,B|112:224|176:112,1,210,4|0
288,48,106095,5,0
288,48,106220,1,0
288,48,106345,2,0,B|432:80|472:248,1,280
224,336,107095,2,0,B|80:304|40:136,1,280
256,192,107845,5,0
256,192,108095,1,0
256,192,108345,1,0
256,192,108470,2,0,B|472:192,1,210
256,192,109095,5,0
256,192,109345,1,0
256,192,109470,1,0
256,192,109720,2,0,B|40:192,1,210
144,296,110345,5,0
144,296,110470,1,0
144,296,110595,2,0,B|224:304,1,70
440,40,111095,2,0,B|360:24,1,70
400,376,111595,2,0,B|440:312,1,70
224,40,112095,2,0,B|152:72,1,70
160,69,112595,1,0
352,315,113095,5,0
352,315,113595,1,0
376,176,113845,1,0
400,40,114095,1,0
400,40,114220,1,0
112,344,114470,2,0,B|128:216|248:192,1,210,4|0
432,160,115095,1,0
432,160,115220,2,0,B|304:144|280:24,1,210
48,352,116095,5,0
232,288,116345,1,0
48,352,116595,2,0,B|48:200,1,140
136,40,117095,2,0,B|271:96|413:34,1,280
152,336,118095,5,0
152,336,118220,1,0
344,280,118470,1,0
344,280,118595,1,0
184,168,118845,2,0,B|243:121|319:123,1,140
120,80,119345,5,0
312,32,119595,1,0
120,80,119845,1,0
312,32,120095,1,0
312,32,120220,2,0,B|420:82|424:207,1,210
89,196,120845,1,2
89,196,121095,1,0
432,320,122095,5,0
432,320,122220,1,0
416,128,122470,2,0,B|360:232|248:248,1,210,4|0
256,48,123095,1,0
256,48,123220,2,0,B|472:48,1,210
208,344,124095,5,0
400,344,124345,1,0
472,160,124595,1,0
296,72,124845,1,0
120,160,125095,2,0,B|264:152|400:224,1,280,2|0
40,40,126095,5,0
40,40,126220,1,0
88,232,126470,2,0,B|144:336|256:352,1,210,4|0
448,352,127095,1,0
448,352,127220,1,0
448,160,127470,2,0,B|392:56|280:40,1,210,4|0
256,232,128095,5,0
256,232,128345,1,0
256,232,128595,2,0,B|112:232,1,140
256,232,129095,2,0,B|400:232,1,140
256,192,129595,12,0,131095
