osu file format v14

[General]
AudioFilename: [HD] teksy - Toumei Elegy [Romaji + VOSTFR].mp3
AudioLeadIn: 0
PreviewTime: -1
Countdown: 0
SampleSet: Normal
StackLeniency: 0.7
Mode: 0
LetterboxInBreaks: 1
WidescreenStoryboard: 0

[Editor]
DistanceSpacing: 0.8
BeatDivisor: 4
GridSize: 4
TimelineZoom: 1

[Metadata]
Title:Toumei Elegy
TitleUnicode:Toumei Elegy
Artist:teksy
ArtistUnicode:teksy
Creator:Tyl
Version:Goodbye
Source:
Tags:
BeatmapID:683685
BeatmapSetID:305255

[Difficulty]
HPDrainRate:5.5
CircleSize:4
OverallDifficulty:8.5
ApproachRate:9.2
SliderMultiplier:1.4
SliderTickRate:1

[Events]
//Background and Video events
//Break Periods
//Storyboard Layer 0 (Background)
//Storyboard Layer 1 (Fail)
//Storyboard Layer 2 (Pass)
//Storyboard Layer 3 (Foreground)
//Storyboard Sound Samples

[TimingPoints]
1288.03250771558,272.729357798165,4,1,0,100,1,0
10015,-83.3333333333333,4,1,0,100,0,0
26788,-62.5,4,1,0,100,0,0
27197,-50,4,1,0,100,0,0
27470,-83.3333333333333,4,1,0,100,0,0

[Colours]
Combo1 : 128,0,255
Combo2 : 0,128,255
Combo3 : 0,0,255
Combo4 : 128,128,255
Combo5 : 128,128,192

[HitObjects]
92,188,1288,5,0,0:0:0:0:
92,188,1697,1,0,0:0:0:0:
92,188,2106,1,0,0:0:0:0:
392,192,2378,5,0,0:0:0:0:
392,192,2788,1,0,0:0:0:0:
392,192,3197,1,0,0:0:0:0:
96,68,3469,5,0,0:0:0:0:
96,68,3878,1,0,0:0:0:0:
96,68,4288,1,0,0:0:0:0:
424,308,4560,5,0,0:0:0:0:
424,308,4969,1,0,0:0:0:0:
424,308,5378,1,0,0:0:0:0:
232,272,5651,6,0,B|192:184|260:136|316:148|316:148|280:116|272:92|272:92|400:124|432:36,1,420
200,104,6742,6,0,B|124:156|132:276|164:316|200:348|200:348|140:312|104:368|60:340,1,420
237,279,7833,6,0,B|184:219|236:110|311:143|308:167|308:167|254:241|349:220|349:220|365:237|365:237|388:228|388:228|424:253|458:223,1,420
338,95,8924,6,0,B|288:60|216:94|216:94|184:70|184:70|197:175|103:137,1,280
155,218,10015,6,0,B|223:200|168:103|282:92,1,167.999994873047
350,246,10424,2,0,B|308:209|251:227|251:227|265:203|278:140,1,167.999994873047
288,292,10833,1,0,0:0:0:0:
125,153,10969,1,0,0:0:0:0:
125,153,11038,1,0,0:0:0:0:
125,153,11106,5,0,0:0:0:0:
326,119,11242,1,0,0:0:0:0:
186,290,11379,2,0,P|128:288|84:249,1,83.9999974365235
271,170,11651,1,0,0:0:0:0:
45,109,11788,1,0,0:0:0:0:
224,36,11924,1,0,0:0:0:0:
61,207,12060,1,0,0:0:0:0:
61,207,12129,1,0,0:0:0:0:
61,207,12197,5,0,0:0:0:0:
287,249,12333,1,0,0:0:0:0:
206,128,12469,1,0,0:0:0:0:
88,308,12606,1,0,0:0:0:0:
287,249,12742,2,0,P|346:198|352:164,1,83.9999974365235
206,128,13015,1,0,0:0:0:0:
379,275,13151,2,0,B|357:309|357:309|331:310|331:310|303:325|303:325|273:322|273:322|249:333|249:333|223:318,1,167.999994873047
280,177,13560,5,0,0:0:0:0:
138,79,13697,1,0,0:0:0:0:
138,79,13765,1,0,0:0:0:0:
138,79,13833,1,0,0:0:0:0:
299,85,13969,2,0,L|351:83,1,41.9999987182618
466,94,14106,2,0,L|403:109,1,41.9999987182618
299,85,14242,2,0,L|351:83,1,41.9999987182618
421,238,14379,6,0,B|395:287|342:288|304:263|304:263|306:290|290:308|266:314,1,167.999994873047
354,205,14788,2,0,B|376:161|433:161|433:161|379:130|397:67,1,167.999994873047
199,129,15197,2,0,B|161:148|150:184|150:184|122:136|64:140|56:151,1,167.999994873047
222,200,15606,6,0,B|259:242|227:321|295:344,1,167.999994873047
86,219,16015,1,0,0:0:0:0:
267,148,16151,1,0,0:0:0:0:
189,331,16288,1,0,0:0:0:0:
112,123,16424,1,0,0:0:0:0:
276,268,16560,6,0,P|376:248|423:202,1,167.999994873047
371,52,16969,1,0,0:0:0:0:
312,319,17106,2,0,P|396:261|421:200,1,167.999994873047
371,52,17515,1,0,0:0:0:0:
296,166,17651,5,0,0:0:0:0:
102,359,17924,1,0,0:0:0:0:
54,39,18197,1,0,0:0:0:0:
247,240,18469,1,0,0:0:0:0:
247,240,18538,1,0,0:0:0:0:
247,240,18606,1,0,0:0:0:0:
247,240,18674,1,0,0:0:0:0:
247,240,18742,6,0,B|289:246|289:246|313:241|313:241|340:256,1,83.9999974365235
216,324,19015,2,0,P|164:292|148:260,2,83.9999974365235
420,320,19424,1,0,0:0:0:0:
296,166,19560,1,0,0:0:0:0:
456,200,19697,1,0,0:0:0:0:
456,200,19766,1,0,0:0:0:0:
456,200,19834,5,0,0:0:0:0:
312,300,19969,1,0,0:0:0:0:
360,132,20106,2,0,P|320:96|272:100,1,83.9999974365235
260,336,20379,1,0,0:0:0:0:
368,212,20515,1,0,0:0:0:0:
148,268,20651,1,0,0:0:0:0:
232,96,20788,1,0,0:0:0:0:
232,96,20857,1,0,0:0:0:0:
232,96,20925,5,0,0:0:0:0:
56,166,21060,1,0,0:0:0:0:
137,40,21197,1,0,0:0:0:0:
111,325,21333,1,0,0:0:0:0:
241,205,21470,2,0,P|319:230|339:263,1,83.9999974365235
232,96,21742,1,0,0:0:0:0:
365,309,21879,2,0,B|307:336|257:298|257:298|217:314|180:278,1,167.999994873047
346,156,22288,5,0,0:0:0:0:
232,232,22424,1,0,0:0:0:0:
285,35,22560,1,0,0:0:0:0:
148,103,22697,2,0,L|95:123,1,41.9999987182618
34,187,22833,2,0,L|92:191,1,41.9999987182618
148,103,22970,2,0,L|95:123,1,41.9999987182618
39,266,23106,6,0,B|91:312|161:218|166:307|233:285,1,167.999994873047
291,176,23515,2,0,B|300:214|277:241|277:241|313:293|275:365|251:348|251:348,1,167.999994873047
191,188,23924,2,0,P|229:100|372:113,1,251.999992309571
367,244,24470,6,0,P|274:275|263:268,1,83.9999974365235
242,48,24742,2,0,P|280:35|347:60,1,83.9999974365235
297,282,25015,2,0,P|221:219|221:206,1,83.9999974365235
408,102,25288,6,0,B|432:161|383:198|383:198|412:225|412:269,1,167.999994873047
291,352,25697,1,0,0:0:0:0:
221,222,25833,2,0,P|255:153|356:145,1,167.999994873047
336,258,26242,1,0,0:0:0:0:
228,64,26379,6,0,L|168:81,1,41.9999987182618
156,144,26515,2,0,L|88:136,1,41.9999987182618
40,80,26651,5,0,0:0:0:0:
178,246,26788,6,0,L|260:269,1,56
250,166,26924,2,0,L|301:141,1,56
366,230,27060,1,0,0:0:0:0:
115,356,27197,6,0,L|194:295,1,70
50,266,27333,2,0,L|20:190,1,70
156,172,27470,1,0,0:0:0:0:
335,342,27879,1,0,0:0:0:0:
172,259,28288,1,0,0:0:0:0:
172,259,28560,5,0,0:0:0:0:
244,50,29651,5,0,0:0:0:0:
54,120,30060,1,0,0:0:0:0:
152,297,30470,1,0,0:0:0:0:
150,304,30742,5,0,0:0:0:0:
359,344,31833,5,0,0:0:0:0:
428,101,32242,1,0,0:0:0:0:
182,163,32652,1,0,0:0:0:0:
177,157,32924,5,0,0:0:0:0:
131,346,34015,5,0,0:0:0:0:
246,66,34424,1,0,0:0:0:0:
389,333,34833,1,0,0:0:0:0:
389,333,35106,5,0,0:0:0:0:
174,207,35379,2,0,B|180:196|180:196|192:212|192:212|200:196|200:196|212:212|212:212|220:196|220:196|232:212|232:212|240:196|240:196|252:212|252:212|260:196|260:196|272:212|272:212|280:196|280:196|292:212|292:212|300:196|300:196|312:212|312:212|320:196|320:196|332:212|332:212|340:196|340:196|352:212,1,335.999989746094
