osu file format v14

[General]
AudioFilename: AVALON.mp3
AudioLeadIn: 0
PreviewTime: 99679
Countdown: 0
SampleSet: Soft
StackLeniency: 0.7
Mode: 3
LetterboxInBreaks: 0
SpecialStyle: 0
WidescreenStoryboard: 1

[Editor]
DistanceSpacing: 1.1
BeatDivisor: 4
GridSize: 32
TimelineZoom: 1.6

[Metadata]
Title:AVALON
TitleUnicode:AVALON
Artist:team:SASAKURATION
ArtistUnicode:team:SASAKURATION
Creator:Soul Stealer
Version:5k Hard
Source:
Tags:
BeatmapID:1055654
BeatmapSetID:495932

[Difficulty]
HPDrainRate:7.8
CircleSize:5
OverallDifficulty:7.8
ApproachRate:5
SliderMultiplier:1.4
SliderTickRate:1

[Events]
//Background and Video events
0,0,"aaa.png",0,0
//Break Periods
//Storyboard Layer 0 (Background)
//Storyboard Layer 1 (Fail)
//Storyboard Layer 2 (Pass)
//Storyboard Layer 3 (Foreground)
//Storyboard Sound Samples

[TimingPoints]
18195,299.625468164794,7,2,0,100,1,0
22389,299.625468164794,4,2,0,100,1,0
27183,299.625468164794,7,2,0,100,1,0
31377,299.625468164794,4,2,0,100,1,0
36171,299.625468164794,7,2,0,100,1,0
50852,299.625468164794,4,2,0,100,1,0
64034,299.625468164794,3,2,0,100,1,0
75709,299.625468164794,4,2,0,100,1,0
101586,299.737729486699,4,2,0,100,1,1
139958,300.525920360631,7,2,0,100,1,0

[HitObjects]
460,192,4037,5,0,0:0:0:0:
51,192,4112,1,0,0:0:0:0:
153,192,4187,1,0,0:0:0:0:
256,192,4262,128,0,6659:0:0:0:0:
358,192,4262,128,0,6659:0:0:0:0:
153,192,6659,128,0,9056:0:0:0:0:
460,192,6659,128,0,9056:0:0:0:0:
51,192,9056,128,0,10254:0:0:0:0:
256,192,9056,128,0,10254:0:0:0:0:
460,192,10254,128,0,11453:0:0:0:0:
153,192,10254,128,0,11453:0:0:0:0:
256,192,11453,128,0,12651:0:0:0:0:
358,192,11453,128,0,12651:0:0:0:0:
460,192,12651,128,0,16696:0:0:0:0:
51,192,12651,128,0,16696:0:0:0:0:
153,192,15498,1,0,0:0:0:0:
358,192,15573,1,0,0:0:0:0:
153,192,15648,1,0,0:0:0:0:
358,192,15723,1,0,0:0:0:0:
153,192,15797,1,0,0:0:0:0:
358,192,15872,1,0,0:0:0:0:
153,192,15947,1,0,0:0:0:0:
358,192,16022,1,0,0:0:0:0:
153,192,16097,1,0,0:0:0:0:
358,192,16172,1,0,0:0:0:0:
153,192,16247,1,0,0:0:0:0:
358,192,16322,1,0,0:0:0:0:
153,192,16397,1,0,0:0:0:0:
358,192,16472,1,0,0:0:0:0:
153,192,16547,1,0,0:0:0:0:
358,192,16621,1,0,0:0:0:0:
153,192,16696,1,4,0:0:0:0:
51,192,18195,1,2,0:0:0:0:
153,192,18269,1,0,0:0:0:0:
256,192,18344,1,0,0:0:0:0:
358,192,18419,1,0,0:0:0:0:
153,192,18494,1,0,0:0:0:0:
256,192,18569,1,0,0:0:0:0:
358,192,18644,1,2,0:0:0:0:
460,192,19243,1,2,0:0:0:0:
358,192,19318,1,0,0:0:0:0:
256,192,19393,1,0,0:0:0:0:
153,192,19468,1,0,0:0:0:0:
51,192,19543,1,2,0:0:0:0:
153,192,19693,1,2,0:0:0:0:
460,192,19992,1,2,0:0:0:0:
358,192,20142,1,2,0:0:0:0:
256,192,20292,1,2,0:0:0:0:
153,192,20367,1,0,0:0:0:0:
51,192,20442,1,0,0:0:0:0:
460,192,20517,1,0,0:0:0:0:
358,192,20592,1,0,0:0:0:0:
256,192,20666,1,0,0:0:0:0:
153,192,20741,1,2,0:0:0:0:
51,192,21341,1,2,0:0:0:0:
153,192,21415,1,0,0:0:0:0:
256,192,21490,1,0,0:0:0:0:
460,192,21565,1,0,0:0:0:0:
358,192,21640,1,2,0:0:0:0:
256,192,21715,1,0,0:0:0:0:
153,192,21790,1,2,0:0:0:0:
256,192,22090,1,2,0:0:0:0:
358,192,22239,1,2,0:0:0:0:
460,192,22389,1,2,0:0:0:0:
153,192,22389,1,0,0:0:0:0:
256,192,22688,1,0,0:0:0:0:
460,192,22988,1,0,0:0:0:0:
358,192,22988,1,8,0:0:0:0:
51,192,23287,1,0,0:0:0:0:
153,192,23587,1,0,0:0:0:0:
256,192,23887,1,0,0:0:0:0:
51,192,24186,1,0,0:0:0:0:
460,192,24186,1,8,0:0:0:0:
358,192,24486,1,0,0:0:0:0:
153,192,24786,1,0,0:0:0:0:
51,192,25085,1,0,0:0:0:0:
153,192,25385,1,8,0:0:0:0:
256,192,25385,1,0,0:0:0:0:
358,192,25684,1,0,0:0:0:0:
460,192,25984,1,0,0:0:0:0:
358,192,26059,1,0,0:0:0:0:
256,192,26134,1,0,0:0:0:0:
153,192,26209,1,0,0:0:0:0:
51,192,26284,1,0,0:0:0:0:
256,192,26433,1,0,0:0:0:0:
358,192,26508,1,0,0:0:0:0:
460,192,26583,1,0,0:0:0:0:
51,192,26658,1,0,0:0:0:0:
153,192,26733,1,0,0:0:0:0:
256,192,26808,1,0,0:0:0:0:
358,192,26883,1,0,0:0:0:0:
460,192,26958,1,0,0:0:0:0:
51,192,27033,1,0,0:0:0:0:
153,192,27108,1,0,0:0:0:0:
460,192,27183,1,2,0:0:0:0:
358,192,27257,1,0,0:0:0:0:
256,192,27332,1,2,0:0:0:0:
153,192,27407,1,0,0:0:0:0:
51,192,27482,1,0,0:0:0:0:
358,192,27557,1,0,0:0:0:0:
460,192,27632,1,2,0:0:0:0:
358,192,28231,1,2,0:0:0:0:
256,192,28306,1,0,0:0:0:0:
153,192,28381,1,0,0:0:0:0:
51,192,28456,1,0,0:0:0:0:
153,192,28531,1,2,0:0:0:0:
256,192,28606,1,0,0:0:0:0:
358,192,28681,1,2,0:0:0:0:
460,192,28980,1,2,0:0:0:0:
256,192,29130,1,2,0:0:0:0:
51,192,29280,1,2,0:0:0:0:
153,192,29355,1,0,0:0:0:0:
256,192,29430,1,0,0:0:0:0:
358,192,29505,1,0,0:0:0:0:
460,192,29580,1,0,0:0:0:0:
256,192,29654,1,0,0:0:0:0:
153,192,29729,1,2,0:0:0:0:
460,192,30329,1,2,0:0:0:0:
358,192,30403,1,0,0:0:0:0:
256,192,30478,1,0,0:0:0:0:
51,192,30553,1,0,0:0:0:0:
153,192,30628,1,2,0:0:0:0:
256,192,30703,1,0,0:0:0:0:
358,192,30778,1,2,0:0:0:0:
51,192,31078,1,2,0:0:0:0:
256,192,31227,1,0,0:0:0:0:
358,192,31227,1,8,0:0:0:0:
460,192,31377,1,8,0:0:0:0:
153,192,31377,1,0,0:0:0:0:
51,192,31676,1,0,0:0:0:0:
256,192,31976,1,8,0:0:0:0:
358,192,31976,1,0,0:0:0:0:
460,192,32275,1,0,0:0:0:0:
153,192,32575,1,0,0:0:0:0:
358,192,32575,1,0,0:0:0:0:
256,192,32875,1,0,0:0:0:0:
51,192,33174,1,0,0:0:0:0:
358,192,33174,1,8,0:0:0:0:
153,192,33474,1,0,0:0:0:0:
358,192,33774,1,0,0:0:0:0:
256,192,33774,1,0,0:0:0:0:
460,192,34073,1,0,0:0:0:0:
358,192,34373,1,8,0:0:0:0:
51,192,34373,1,0,0:0:0:0:
153,192,34672,1,0,0:0:0:0:
460,192,34972,1,0,0:0:0:0:
358,192,35047,1,0,0:0:0:0:
256,192,35122,1,0,0:0:0:0:
153,192,35197,1,0,0:0:0:0:
51,192,35272,1,0,0:0:0:0:
256,192,35421,1,0,0:0:0:0:
358,192,35496,1,0,0:0:0:0:
460,192,35571,1,0,0:0:0:0:
153,192,35646,1,0,0:0:0:0:
51,192,35721,1,0,0:0:0:0:
358,192,35796,1,0,0:0:0:0:
460,192,35871,1,0,0:0:0:0:
358,192,35946,1,0,0:0:0:0:
256,192,36021,1,0,0:0:0:0:
153,192,36096,1,0,0:0:0:0:
51,192,36171,1,6,0:0:0:0:
256,192,36320,1,0,0:0:0:0:
358,192,36470,1,2,0:0:0:0:
460,192,36620,1,0,0:0:0:0:
51,192,36770,1,2,0:0:0:0:
256,192,36920,1,0,0:0:0:0:
460,192,37069,1,0,0:0:0:0:
51,192,37219,1,0,0:0:0:0:
256,192,37369,1,0,0:0:0:0:
460,192,37519,1,0,0:0:0:0:
51,192,37669,1,0,0:0:0:0:
358,192,37818,1,0,0:0:0:0:
256,192,37968,1,0,0:0:0:0:
358,192,38043,1,0,0:0:0:0:
153,192,38118,1,0,0:0:0:0:
256,192,38268,1,0,0:0:0:0:
51,192,38418,1,0,0:0:0:0:
153,192,38568,1,2,0:0:0:0:
358,192,38717,1,0,0:0:0:0:
51,192,38867,1,2,0:0:0:0:
153,192,39017,1,0,0:0:0:0:
358,192,39167,1,0,0:0:0:0:
51,192,39317,1,0,0:0:0:0:
153,192,39466,1,0,0:0:0:0:
358,192,39616,1,0,0:0:0:0:
51,192,39766,1,0,0:0:0:0:
460,192,39916,1,0,0:0:0:0:
256,192,40066,1,0,0:0:0:0:
153,192,40141,1,0,0:0:0:0:
358,192,40215,1,0,0:0:0:0:
51,192,40365,1,2,0:0:0:0:
358,192,40515,1,0,0:0:0:0:
460,192,40665,1,0,0:0:0:0:
51,192,40815,1,0,0:0:0:0:
358,192,40965,1,2,0:0:0:0:
460,192,41114,1,0,0:0:0:0:
51,192,41264,1,0,0:0:0:0:
358,192,41414,1,0,0:0:0:0:
460,192,41564,1,2,0:0:0:0:
153,192,41714,1,0,0:0:0:0:
358,192,41863,1,0,0:0:0:0:
460,192,42013,1,2,0:0:0:0:
153,192,42163,1,0,0:0:0:0:
460,192,42313,1,0,0:0:0:0:
51,192,42463,1,2,0:0:0:0:
256,192,42612,1,0,0:0:0:0:
358,192,42762,1,0,0:0:0:0:
51,192,42912,1,0,0:0:0:0:
256,192,43062,1,2,0:0:0:0:
358,192,43212,1,0,0:0:0:0:
51,192,43362,1,0,0:0:0:0:
256,192,43511,1,0,0:0:0:0:
358,192,43661,1,2,0:0:0:0:
51,192,43811,1,0,0:0:0:0:
256,192,43961,1,0,0:0:0:0:
460,192,44111,1,0,0:0:0:0:
256,192,44260,1,0,0:0:0:0:
358,192,44335,1,0,0:0:0:0:
153,192,44410,1,0,0:0:0:0:
51,192,44560,1,2,0:0:0:0:
153,192,44710,1,0,0:0:0:0:
358,192,44860,1,0,0:0:0:0:
51,192,45009,1,2,0:0:0:0:
153,192,45159,1,0,0:0:0:0:
358,192,45309,1,0,0:0:0:0:
51,192,45459,1,0,0:0:0:0:
153,192,45609,1,2,0:0:0:0:
358,192,45759,1,0,0:0:0:0:
51,192,45908,1,2,0:0:0:0:
153,192,46058,1,2,0:0:0:0:
358,192,46208,1,0,0:0:0:0:
51,192,46358,1,0,0:0:0:0:
358,192,46508,1,2,0:0:0:0:
256,192,46657,1,2,0:0:0:0:
358,192,46807,1,0,0:0:0:0:
460,192,46957,1,0,0:0:0:0:
256,192,47107,1,2,0:0:0:0:
358,192,47257,1,0,0:0:0:0:
460,192,47406,1,0,0:0:0:0:
256,192,47556,1,0,0:0:0:0:
358,192,47706,1,2,0:0:0:0:
460,192,47856,1,0,0:0:0:0:
256,192,48006,1,2,0:0:0:0:
358,192,48156,1,2,0:0:0:0:
460,192,48305,1,0,0:0:0:0:
256,192,48455,1,2,0:0:0:0:
460,192,48605,1,0,0:0:0:0:
51,192,48755,1,2,0:0:0:0:
153,192,48905,1,0,0:0:0:0:
460,192,49054,1,0,0:0:0:0:
51,192,49204,1,2,0:0:0:0:
153,192,49354,1,0,0:0:0:0:
460,192,49504,1,0,0:0:0:0:
51,192,49654,1,2,0:0:0:0:
153,192,49803,1,0,0:0:0:0:
460,192,49953,1,0,0:0:0:0:
153,192,50103,1,2,0:0:0:0:
256,192,50253,1,0,0:0:0:0:
460,192,50403,1,0,0:0:0:0:
358,192,50553,1,0,0:0:0:0:
256,192,50627,1,0,0:0:0:0:
153,192,50702,1,0,0:0:0:0:
51,192,50852,1,4,0:0:0:0:
358,192,50852,1,0,0:0:0:0:
256,192,51151,1,0,0:0:0:0:
460,192,51451,1,8,0:0:0:0:
153,192,51451,128,0,52050:0:0:0:0:
358,192,51750,1,0,0:0:0:0:
460,192,52050,128,0,52649:0:0:0:0:
256,192,52050,1,0,0:0:0:0:
153,192,52350,1,0,0:0:0:0:
358,192,52649,128,0,53249:0:0:0:0:
51,192,52649,1,8,0:0:0:0:
153,192,52949,1,0,0:0:0:0:
256,192,53249,128,0,55646:0:0:0:0:
460,192,53249,1,0,0:0:0:0:
358,192,53548,1,0,0:0:0:0:
153,192,53848,1,8,0:0:0:0:
460,192,54147,1,0,0:0:0:0:
51,192,54447,1,0,0:0:0:0:
153,192,54747,1,0,0:0:0:0:
358,192,55046,1,8,0:0:0:0:
460,192,55346,1,0,0:0:0:0:
358,192,55646,128,0,58043:0:0:0:0:
153,192,55646,1,0,0:0:0:0:
51,192,55945,1,0,0:0:0:0:
460,192,56245,1,8,0:0:0:0:
153,192,56544,1,0,0:0:0:0:
256,192,56844,1,0,0:0:0:0:
153,192,57144,1,0,0:0:0:0:
51,192,57443,1,8,0:0:0:0:
256,192,57743,1,0,0:0:0:0:
460,192,57893,1,0,0:0:0:0:
51,192,58043,1,0,0:0:0:0:
256,192,58192,1,0,0:0:0:0:
460,192,58342,1,0,0:0:0:0:
153,192,58492,1,0,0:0:0:0:
358,192,58642,1,0,0:0:0:0:
460,192,58792,1,0,0:0:0:0:
256,192,58941,1,0,0:0:0:0:
51,192,59091,128,0,64034:0:0:0:0:
358,192,59091,128,0,64035:0:0:0:0:
153,192,59091,128,4,64034:0:0:0:0:
256,192,61788,1,0,0:0:0:0:
256,192,62087,1,0,0:0:0:0:
256,192,62387,1,0,0:0:0:0:
256,192,62612,1,0,0:0:0:0:
256,192,62986,1,0,0:0:0:0:
256,192,63211,128,0,63436:0:0:0:0:
256,192,63660,128,0,63885:0:0:0:0:
256,192,64034,128,0,64333:0:0:0:0:
460,192,64333,128,0,64633:0:0:0:0:
51,192,64633,1,0,0:0:0:0:
153,192,64783,1,0,0:0:0:0:
256,192,64932,1,0,0:0:0:0:
358,192,65082,1,0,0:0:0:0:
460,192,65232,1,0,0:0:0:0:
153,192,65307,1,0,0:0:0:0:
256,192,65382,1,0,0:0:0:0:
358,192,65532,1,0,0:0:0:0:
51,192,65681,1,0,0:0:0:0:
153,192,65831,1,0,0:0:0:0:
256,192,65981,1,0,0:0:0:0:
358,192,66131,1,0,0:0:0:0:
460,192,66131,1,0,0:0:0:0:
51,192,66431,1,0,0:0:0:0:
256,192,66580,1,0,0:0:0:0:
460,192,66730,1,0,0:0:0:0:
153,192,66730,1,0,0:0:0:0:
256,192,67030,1,0,0:0:0:0:
358,192,67180,1,0,0:0:0:0:
460,192,67329,1,0,0:0:0:0:
256,192,67479,1,0,0:0:0:0:
358,192,67629,1,0,0:0:0:0:
153,192,67704,1,0,0:0:0:0:
51,192,67779,1,0,0:0:0:0:
460,192,67929,1,0,0:0:0:0:
358,192,67929,1,0,0:0:0:0:
256,192,68078,1,0,0:0:0:0:
153,192,68228,1,0,0:0:0:0:
51,192,68228,1,0,0:0:0:0:
358,192,68378,1,0,0:0:0:0:
460,192,68528,1,0,0:0:0:0:
153,192,68528,1,0,0:0:0:0:
256,192,68678,1,0,0:0:0:0:
51,192,68828,1,0,0:0:0:0:
153,192,68828,1,0,0:0:0:0:
358,192,68977,1,0,0:0:0:0:
256,192,69127,1,0,0:0:0:0:
153,192,69127,1,0,0:0:0:0:
358,192,69327,1,0,0:0:0:0:
460,192,69427,1,0,0:0:0:0:
256,192,69427,1,0,0:0:0:0:
358,192,69577,1,0,0:0:0:0:
51,192,69726,1,0,0:0:0:0:
153,192,69726,1,0,0:0:0:0:
256,192,69876,1,0,0:0:0:0:
358,192,69876,1,0,0:0:0:0:
460,192,70026,1,0,0:0:0:0:
51,192,70026,1,0,0:0:0:0:
153,192,70176,1,0,0:0:0:0:
256,192,70176,1,0,0:0:0:0:
358,192,70326,128,0,71225:0:0:0:0:
460,192,71225,128,0,72123:0:0:0:0:
358,192,72123,128,0,72723:0:0:0:0:
153,192,72123,128,0,72423:0:0:0:0:
460,192,72423,128,0,72723:0:0:0:0:
256,192,72723,128,0,73022:0:0:0:0:
51,192,72723,128,0,73022:0:0:0:0:
460,192,73022,128,0,73622:0:0:0:0:
153,192,73022,128,0,73322:0:0:0:0:
256,192,73322,128,0,73622:0:0:0:0:
358,192,73622,128,0,73921:0:0:0:0:
51,192,73622,128,0,73921:0:0:0:0:
153,192,73921,128,0,74520:0:0:0:0:
460,192,73921,128,0,74820:0:0:0:0:
256,192,74520,128,0,74820:0:0:0:0:
51,192,74820,128,0,75120:0:0:0:0:
358,192,74820,128,0,75120:0:0:0:0:
256,192,75120,128,0,75419:0:0:0:0:
460,192,75120,128,0,75419:0:0:0:0:
358,192,75419,128,0,75709:0:0:0:0:
153,192,75419,128,0,75709:0:0:0:0:
51,192,75709,1,0,0:0:0:0:
460,192,75709,1,0,0:0:0:0:
256,192,76008,1,0,0:0:0:0:
153,192,76308,1,0,0:0:0:0:
51,192,76308,1,0,0:0:0:0:
358,192,76607,1,0,0:0:0:0:
460,192,76907,1,0,0:0:0:0:
153,192,76907,1,0,0:0:0:0:
256,192,77207,1,0,0:0:0:0:
358,192,77506,1,0,0:0:0:0:
153,192,77506,1,0,0:0:0:0:
51,192,77806,1,0,0:0:0:0:
153,192,78106,1,0,0:0:0:0:
256,192,78106,1,0,0:0:0:0:
358,192,78405,1,0,0:0:0:0:
460,192,78705,1,0,0:0:0:0:
153,192,78705,1,0,0:0:0:0:
256,192,79004,1,0,0:0:0:0:
51,192,79304,1,0,0:0:0:0:
358,192,79304,1,0,0:0:0:0:
153,192,79604,1,0,0:0:0:0:
256,192,79903,1,0,0:0:0:0:
358,192,79903,1,0,0:0:0:0:
460,192,80203,1,0,0:0:0:0:
256,192,80503,1,0,0:0:0:0:
153,192,80503,1,0,0:0:0:0:
51,192,80802,1,0,0:0:0:0:
256,192,81102,1,0,0:0:0:0:
460,192,81102,1,0,0:0:0:0:
358,192,81401,1,0,0:0:0:0:
460,192,81701,1,0,0:0:0:0:
153,192,81701,1,0,0:0:0:0:
256,192,82001,1,0,0:0:0:0:
358,192,82300,1,0,0:0:0:0:
460,192,82300,1,0,0:0:0:0:
51,192,82600,1,0,0:0:0:0:
153,192,82900,1,0,0:0:0:0:
358,192,82900,1,0,0:0:0:0:
256,192,83199,1,0,0:0:0:0:
460,192,83499,1,0,0:0:0:0:
51,192,83499,1,0,0:0:0:0:
153,192,83798,1,0,0:0:0:0:
256,192,83948,1,0,0:0:0:0:
358,192,84098,1,0,0:0:0:0:
51,192,84248,1,0,0:0:0:0:
153,192,84398,1,0,0:0:0:0:
256,192,84547,128,0,84697:0:0:0:0:
256,192,84847,128,0,84997:0:0:0:0:
256,192,85147,128,0,85297:0:0:0:0:
460,192,85297,1,0,0:0:0:0:
153,192,85297,1,0,0:0:0:0:
358,192,85596,1,0,0:0:0:0:
256,192,85896,1,0,0:0:0:0:
153,192,85896,1,0,0:0:0:0:
51,192,86195,1,0,0:0:0:0:
256,192,86495,1,0,0:0:0:0:
460,192,86495,1,0,0:0:0:0:
358,192,86795,1,0,0:0:0:0:
153,192,87094,1,0,0:0:0:0:
460,192,87094,1,0,0:0:0:0:
51,192,87244,1,0,0:0:0:0:
256,192,87394,1,0,0:0:0:0:
153,192,87544,1,0,0:0:0:0:
358,192,87694,128,0,90091:0:0:0:0:
460,192,87694,1,0,0:0:0:0:
51,192,87993,1,0,0:0:0:0:
153,192,88293,1,0,0:0:0:0:
256,192,88293,1,0,0:0:0:0:
460,192,88592,1,0,0:0:0:0:
256,192,88892,1,0,0:0:0:0:
51,192,88892,1,0,0:0:0:0:
153,192,89192,1,0,0:0:0:0:
460,192,89491,1,0,0:0:0:0:
51,192,89491,1,0,0:0:0:0:
153,192,89791,1,0,0:0:0:0:
256,192,90091,128,0,90165:0:0:0:0:
153,192,90390,128,0,90465:0:0:0:0:
51,192,90540,128,0,90840:0:0:0:0:
153,192,90840,1,0,0:0:0:0:
256,192,90989,1,0,0:0:0:0:
358,192,91139,1,0,0:0:0:0:
460,192,91289,1,0,0:0:0:0:
51,192,91439,1,0,0:0:0:0:
153,192,91589,1,0,0:0:0:0:
256,192,91738,128,0,91888:0:0:0:0:
256,192,92038,128,0,92188:0:0:0:0:
256,192,92338,128,0,92488:0:0:0:0:
153,192,92488,128,0,98780:0:0:0:0:
358,192,92488,128,0,98780:0:0:0:0:
256,192,94435,1,0,0:0:0:0:
256,192,95409,1,0,0:0:0:0:
256,192,96458,1,0,0:0:0:0:
256,192,97431,1,0,0:0:0:0:
256,192,98405,1,0,0:0:0:0:
256,192,99454,1,0,0:0:0:0:
358,192,101326,1,0,0:0:0:0:
51,192,101401,1,0,0:0:0:0:
153,192,101476,1,0,0:0:0:0:
358,192,101586,1,0,0:0:0:0:
460,192,101586,1,0,0:0:0:0:
153,192,101885,1,0,0:0:0:0:
256,192,101885,1,0,0:0:0:0:
51,192,102035,1,0,0:0:0:0:
153,192,102335,1,0,0:0:0:0:
256,192,102485,1,0,0:0:0:0:
460,192,102485,1,0,0:0:0:0:
358,192,102635,1,0,0:0:0:0:
153,192,102784,1,0,0:0:0:0:
256,192,103084,1,0,0:0:0:0:
358,192,103084,1,0,0:0:0:0:
51,192,103234,1,0,0:0:0:0:
153,192,103534,1,0,0:0:0:0:
256,192,103684,1,0,0:0:0:0:
358,192,103684,1,0,0:0:0:0:
51,192,103983,1,0,0:0:0:0:
153,192,104283,1,0,0:0:0:0:
460,192,104283,1,0,0:0:0:0:
358,192,104433,1,0,0:0:0:0:
256,192,104733,1,0,0:0:0:0:
51,192,104883,1,0,0:0:0:0:
153,192,104883,1,0,0:0:0:0:
358,192,105032,1,0,0:0:0:0:
256,192,105182,1,0,0:0:0:0:
358,192,105332,1,0,0:0:0:0:
460,192,105482,1,0,0:0:0:0:
153,192,105482,1,0,0:0:0:0:
358,192,105632,128,0,105782:0:0:0:0:
358,192,105932,128,0,106082:0:0:0:0:
153,192,106082,1,0,0:0:0:0:
256,192,106231,1,0,0:0:0:0:
51,192,106381,1,0,0:0:0:0:
153,192,106681,1,0,0:0:0:0:
358,192,106681,1,0,0:0:0:0:
256,192,106831,1,0,0:0:0:0:
460,192,107131,1,0,0:0:0:0:
358,192,107281,1,0,0:0:0:0:
256,192,107281,1,0,0:0:0:0:
153,192,107430,1,0,0:0:0:0:
51,192,107580,1,0,0:0:0:0:
153,192,107880,1,0,0:0:0:0:
358,192,107880,1,0,0:0:0:0:
256,192,108030,1,0,0:0:0:0:
153,192,108180,128,0,108629:0:0:0:0:
51,192,108779,1,0,0:0:0:0:
153,192,108854,1,0,0:0:0:0:
256,192,108929,1,0,0:0:0:0:
358,192,109004,1,0,0:0:0:0:
460,192,109079,1,0,0:0:0:0:
153,192,109154,1,0,0:0:0:0:
256,192,109229,1,0,0:0:0:0:
358,192,109304,1,0,0:0:0:0:
460,192,109379,1,0,0:0:0:0:
358,192,109454,1,0,0:0:0:0:
256,192,109529,1,0,0:0:0:0:
153,192,109603,1,0,0:0:0:0:
51,192,109678,1,0,0:0:0:0:
153,192,109753,1,0,0:0:0:0:
256,192,109828,1,0,0:0:0:0:
358,192,109903,1,0,0:0:0:0:
51,192,109978,1,0,0:0:0:0:
153,192,110053,1,0,0:0:0:0:
256,192,110128,1,0,0:0:0:0:
358,192,110203,1,0,0:0:0:0:
460,192,110278,1,0,0:0:0:0:
256,192,110353,1,0,0:0:0:0:
153,192,110428,1,0,0:0:0:0:
51,192,110503,1,0,0:0:0:0:
358,192,110578,1,0,0:0:0:0:
256,192,110653,1,0,0:0:0:0:
153,192,110728,1,0,0:0:0:0:
51,192,110802,1,0,0:0:0:0:
256,192,110877,1,0,0:0:0:0:
358,192,110952,1,0,0:0:0:0:
460,192,111027,1,0,0:0:0:0:
153,192,111102,1,0,0:0:0:0:
358,192,111177,1,0,0:0:0:0:
256,192,111327,1,0,0:0:0:0:
51,192,111477,1,0,0:0:0:0:
460,192,111627,1,0,0:0:0:0:
358,192,111777,1,0,0:0:0:0:
153,192,111926,1,0,0:0:0:0:
358,192,112076,1,0,0:0:0:0:
153,192,112226,1,0,0:0:0:0:
51,192,112376,1,0,0:0:0:0:
460,192,112526,1,0,0:0:0:0:
256,192,112676,1,0,0:0:0:0:
51,192,112826,1,0,0:0:0:0:
358,192,112976,1,0,0:0:0:0:
256,192,113125,1,0,0:0:0:0:
153,192,113275,1,0,0:0:0:0:
460,192,113425,1,0,0:0:0:0:
358,192,113575,1,0,0:0:0:0:
51,192,113725,1,0,0:0:0:0:
358,192,113875,1,0,0:0:0:0:
153,192,114025,1,0,0:0:0:0:
51,192,114174,1,0,0:0:0:0:
256,192,114324,1,0,0:0:0:0:
153,192,114474,1,0,0:0:0:0:
51,192,114624,1,0,0:0:0:0:
358,192,114774,1,0,0:0:0:0:
256,192,114924,1,0,0:0:0:0:
51,192,115074,1,0,0:0:0:0:
460,192,115224,1,0,0:0:0:0:
153,192,115373,1,0,0:0:0:0:
51,192,115523,1,0,0:0:0:0:
460,192,115673,1,0,0:0:0:0:
256,192,115823,1,0,0:0:0:0:
460,192,115973,1,0,0:0:0:0:
358,192,116123,1,0,0:0:0:0:
153,192,116273,1,0,0:0:0:0:
256,192,116423,1,0,0:0:0:0:
153,192,116572,1,0,0:0:0:0:
51,192,116722,1,0,0:0:0:0:
460,192,116872,1,0,0:0:0:0:
256,192,117022,1,0,0:0:0:0:
153,192,117172,1,0,0:0:0:0:
358,192,117322,1,0,0:0:0:0:
256,192,117472,1,0,0:0:0:0:
153,192,117621,1,0,0:0:0:0:
460,192,117771,1,0,0:0:0:0:
256,192,117921,1,0,0:0:0:0:
51,192,118071,1,0,0:0:0:0:
358,192,118221,1,0,0:0:0:0:
256,192,118371,1,0,0:0:0:0:
51,192,118521,1,0,0:0:0:0:
460,192,118671,1,0,0:0:0:0:
153,192,118820,1,0,0:0:0:0:
51,192,118970,1,0,0:0:0:0:
358,192,119120,1,0,0:0:0:0:
153,192,119270,1,0,0:0:0:0:
51,192,119420,1,0,0:0:0:0:
460,192,119570,1,0,0:0:0:0:
256,192,119720,1,0,0:0:0:0:
153,192,119870,1,0,0:0:0:0:
358,192,120019,1,0,0:0:0:0:
256,192,120319,1,0,0:0:0:0:
358,192,120394,1,0,0:0:0:0:
153,192,120469,1,0,0:0:0:0:
51,192,120619,1,0,0:0:0:0:
256,192,120769,128,0,121968:0:0:0:0:
460,192,120769,1,0,0:0:0:0:
358,192,120919,1,0,0:0:0:0:
51,192,121068,1,0,0:0:0:0:
460,192,121218,1,0,0:0:0:0:
153,192,121368,1,0,0:0:0:0:
51,192,121518,1,0,0:0:0:0:
460,192,121668,1,0,0:0:0:0:
358,192,121818,1,0,0:0:0:0:
460,192,121968,128,0,123167:0:0:0:0:
153,192,121968,1,0,0:0:0:0:
358,192,122118,1,0,0:0:0:0:
256,192,122267,1,0,0:0:0:0:
51,192,122417,1,0,0:0:0:0:
358,192,122567,1,0,0:0:0:0:
153,192,122717,1,0,0:0:0:0:
51,192,122867,1,0,0:0:0:0:
358,192,123017,1,0,0:0:0:0:
51,192,123167,128,0,124366:0:0:0:0:
256,192,123167,1,0,0:0:0:0:
153,192,123316,1,0,0:0:0:0:
460,192,123466,1,0,0:0:0:0:
358,192,123616,1,0,0:0:0:0:
153,192,123766,1,0,0:0:0:0:
460,192,123916,1,0,0:0:0:0:
358,192,124066,1,0,0:0:0:0:
256,192,124216,1,0,0:0:0:0:
153,192,124366,128,0,125565:0:0:0:0:
460,192,124366,1,0,0:0:0:0:
358,192,124515,1,0,0:0:0:0:
51,192,124665,1,0,0:0:0:0:
358,192,124815,1,0,0:0:0:0:
256,192,124965,1,0,0:0:0:0:
51,192,125115,1,0,0:0:0:0:
460,192,125265,1,0,0:0:0:0:
256,192,125415,1,0,0:0:0:0:
358,192,125565,128,0,126763:0:0:0:0:
460,192,125565,1,0,0:0:0:0:
256,192,125714,1,0,0:0:0:0:
51,192,125864,1,0,0:0:0:0:
460,192,126014,1,0,0:0:0:0:
153,192,126164,1,0,0:0:0:0:
51,192,126314,1,0,0:0:0:0:
256,192,126464,1,0,0:0:0:0:
153,192,126614,1,0,0:0:0:0:
256,192,126763,128,0,127962:0:0:0:0:
51,192,126763,1,0,0:0:0:0:
460,192,126913,1,0,0:0:0:0:
358,192,127063,1,0,0:0:0:0:
153,192,127213,1,0,0:0:0:0:
460,192,127363,1,0,0:0:0:0:
358,192,127513,1,0,0:0:0:0:
51,192,127663,1,0,0:0:0:0:
460,192,127813,1,0,0:0:0:0:
51,192,127962,128,0,129161:0:0:0:0:
358,192,127962,1,0,0:0:0:0:
153,192,128112,1,0,0:0:0:0:
460,192,128262,1,0,0:0:0:0:
358,192,128412,1,0,0:0:0:0:
256,192,128562,1,0,0:0:0:0:
460,192,128712,1,0,0:0:0:0:
256,192,128862,1,0,0:0:0:0:
153,192,129012,1,0,0:0:0:0:
460,192,129161,128,0,130360:0:0:0:0:
358,192,129161,1,0,0:0:0:0:
256,192,129311,1,0,0:0:0:0:
153,192,129461,1,0,0:0:0:0:
358,192,129611,1,0,0:0:0:0:
153,192,129911,1,0,0:0:0:0:
256,192,129986,1,0,0:0:0:0:
358,192,130061,1,0,0:0:0:0:
51,192,130210,1,0,0:0:0:0:
256,192,130360,128,0,131559:0:0:0:0:
358,192,130360,1,0,0:0:0:0:
153,192,130510,1,0,0:0:0:0:
51,192,130660,1,0,0:0:0:0:
460,192,130810,1,0,0:0:0:0:
358,192,130960,1,0,0:0:0:0:
153,192,131110,1,0,0:0:0:0:
460,192,131260,1,0,0:0:0:0:
153,192,131409,1,0,0:0:0:0:
358,192,131559,128,0,132758:0:0:0:0:
51,192,131559,1,0,0:0:0:0:
460,192,131709,1,0,0:0:0:0:
256,192,131859,1,0,0:0:0:0:
153,192,132009,1,0,0:0:0:0:
256,192,132159,1,0,0:0:0:0:
153,192,132309,1,0,0:0:0:0:
51,192,132458,1,0,0:0:0:0:
460,192,132608,1,0,0:0:0:0:
153,192,132758,128,0,133957:0:0:0:0:
256,192,132758,1,0,0:0:0:0:
51,192,132908,1,0,0:0:0:0:
460,192,133058,1,0,0:0:0:0:
358,192,133208,1,0,0:0:0:0:
256,192,133358,1,0,0:0:0:0:
460,192,133508,1,0,0:0:0:0:
358,192,133657,1,0,0:0:0:0:
51,192,133807,1,0,0:0:0:0:
460,192,133957,128,0,135156:0:0:0:0:
358,192,133957,1,0,0:0:0:0:
256,192,134107,1,0,0:0:0:0:
51,192,134257,1,0,0:0:0:0:
358,192,134407,1,0,0:0:0:0:
153,192,134557,1,0,0:0:0:0:
51,192,134707,1,0,0:0:0:0:
256,192,134856,1,0,0:0:0:0:
153,192,135006,1,0,0:0:0:0:
358,192,135156,128,0,136355:0:0:0:0:
256,192,135156,1,0,0:0:0:0:
153,192,135306,1,0,0:0:0:0:
51,192,135456,1,0,0:0:0:0:
460,192,135606,1,0,0:0:0:0:
256,192,135756,1,0,0:0:0:0:
51,192,135905,1,0,0:0:0:0:
460,192,136055,1,0,0:0:0:0:
256,192,136205,1,0,0:0:0:0:
51,192,136355,128,0,137554:0:0:0:0:
153,192,136355,1,0,0:0:0:0:
460,192,136505,1,0,0:0:0:0:
358,192,136655,1,0,0:0:0:0:
256,192,136805,1,0,0:0:0:0:
460,192,136955,1,0,0:0:0:0:
256,192,137104,1,0,0:0:0:0:
153,192,137254,1,0,0:0:0:0:
460,192,137404,1,0,0:0:0:0:
256,192,137554,128,0,138753:0:0:0:0:
358,192,137554,1,0,0:0:0:0:
153,192,137704,1,0,0:0:0:0:
358,192,137854,1,0,0:0:0:0:
153,192,138004,1,0,0:0:0:0:
51,192,138154,1,0,0:0:0:0:
460,192,138303,1,0,0:0:0:0:
358,192,138453,1,0,0:0:0:0:
51,192,138603,1,0,0:0:0:0:
153,192,138753,128,0,139952:0:0:0:0:
460,192,138753,1,0,0:0:0:0:
358,192,138903,1,0,0:0:0:0:
51,192,139053,1,0,0:0:0:0:
460,192,139203,1,0,0:0:0:0:
358,192,139502,1,0,0:0:0:0:
460,192,139577,1,0,0:0:0:0:
256,192,139652,1,0,0:0:0:0:
51,192,139802,1,0,0:0:0:0:
460,192,139958,1,0,0:0:0:0:
358,192,140033,1,0,0:0:0:0:
256,192,140108,1,0,0:0:0:0:
153,192,140183,1,0,0:0:0:0:
51,192,140258,1,0,0:0:0:0:
358,192,140333,1,0,0:0:0:0:
256,192,140408,1,0,0:0:0:0:
358,192,140709,1,0,0:0:0:0:
460,192,141009,1,0,0:0:0:0:
153,192,141310,1,0,0:0:0:0:
358,192,141460,1,0,0:0:0:0:
460,192,141761,1,0,0:0:0:0:
358,192,141836,1,0,0:0:0:0:
256,192,141911,1,0,0:0:0:0:
153,192,141986,1,0,0:0:0:0:
358,192,142061,1,0,0:0:0:0:
256,192,142136,1,0,0:0:0:0:
153,192,142211,1,0,0:0:0:0:
51,192,142287,1,0,0:0:0:0:
256,192,142362,1,0,0:0:0:0:
460,192,142512,1,0,0:0:0:0:
358,192,142812,1,0,0:0:0:0:
256,192,143113,1,0,0:0:0:0:
51,192,143414,1,0,0:0:0:0:
153,192,143564,1,0,0:0:0:0:
358,192,143714,1,0,0:0:0:0:
460,192,143864,1,0,0:0:0:0:
256,192,144015,1,0,0:0:0:0:
51,192,144165,1,0,0:0:0:0:
153,192,144240,1,0,0:0:0:0:
256,192,144315,1,0,0:0:0:0:
358,192,144390,1,0,0:0:0:0:
460,192,144465,1,0,0:0:0:0:
256,192,144616,1,0,0:0:0:0:
358,192,144766,1,0,0:0:0:0:
51,192,145066,1,0,0:0:0:0:
460,192,145367,1,0,0:0:0:0:
358,192,145818,1,0,0:0:0:0:
153,192,145968,1,0,0:0:0:0:
256,192,146043,1,0,0:0:0:0:
358,192,146118,1,0,0:0:0:0:
460,192,146193,1,0,0:0:0:0:
51,192,146269,1,0,0:0:0:0:
153,192,146344,1,0,0:0:0:0:
256,192,146419,1,0,0:0:0:0:
460,192,146494,1,0,0:0:0:0:
358,192,146569,1,0,0:0:0:0:
256,192,146644,1,0,0:0:0:0:
153,192,146719,1,0,0:0:0:0:
51,192,146719,1,0,0:0:0:0:
256,192,147020,1,0,0:0:0:0:
51,192,147170,1,0,0:0:0:0:
153,192,147320,1,0,0:0:0:0:
256,192,147471,1,0,0:0:0:0:
358,192,147621,1,0,0:0:0:0:
460,192,147771,1,0,0:0:0:0:
358,192,147921,128,0,148072:0:0:0:0:
358,192,148222,128,0,148372:0:0:0:0:
51,192,148372,1,0,0:0:0:0:
153,192,148447,1,0,0:0:0:0:
460,192,148522,1,0,0:0:0:0:
358,192,148598,1,0,0:0:0:0:
256,192,148673,1,0,0:0:0:0:
153,192,148748,1,0,0:0:0:0:
51,192,148823,1,0,0:0:0:0:
256,192,149124,1,0,0:0:0:0:
460,192,149424,1,0,0:0:0:0:
358,192,149725,1,0,0:0:0:0:
153,192,149875,1,0,0:0:0:0:
51,192,150175,1,0,0:0:0:0:
153,192,150251,1,0,0:0:0:0:
358,192,150326,1,0,0:0:0:0:
460,192,150401,1,0,0:0:0:0:
256,192,150476,1,0,0:0:0:0:
153,192,150551,1,0,0:0:0:0:
51,192,150626,1,0,0:0:0:0:
460,192,150701,1,0,0:0:0:0:
358,192,150776,1,0,0:0:0:0:
256,192,150852,1,0,0:0:0:0:
153,192,150927,1,0,0:0:0:0:
358,192,151227,1,0,0:0:0:0:
51,192,151528,1,0,0:0:0:0:
460,192,151828,1,0,0:0:0:0:
256,192,151979,1,0,0:0:0:0:
51,192,152129,1,0,0:0:0:0:
153,192,152279,1,0,0:0:0:0:
358,192,152429,1,0,0:0:0:0:
256,192,152580,1,0,0:0:0:0:
460,192,152580,1,0,0:0:0:0:
153,192,152655,1,0,0:0:0:0:
51,192,152730,1,0,0:0:0:0:
358,192,152805,1,0,0:0:0:0:
256,192,152880,1,0,0:0:0:0:
153,192,152955,1,0,0:0:0:0:
51,192,153030,1,0,0:0:0:0:
460,192,153030,1,0,0:0:0:0:
358,192,153181,1,0,0:0:0:0:
256,192,153481,1,0,0:0:0:0:
51,192,153782,1,0,0:0:0:0:
358,192,154232,1,0,0:0:0:0:
153,192,154383,1,0,0:0:0:0:
256,192,154458,1,0,0:0:0:0:
358,192,154533,1,0,0:0:0:0:
51,192,154608,1,0,0:0:0:0:
153,192,154683,1,0,0:0:0:0:
256,192,154758,1,0,0:0:0:0:
358,192,154834,1,0,0:0:0:0:
460,192,154909,1,0,0:0:0:0:
153,192,154984,1,0,0:0:0:0:
460,192,155134,1,0,0:0:0:0:
358,192,155209,1,0,0:0:0:0:
256,192,155284,1,0,0:0:0:0:
153,192,155359,1,0,0:0:0:0:
51,192,155435,1,0,0:0:0:0:
460,192,155585,1,0,0:0:0:0:
358,192,155660,1,0,0:0:0:0:
153,192,155735,1,0,0:0:0:0:
51,192,155810,1,0,0:0:0:0:
256,192,155885,1,0,0:0:0:0:
358,192,155961,1,0,0:0:0:0:
460,192,156036,1,0,0:0:0:0:
51,192,156111,1,0,0:0:0:0:
153,192,156186,1,0,0:0:0:0:
256,192,156261,1,0,0:0:0:0:
358,192,156336,1,0,0:0:0:0:
460,192,156411,1,0,0:0:0:0:
51,192,156486,1,0,0:0:0:0:
153,192,156562,1,0,0:0:0:0:
256,192,156637,1,0,0:0:0:0:
358,192,156712,1,0,0:0:0:0:
460,192,156787,128,0,158891:0:0:0:0:
51,192,156787,128,0,158891:0:0:0:0:
358,192,158891,128,0,160994:0:0:0:0:
153,192,158891,128,0,160994:0:0:0:0:
256,192,160994,128,0,162196:0:0:0:0:
51,192,160994,128,0,162196:0:0:0:0:
460,192,162196,128,0,164450:0:0:0:0:
153,192,162196,128,0,164450:0:0:0:0:
358,192,164450,1,0,0:0:0:0:
