osu file format v5

[General]
AudioFilename: Tatu - Loves Me Not.mp3
AudioLeadIn: 0
PreviewTime: -1
Countdown: 1
SampleSet: None
StackLeniency: 0.7
Mode: 0
LetterboxInBreaks: 1

[Metadata]
Title:Loves Me Not
Artist:tatu
Creator:zw254
Version:Easy
Source:
Tags:Loves Me Not

[Difficulty]
HPDrainRate:3
CircleSize:7
OverallDifficulty:1
SliderMultiplier:2.6
SliderTickRate:4

[Events]
//Background and Video events
0,0,"thangels.jpg"
//Break Periods
//Storyboard Layer 0 (Background)
//Storyboard Layer 1 (Failing)
//Storyboard Layer 2 (Passing)
//Storyboard Layer 3 (Foreground)
//Storyboard Sound Samples
//Background Colour Transformations
3,100,163,162,255

[TimingPoints]
8,857.142857142857,4,0,0,100,1

[Colours]
Combo1 : 0,0,0
Combo2 : 255,128,64
Combo3 : 43,152,164
Combo4 : 84,139,241
Combo5 : 231,3,3

[HitObjects]
128,288,30218,1,0
256,288,33428,1,0
448,288,37968,1,0
448,64,42578,1,0
256,64,46918,1,0
64,64,52928,1,0
64,192,60208,5,0
128,192,62038,1,0
192,192,63878,1,0
256,192,65648,1,0
320,192,67518,1,0
384,192,69408,1,0
448,192,71278,1,0
448,256,74028,1,0
384,256,74908,1,0
320,256,75868,1,0
256,256,76808,5,0
192,256,77718,1,0
128,256,78668,1,0
64,256,79558,1,0
64,192,80418,1,0
64,160,81438,1,0
64,128,82308,1,0
96,128,83278,1,0
128,128,84168,1,0
160,128,85098,5,0
192,128,86008,1,0
224,128,86928,1,0
256,128,87848,1,0
64,67,88856,2,0,B|184:160,15,130
256,192,118332,12,0,125692
92,156,128452,5,0
160,160,130302,1,0
236,161,132102,5,0
308,160,134002,1,0
393,159,135862,1,0
474,159,137722,5,0
477,224,140442,1,0
418,222,141342,1,0
358,223,142312,1,0
284,227,143272,5,0
211,224,144192,1,0
144,224,145132,1,0
99,229,146042,1,0
59,288,146972,1,0
134,294,147882,1,0
216,287,148792,1,0
294,288,149732,5,0
361,289,150632,1,0
392,224,151562,1,0
406,160,152462,1,0
337,141,153402,1,0
262,129,154292,1,0
195,132,155242,1,0
131,160,156072,1,0
96,237,157072,5,0
164,249,158032,1,0
206,307,158922,1,0
280,310,159862,1,0
321,255,160742,1,0
285,187,161682,1,0
234,142,162612,1,0
176,108,163552,1,0
124,72,164422,5,0
196,50,165412,1,0
294,83,166312,1,0
345,136,167212,1,0
308,212,168162,1,0
223,204,169092,1,0
131,250,170002,1,0
181,287,170922,5,0
248,301,171972,1,0
