osu file format v5

[General]
AudioFilename: Tr.36 - Xepher.mp3
AudioLeadIn: 0
PreviewTime: -1
Countdown: 1
SampleSet: Normal
StackLeniency: 0.7
Mode: 0
LetterboxInBreaks: 1

[Metadata]
Title:Xepher
Artist:tatsh
Creator:Lein
Version:Normal
Source:
Tags:

[Difficulty]
HPDrainRate:4
CircleSize:4
OverallDifficulty:5
SliderMultiplier:1.2
SliderTickRate:2

[Events]
//Background and Video events
//Break Periods
2,22565,26812
2,53623,53635
//Storyboard Layer 0 (Background)
//Storyboard Layer 1 (Failing)
//Storyboard Layer 2 (Passing)
//Storyboard Layer 3 (Foreground)
//Storyboard Sound Samples
//Background Colour Transformations
3,100,163,162,255

[TimingPoints]
6836,352.941176470588,4,1,0,100,1

[HitObjects]
96,128,6835,1,0
192,64,7541,1,0
288,128,8247,1,0
352,224,8953,2,0,B|224:288|224:288|224:176|304:224,1,240,0|4
352,224,10365,1,0
256,288,11071,1,0
160,224,11777,1,0
96,128,12483,5,4
224,128,13188,6,0,B|352:128,1,120
416,128,13894,1,4
416,256,14600,2,0,B|272:256,1,120
224,256,15306,1,4
96,256,16012,2,0,B|96:112,1,120
96,256,16718,1,4
224,256,17424,1,4
400,288,18130,6,0,B|400:160,1,120
400,96,18836,1,4
288,96,19541,2,0,B|288:240,1,120
288,288,20247,2,0,B|32:288|32:288|144:240|144:240|272:240,1,480,4|4
256,192,22365,5,4
80,80,28012,6,0,B|176:80,3,90
256,80,29071,1,4
256,176,29424,5,0
192,176,29688,1,0
256,176,29953,1,0
192,176,30218,1,0
256,176,30483,2,0,B|336:176,1,60,4|4
352,256,30836,5,0
288,288,31100,1,0
224,256,31365,1,0
160,288,31630,1,0
96,256,31894,2,0,B|64:256,2,30,4|4|0
256,192,32247,12,4,33306
432,304,33659,6,0,B|336:304,3,90
256,304,34718,1,4
256,208,35071,5,0
320,208,35335,1,0
256,208,35600,1,0
320,208,35865,1,0
256,208,36130,2,0,B|176:208,1,60,4|4
160,128,36483,5,0
224,96,36747,1,0
288,128,37012,1,0
352,96,37277,1,0
416,128,37541,2,0,B|448:128,2,30,4|4|0
272,192,38600,6,0,B|240:192,4,30,0|0|0|0|0
96,192,39306,5,0
144,112,39659,1,0
96,192,40012,1,0
144,112,40365,2,0,B|224:48|256:144,1,120
320,192,41071,5,0
240,112,41424,1,0
352,96,41777,1,0
320,192,42130,2,0,B|416:208|400:288,1,120
320,192,42835,5,0
304,96,43188,1,0
192,80,43541,1,0
192,208,43894,2,0,B|-4:70|224:80,1,240
96,112,44953,5,0
192,96,45306,2,0,B|192:224,1,120
192,96,46012,1,0
192,208,46365,1,0
272,160,46718,1,0
384,160,47071,2,0,B|384:64|384:64|384:224,1,240
384,64,48130,5,0
384,160,48483,1,0
288,112,48835,1,0
224,112,49188,2,2,B|288:112,4,60
288,112,50247,1,0
432,112,50600,6,0,B|432:176,3,60
432,172,51306,1,0
432,172,51483,1,0
432,172,51659,1,0
432,172,51835,1,0
432,172,52012,6,4,B|432:208,16,30
256,192,54835,5,0
256,192,55188,1,0
256,192,55541,1,0
256,80,55894,1,0
256,192,56247,1,0
336,112,56600,1,0
256,192,56953,1,0
368,192,57306,1,0
256,192,57659,1,0
336,272,58012,1,4
256,192,58365,1,0
256,304,58718,1,4
256,192,59071,1,0
176,272,59424,1,0
256,192,59777,1,0
144,192,60130,1,0
256,192,60483,1,0
176,112,60835,1,0
256,192,61188,1,0
256,80,61541,1,0
256,192,61894,2,0,B|192:192|192:192|400:192,1,240
176,272,63306,6,0,B|80:192,1,120
256,192,64012,2,0,B|256:64,1,120
336,272,64718,2,0,B|576:191|259:161|-41:165|144:256|192:288,1,480
256,192,66483,2,0,B|256:64,1,120
256,192,67188,1,0
256,192,67541,2,0,B|256:320,1,120
256,192,68247,1,0
256,192,68600,2,0,B|288:192|288:192|192:192,1,120
112,192,69218,5,0
160,128,69483,1,0
112,192,69747,1,0
160,256,70012,1,4
208,192,70365,6,0,B|304:192,3,90
368,192,71424,1,0
368,192,71600,1,4
368,192,71777,5,0
368,288,72041,1,0
464,288,72306,1,0
368,288,72571,1,0
272,288,72835,2,4,B|224:288,2,30
160,304,73188,6,0,B|96:272|96:272|176:240|176:240|80:224|80:224|160:192|160:192|80:160|80:160|160:144,1,480
208,144,74865,1,0
224,160,75130,1,0
224,128,75394,1,0
192,144,75659,1,4
336,96,76012,5,0
400,144,76277,1,0
336,192,76541,1,0
400,144,76806,1,0
336,96,77071,2,4,B|256:96,1,60
276,96,77424,5,0
192,96,77688,1,0
192,176,77953,1,0
272,96,78218,1,0
272,176,78483,2,4,B|272:208,2,30
112,80,79541,2,4,B|144:80,4,30
192,128,80247,6,0,B|128:128,2,60
320,128,80953,1,0
320,128,81130,1,0
320,128,81306,1,0
320,256,81659,2,0,B|400:256,2,60
192,256,82365,1,0
192,256,82541,1,0
192,256,82718,1,0
192,128,83071,6,0,B|192:64,1,60
192,128,83424,1,0
320,128,83777,2,0,B|400:128,1,60
320,128,84130,1,0
320,256,84483,2,0,B|320:320,1,60
320,256,84835,1,0
192,256,85188,2,0,B|112:256,1,60
192,256,85541,1,0
256,192,85894,5,0
144,192,86247,1,0
32,192,86600,2,0,B|160:192,1,120
256,192,87306,1,0
368,192,87659,1,0
480,192,88012,2,0,B|336:192,1,120
256,192,88718,5,0
256,80,89071,1,0
256,80,89424,2,0,B|192:64|240:32|288:32|304:64|240:80,1,120
256,192,90130,1,0
256,304,90483,1,0
256,304,90836,2,0,B|192:320|240:352|288:352|304:320|240:304,1,120
256,192,91365,12,4,92953
256,192,93306,5,0
192,112,93659,1,0
256,192,94012,1,0
320,112,94365,1,0
256,192,94718,2,0,B|256:320,1,120
256,256,95424,1,0
256,128,95777,5,0
256,192,96130,2,0,B|256:64,1,120
256,192,96835,1,0
216,304,97188,1,0
256,304,97541,2,0,B|176:304|176:304|224:304,1,120
352,304,98247,5,0
448,304,98600,1,0
352,304,98953,2,0,B|320:224|320:224|384:224,1,120
352,304,99659,1,0
256,224,100012,1,0
256,304,100365,2,0,B|288:224|288:224|224:224,1,120
128,304,101071,5,0
192,224,101424,1,0
256,304,101777,2,0,B|176:208|176:208|112:320,1,240
64,352,102835,6,0,B|128:160|224:240|224:240|368:64|416:192|416:192|528:32|336:32|336:32|272:208|160:96|160:96|128:320|16:176,1,1200
128,192,107071,1,4
384,192,107777,1,4
144,112,108483,6,4,B|176:112,4,30
224,160,109188,1,4
288,224,109541,1,4
336,272,109894,6,4,B|368:272,4,30
288,224,110600,1,4
288,160,110953,1,4
336,112,111306,6,4,B|368:112,4,30
288,160,112012,1,4
224,224,112365,1,4
144,272,112718,6,4,B|176:272,4,30
224,224,113424,1,4
288,160,113777,1,4
336,128,114130,6,4,B|368:128,4,30
256,192,114835,5,4
256,192,115188,1,4
256,192,115364,1,4
256,192,116953,12,4,118365
