osu file format v9

[General]
AudioFilename: 02. .mp3
AudioLeadIn: 0
PreviewTime: 67800
Countdown: 1
SampleSet: Soft
StackLeniency: 0.9
Mode: 0
LetterboxInBreaks: 1

[Editor]
Bookmarks: 26405,102805,118405,240805
DistanceSpacing: 1.2
BeatDivisor: 4
GridSize: 8

[Metadata]
Title:genjitsu toiu mei no kaibutsu to tatakau mono tachi
Artist:takahashi yuu
Creator:AceproCX
Version:bokukokurumakokuruma
Source:Bakuman
Tags:Evil_Twilight deepsea

[Difficulty]
HPDrainRate:7
CircleSize:5
OverallDifficulty:6
ApproachRate:8
SliderMultiplier:2.20000000596046
SliderTickRate:0.5

[Events]
//Background and Video events
0,0,"BG.jpg"
//Break Periods
2,103005,117855
//Storyboard Layer 0 (Background)
//Storyboard Layer 1 (Fail)
//Storyboard Layer 2 (Pass)
//Storyboard Layer 3 (Foreground)
//Storyboard Sound Samples
//Background Colour Transformations
3,100,163,162,255

[TimingPoints]
13605,400,4,2,0,100,1,0
55215,-200,4,2,0,100,0,0
64815,-100,4,2,0,100,0,0
68005,-100,4,1,0,64,0,1
74415,-100,4,1,0,64,0,1
92015,-200,4,1,0,64,0,1
93605,-100,4,2,0,80,0,0
94005,-200,4,2,0,80,0,1
118415,-100,4,2,0,80,0,0
123305,-100,4,2,0,80,0,0
126605,-100,4,2,0,100,0,0
126905,-100,4,2,0,80,0,0
127805,-100,4,1,0,80,0,0
128105,-100,4,2,0,80,0,0
144815,-200,4,2,0,80,0,0
154005,-100,4,2,0,80,0,1
154105,-100,4,2,0,80,0,0
154405,-100,4,2,0,80,0,1
154505,-100,4,2,0,80,0,0
154805,-100,4,2,0,80,0,1
154905,-100,4,2,0,80,0,0
155205,-100,4,2,0,80,0,1
155305,-100,4,2,0,80,0,0
155605,-100,4,2,0,80,0,1
155705,-100,4,2,0,80,0,0
156005,-100,4,2,0,80,0,1
156105,-100,4,2,0,80,0,0
157205,-100,4,2,0,80,0,1
157305,-100,4,2,0,80,0,0
157605,-100,4,1,0,69,0,1
183215,-200,4,1,0,69,0,1
195805,-133.333333333333,4,1,0,50,0,0
196205,-133.333333333333,4,1,0,60,0,0
196605,-133.333333333333,4,1,0,70,0,0
199205,-133.333333333333,4,1,0,59,0,0
200700,-100,4,2,0,85,0,0
200705,-100,4,1,0,68,0,0
200805,-100,4,2,0,70,0,1
200905,-100,4,1,0,71,0,1
213505,-100,4,1,0,69,0,0
213605,-100,4,1,0,70,0,1
224715,-100,4,1,0,54,0,1
226415,-100,4,2,0,89,0,1
231805,-200,4,2,0,89,0,1
240705,-100,4,1,0,85,0,1
240805,-100,4,1,0,85,0,0

[Colours]
Combo1 : 240,119,122
Combo2 : 242,194,130
Combo3 : 98,155,242

[HitObjects]
256,192,26405,12,0,28605
256,192,28805,5,0
256,192,29005,1,0
256,192,29405,1,0
256,80,29605,6,0,B|136:80,1,110.000000298023,2|0
64,160,30005,2,0,B|184:160,1,110.000000298023
256,232,30405,2,0,B|120:232,1,110.000000298023,2|0
64,304,30805,2,0,B|184:304,1,110.000000298023
288,304,31205,2,0,B|416:304,1,110.000000298023,2|0
488,240,31605,2,0,B|352:240,1,110.000000298023
288,176,32005,2,0,B|400:176,1,110.000000298023,2|0
488,112,32405,2,0,B|368:112,1,110.000000298023
336,8,32805,5,2
256,80,33005,1,0
176,152,33205,1,0
176,152,33605,2,0,B|176:272,1,110.000000298023,2|0
264,192,34005,1,0
344,120,34205,1,0
424,192,34405,1,2
344,264,34605,1,0
264,344,34805,1,0
152,152,35205,1,2
152,152,35305,1,0
55,96,35505,1,0
55,96,35605,1,0
151,40,35805,5,0
151,40,36005,2,0,B|264:40,1,110.000000298023,2|0
336,112,36405,2,0,B|216:112,1,110.000000298023
152,192,36805,2,0,B|265:192,1,110.000000298023,2|0
336,272,37205,2,0,B|216:272,1,110.000000298023
152,352,37605,2,0,B|152:232,1,110.000000298023,2|0
80,328,38005,2,0,B|80:208,1,110.000000298023
40,112,38405,1,2
40,112,38605,1,0
144,136,38805,1,0
144,136,39005,1,0
248,168,39205,5,2
360,168,39405,1,0
360,168,39505,1,0
360,168,39605,1,0
200,320,40005,1,2
88,320,40205,1,0
88,320,40305,1,0
88,320,40405,1,0
256,184,40805,5,2
256,184,40905,1,0
256,184,41005,1,0
320,272,41205,1,2
320,272,41305,1,0
320,272,41405,1,0
320,272,41805,6,0,B|448:272,2,110.000000298023
232,336,42405,2,0,B|176:216,1,110.000000298023,2|0
96,264,42805,2,0,B|40:144,1,110.000000298023
112,80,43205,1,2
208,24,43405,1,0
264,120,43605,1,0
168,168,43805,1,0
168,168,44005,6,0,B|168:312,1,110.000000298023,2|0
264,328,44405,2,0,B|264:208,1,110.000000298023
368,176,44805,2,0,B|368:328,1,110.000000298023,2|0
464,336,45205,2,0,B|464:200,1,110.000000298023
464,112,45605,5,2
352,112,45805,1,0
240,112,46005,1,0
128,112,46205,1,0
80,208,46405,1,2
192,208,46605,1,0
304,208,46805,1,0
416,208,47005,1,0
416,208,47205,6,0,B|520:272|456:352|360:328,1,220.000000596046,2|0
256,328,47805,1,0
142,329,48005,2,0,B|56:352|-8:272|96:208,1,220.000000596046,2|0
200,176,48605,5,0
200,176,48805,2,0,B|168:32,1,110.000000298023,2|0
280,24,49205,2,0,B|312:144,1,110.000000298023
336,240,49605,1,2
336,240,49705,1,0
336,240,49805,1,0
256,320,50005,2,0,B|128:320,1,110.000000298023
88,232,50405,5,2
88,232,50605,1,0
64,128,50805,1,0
64,128,50905,1,0
64,128,51005,1,0
176,112,51205,1,2
176,112,51405,1,0
200,216,51605,1,0
200,216,51705,1,0
200,216,51805,1,0
296,152,52005,2,0,B|424:152,2,110.000000298023,2|0|0
296,152,52805,5,0
128,48,53005,1,0
128,248,53205,1,0
128,248,53605,5,2
256,96,53805,1,0
384,248,54005,1,0
384,248,54205,6,0,B|384:120,2,110.000000298023,0|0|0
320,312,54805,1,0
256,248,55005,1,0
192,312,55205,6,0,B|80:312,1,110.000000298023,2|0
24,248,55805,1,0
82,183,56005,2,0,B|106:184|180:184|192:184,1,110.000000298023,0|0
328,72,56805,6,0,B|328:192,1,110.000000298023,2|0
256,240,57405,1,0
256,240,57805,1,0
192,176,58005,1,0
136,240,58205,1,0
72,176,58405,6,0,B|72:48,1,110.000000298023,2|0
72,240,59205,2,0,B|72:352,1,110.000000298023
256,360,60005,1,2
256,360,60405,1,0
256,272,60605,1,0
256,96,61005,5,0
184,144,61205,1,0
112,192,61405,1,0
112,192,61605,2,0,B|112:320,1,110.000000298023,2|0
256,200,62405,1,0
256,200,62805,1,0
306,368,63205,1,2
432,141,63605,1,0
205,15,64005,1,2
79,242,64405,1,0
432,141,64805,6,0,B|376:48,1,110.000000298023,2|0
368,224,65405,2,0,B|312:320,1,110.000000298023
280,144,65805,2,0,B|223:50,1,110.000000298023,2|0
192,224,66205,2,0,B|136:320,1,110.000000298023
256,192,66605,12,0,67805
417,74,68005,5,2
138,30,68405,1,0
94,309,68805,1,2
373,353,69205,1,0
373,353,69405,1,0
373,353,69605,2,0,B|448:264|464:136,1,220.000000596046,2|0
360,72,70205,1,0
360,72,70405,2,0,B|360:192,1,110.000000298023,2|0
256,264,70805,2,0,B|256:128,1,110.000000298023
160,64,71205,6,0,B|64:160|64:272,1,220.000000596046,2|0
176,328,71805,1,0
184,192,72005,1,2
184,192,72405,2,0,B|272:280,1,110.000000298023
360,360,72805,1,2
448,264,73005,1,0
448,264,73405,1,0
320,232,73605,1,2
320,232,74005,1,0
144,80,74405,5,2
91,240,74605,1,0
228,340,74805,1,0
365,240,75005,1,0
313,79,75205,1,2
313,79,75605,6,0,B|432:80,1,110.000000298023
312,152,76005,2,0,B|184:152,1,110.000000298023,2|0
312,224,76405,2,0,B|432:224,2,110.000000298023,0|0|2
312,224,77205,5,0
312,224,77405,1,0
180,367,77605,1,2
180,367,77805,1,0
131,175,78005,1,0
131,175,78205,1,0
312,224,78405,1,2
256,80,78805,5,0
256,80,79005,1,0
256,80,79205,2,0,B|384:96|480:32,1,220.000000596046,2|0
256,304,80005,2,0,B|128:288|32:352,1,220.000000596046,2|0
72,80,80805,5,2
200,80,81005,1,0
328,80,81205,1,0
448,312,81605,2,0,B|336:352|208:320,1,220.000000596046,2|0
96,320,82205,1,0
40,192,82405,6,0,B|88:64,1,110.000000298023,2|0
168,192,82805,2,0,B|216:320,1,110.000000298023
288,192,83205,2,0,B|336:64,1,110.000000298023,2|0
416,192,83605,2,0,B|464:320,1,110.000000298023
320,312,84005,5,2
320,312,84405,1,0
336,144,84605,1,0
184,208,84805,1,2
480,352,85205,1,0
424,24,85605,5,2
424,24,86005,1,0
256,24,86205,1,0
88,24,86405,1,2
88,24,86805,2,0,B|56:128,1,110.000000298023
112,288,87205,5,2
184,144,87405,1,0
256,288,87605,1,0
328,144,87805,1,0
400,288,88005,1,2
424,40,88405,5,0
256,40,88605,1,0
88,40,88805,1,2
16,192,89005,1,0
184,192,89205,1,0
352,192,89405,1,0
512,192,89605,1,2
256,383,90005,5,0
405,312,90205,1,0
442,145,90405,1,2
337,18,90605,1,0
165,22,90805,1,0
67,155,91005,1,0
108,315,91205,1,2
256,24,91605,5,0
256,24,91805,1,0
256,24,92005,2,0,B|256:136,3,110.000000298023
48,328,93605,5,0
48,328,94005,2,0,B|280:328,1,220.000000596046
432,328,95205,1,2
432,328,95305,1,0
432,328,95405,1,0
376,272,95605,1,2
376,272,95705,1,0
376,272,95805,1,0
432,216,96005,1,2
432,216,96105,1,0
432,216,96205,1,0
376,160,96405,1,2
376,160,96505,1,0
376,160,96605,1,0
464,56,96805,5,0
464,56,97205,2,0,B|232:56,1,220.000000596046
80,56,98405,1,2
80,56,98505,1,0
80,56,98605,1,0
136,112,98805,1,2
136,112,98905,1,0
136,112,99005,1,0
80,168,99205,1,2
80,168,99305,1,0
80,168,99405,1,0
136,224,99605,1,2
136,224,99705,1,0
136,224,99805,1,0
80,288,100005,5,0
248,288,100405,1,0
416,288,100805,1,0
248,288,101205,1,0
328,144,101605,5,2
328,104,101705,1,0
256,56,101905,1,0
256,96,102005,1,2
120,192,102405,5,2
160,192,102505,1,0
120,264,102705,1,0
80,264,102805,1,2
104,32,118605,5,0
104,32,118805,1,0
104,32,119005,1,0
144,96,119205,2,0,B|144:216,3,110.000000298023,0|0|8|0
216,168,120005,2,0,B|216:312,3,110.000000298023,0|0|8|0
296,280,120805,5,0
296,280,121005,1,0
296,280,121205,1,8
296,280,121405,1,0
352,224,121605,1,0
352,224,121805,1,0
352,224,122005,1,8
352,224,122205,1,0
408,168,122405,6,0,B|408:32,2,110.000000298023,0|0|8
296,64,123205,2,0,B|168:64,1,110.000000298023
216,136,123605,2,0,B|88:136,1,110.000000298023,8|0
80,208,124005,5,2
112,232,124105,1,0
144,256,124205,1,0
176,280,124305,1,0
208,304,124405,1,0
312,192,124805,5,2
336,160,124905,1,0
360,128,125005,1,0
384,96,125105,1,0
408,64,125205,1,0
336,32,125405,5,0
336,32,125605,1,0
184,32,126005,1,8
184,32,126405,2,0,B|240:160,1,110.000000298023
152,128,126805,2,0,B|88:224,1,110.000000298023,8|0
144,280,127205,5,0
144,280,127605,1,8
144,280,128005,2,0,B|256:224,1,110.000000298023
248,304,128405,2,0,B|352:360,1,110.000000298023,8|0
400,296,128805,1,0
424,224,129005,1,0
344,232,129205,1,8
344,232,129605,1,0
296,168,129805,1,0
248,104,130005,1,8
96,72,130405,5,2
96,112,130505,1,0
40,168,130705,1,0
40,208,130805,1,2
40,248,130905,1,0
40,288,131005,1,0
96,344,131205,1,2
256,336,131405,6,0,B|392:336,2,110.000000298023
184,256,132005,1,0
184,256,132205,1,0
256,176,132405,1,8
256,176,132605,1,0
176,104,132805,1,0
176,104,133005,1,0
256,24,133205,1,8
256,24,133405,1,0
352,72,133605,6,0,B|496:72,1,110.000000298023
408,168,134005,1,8
408,168,134205,1,0
416,280,134405,2,0,B|272:280,1,110.000000298023
192,280,134805,1,8
192,280,135005,1,0
192,280,135205,6,0,B|192:160,1,110.000000298023
88,208,135605,2,0,B|88:80,1,110.000000298023,8|0
176,32,136005,1,0
288,32,136205,1,0
400,32,136405,2,0,B|456:144|400:288,1,220.000000596046,8|0
208,336,137205,5,8
208,336,137305,1,0
112,280,137505,1,0
112,280,137605,1,0
16,224,137805,1,0
16,224,137905,1,0
16,224,138005,1,8
112,168,138205,5,0
112,168,138405,2,0,B|168:64,1,110.000000298023
272,72,138805,1,8
272,72,139005,2,0,B|336:176|272:296,1,220.000000596046
392,288,139605,1,8
392,288,139805,2,0,B|456:176,1,110.000000298023
440,80,140205,2,0,B|320:24,1,110.000000298023,0|8
336,144,140605,2,0,B|224:176,1,110.000000298023
176,80,141005,2,0,B|64:32,1,110.000000298023,0|8
72,144,141405,1,0
72,256,141605,1,0
160,192,141805,1,0
272,192,142005,5,8
272,192,142405,1,0
378,157,142605,1,0
413,263,142805,1,8
306,298,143005,1,0
192,296,143205,1,2
192,296,143305,1,0
80,296,143505,1,0
80,296,143605,1,2
104,192,143805,5,0
176,112,144005,1,0
256,32,144205,1,0
336,112,144405,1,0
408,192,144605,1,0
408,192,144805,6,0,B|408:304,1,110.000000298023,2|0
312,352,145405,1,0
256,256,145605,2,0,B|136:256,1,110.000000298023
64,56,146405,6,0,B|192:56,1,110.000000298023,2|0
224,152,147005,1,0
288,56,147205,1,0
336,152,147405,1,0
384,56,147605,1,0
440,152,147805,1,0
440,264,148005,6,0,B|312:264,1,110.000000298023,2|0
256,344,148605,1,0
184,264,148805,2,0,B|64:264,1,110.000000298023
64,40,149605,6,0,B|192:40,1,110.000000298023,2|0
120,136,150205,1,0
120,136,150605,5,0
232,136,150805,1,0
344,136,151005,1,0
456,136,151205,1,2
328,320,151605,5,0
328,320,151805,1,0
256,232,152005,1,0
256,232,152205,1,0
192,320,152405,1,0
192,320,152605,1,0
256,232,152805,1,2
328,64,153205,5,0
328,64,153405,1,0
256,152,153605,1,0
256,152,153805,1,0
192,64,154005,1,0
192,64,154205,1,0
256,152,154405,5,2
280,192,154805,1,0
304,224,155205,1,0
328,264,155605,1,0
256,336,156005,5,2
224,296,156405,1,0
192,256,156805,1,0
192,256,156905,1,0
192,256,157005,1,0
192,256,157105,1,0
192,256,157205,1,0
192,256,157305,1,0
192,256,157405,1,0
192,256,157505,1,0
192,256,157605,6,0,B|96:176|64:56,1,220.000000596046,2|0
320,128,158405,2,0,B|416:208|448:328,1,220.000000596046,2|0
328,304,159005,1,0
216,304,159205,2,0,B|64:264,1,110.000000298023,2|0
72,80,159605,2,0,B|208:112,1,110.000000298023
368,40,160005,1,2
416,232,160205,1,0
368,40,160405,1,0
416,232,160605,1,0
224,184,160805,5,2
224,184,161205,2,0,B|208:336,1,110.000000298023
88,336,161605,2,0,B|48:192|88:96,1,220.000000596046,2|0
200,64,162205,1,0
200,64,162405,2,0,B|336:48,1,110.000000298023,2|0
400,144,162805,2,0,B|280:160,1,110.000000298023
224,272,163205,2,0,B|360:256,1,110.000000298023,2|0
424,352,163605,2,0,B|304:368,1,110.000000298023
184,352,164005,5,2
184,47,164205,1,0
362,293,164405,1,0
73,199,164605,1,0
362,105,164805,1,2
362,105,165205,6,0,B|448:192,1,110.000000298023
304,192,165605,2,0,B|240:288,1,110.000000298023,2|0
192,160,166005,1,0
192,160,166205,1,0
192,160,166405,1,2
56,320,166805,5,0
256,320,167005,1,0
456,320,167205,1,2
256,320,167405,1,0
56,320,167605,1,0
256,320,167805,1,0
456,320,168005,1,2
352,80,168405,5,0
352,80,168605,1,0
312,104,168805,1,2
272,128,169205,1,0
232,152,169605,1,2
192,176,170005,1,0
424,312,170405,5,2
320,232,170605,1,0
424,312,170805,2,0,B|456:192|416:64,1,220.000000596046,0|2
304,32,171405,1,0
344,160,171605,1,0
216,192,171805,1,0
176,56,172005,1,2
176,56,172405,2,0,B|80:120,1,110.000000298023
48,240,172805,1,2
48,240,172905,1,0
48,240,173005,1,0
144,328,173205,1,2
144,328,173305,1,0
144,328,173405,1,0
144,328,173605,6,0,B|392:328,1,220.000000596046,2|0
464,240,174205,1,0
464,240,174405,2,0,B|496:112|448:16,1,220.000000596046,2|0
344,96,175005,1,0
256,8,175205,1,2
256,8,175605,1,0
256,8,176005,2,0,B|176:104,1,110.000000298023,2|0
56,80,176405,2,0,B|104:208,1,110.000000298023
96,312,176805,5,2
376,352,177005,1,0
416,72,177205,1,2
136,32,177405,1,0
96,312,177605,1,2
96,312,178005,6,0,B|56:208,1,110.000000298023,2|0
232,16,178405,2,0,B|272:128,1,110.000000298023,2|0
472,296,178805,2,0,B|432:192,2,110.000000298023,2|0|2
472,296,179605,5,2
181,223,179805,1,0
379,5,180005,1,2
472,296,180205,1,0
181,223,180405,1,2
379,5,180605,1,0
472,296,180805,1,2
208,288,181205,5,0
64,64,181605,1,2
32,328,182005,1,0
256,192,182405,1,2
256,192,182605,1,0
256,192,182805,1,0
256,192,183205,6,0,B|256:72,1,110.000000298023,2|0
56,48,184005,1,2
56,48,184205,1,0
56,48,184405,1,0
56,48,184605,1,0
56,48,184805,2,0,B|56:168,1,110.000000298023,2|0
456,336,185605,5,2
456,336,185805,1,0
456,336,186005,1,0
456,336,186205,1,0
456,336,186405,2,0,B|456:216,1,110.000000298023,2|0
400,32,187205,5,2
328,96,187405,1,0
256,168,187605,1,0
184,232,187805,1,0
104,296,188005,2,0,B|104:176,1,110.000000298023,2|0
112,32,188805,5,2
184,96,189005,1,0
256,168,189205,1,0
320,240,189405,1,0
392,312,189605,1,2
192,312,190005,5,0
192,312,190205,1,0
120,240,190405,1,2
120,240,190605,1,0
216,216,190805,1,0
216,216,191005,1,0
192,312,191205,2,0,B|320:312,1,110.000000298023,2|0
424,160,192005,5,2
424,160,192205,1,0
496,88,192405,1,0
496,88,192605,1,0
400,64,192805,2,0,B|272:64,1,110.000000298023,2|0
192,232,193605,5,2
259,364,193805,1,0
392,297,194005,1,0
324,164,194205,1,0
324,164,194405,6,0,B|344:96,1,55.0000001490115,2|0
272,40,194805,2,0,B|256:96,1,55.0000001490115
160,112,195205,2,0,B|180:44,1,55.0000001490115,2|0
88,8,195605,1,0
88,8,195805,5,0
24,144,196005,1,2
160,192,196205,1,0
216,56,196405,1,2
88,8,196605,1,0
12,165,196805,1,2
171,221,197005,1,0
236,63,197205,1,2
88,8,197405,1,0
256,192,197605,12,0,199205
256,192,199605,5,0
256,192,200005,1,2
256,192,200105,1,0
256,192,200205,1,0
256,192,200305,1,0
256,192,200405,1,2
256,192,200505,1,0
256,192,200605,1,0
256,192,200705,1,0
256,192,200805,6,0,B|136:224,1,110.000000298023,2|0
176,112,201205,2,0,B|304:80,1,110.000000298023
392,56,201605,2,0,B|448:160|400:272,1,220.000000596046,2|0
296,256,202205,1,0
296,256,202405,6,0,B|328:368,1,110.000000298023,2|0
216,128,202805,2,0,B|184:16,1,110.000000298023
296,256,203205,1,2
216,128,203405,1,0
296,256,203605,1,0
216,128,203805,1,0
128,192,204005,5,2
128,192,204105,1,0
120,304,204305,1,0
120,304,204405,2,0,B|224:360,1,110.000000298023
328,352,204805,2,0,B|424:272|448:160,1,220.000000596046,2|0
416,64,205405,1,0
304,48,205605,5,2
304,48,205705,1,0
304,48,205805,2,0,B|240:144,1,110.000000298023
344,176,206205,1,0
448,216,206405,2,0,B|352:280|224:288,1,220.000000596046,2|0
32,360,207205,5,2
16,96,207405,1,0
256,192,207605,1,0
32,360,207805,1,0
16,96,208005,1,2
16,96,208405,6,0,B|144:64,1,110.000000298023
208,144,208805,2,0,B|80:176,1,110.000000298023,2|0
128,280,209205,1,0
232,256,209405,1,0
336,232,209605,1,2
336,232,210005,6,0,B|392:344,1,110.000000298023
456,192,210405,2,0,B|400:80,1,110.000000298023,2|0
328,176,210805,1,0
192,136,211005,1,0
328,176,211205,1,2
96,344,211605,6,0,B|48:240,1,110.000000298023
56,136,212005,1,2
256,232,212405,1,0
56,136,212805,1,2
112,136,212905,1,0
168,136,213005,1,0
224,136,213105,1,0
280,136,213205,1,2
336,136,213305,1,0
392,136,213405,1,0
448,136,213505,1,0
504,136,213605,6,0,B|448:256|472:360,1,220.000000596046,2|0
8,248,214405,2,0,B|64:128|40:24,1,220.000000596046,2|0
128,104,215005,1,0
128,104,215205,2,0,B|240:64,1,110.000000298023,2|0
352,120,215605,2,0,B|232:168,1,110.000000298023
128,208,216005,2,0,B|192:320,1,110.000000298023,2|0
304,352,216405,2,0,B|248:240,1,110.000000298023
408,72,216805,5,2
408,72,217205,2,0,B|448:192,2,110.000000298023,0|0|2
152,144,218005,1,0
88,264,218205,1,0
192,344,218405,2,0,B|312:128,1,220.000000596046,2|0
472,352,219205,1,2
472,352,219305,1,0
456,224,219505,1,0
456,224,219605,1,0
456,224,219705,1,0
456,224,219805,1,0
384,112,220005,5,2
114,259,220205,1,0
384,112,220405,1,0
114,259,220605,1,0
384,112,220805,1,2
384,112,221205,6,0,B|416:232,1,110.000000298023
114,259,221605,2,0,B|80:136,1,110.000000298023,2|0
384,112,222005,1,0
114,259,222205,1,0
384,112,222405,1,2
128,40,222805,5,0
20,158,223005,1,0
70,311,223205,1,2
226,344,223405,1,0
333,225,223605,1,0
284,73,223805,1,0
128,40,224005,1,2
128,40,224405,5,0
232,280,224805,1,2
224,248,224905,1,0
216,216,225005,1,0
232,24,225205,1,2
240,64,225305,1,0
248,104,225405,1,0
384,352,225605,1,2
392,320,225705,1,0
400,288,225805,1,0
408,256,225905,1,0
416,224,226005,1,2
424,192,226105,1,0
432,160,226205,1,0
440,128,226305,1,0
448,96,226405,5,2
320,96,226805,1,0
192,96,227205,1,0
64,96,227605,1,0
16,216,228005,1,2
144,216,228405,1,0
272,216,228805,1,0
400,216,229205,1,0
456,336,229605,5,2
320,336,230005,1,0
192,336,230405,1,2
64,336,230805,1,0
64,336,231005,1,0
64,336,231405,1,0
64,336,231605,1,0
64,64,232005,2,0,B|136:64,1,55.0000001490115,2|0
184,64,232405,1,2
216,64,232505,1,0
248,64,232605,1,0
280,64,232705,1,0
312,64,232805,5,2
432,120,233205,1,0
312,184,233605,1,2
432,240,234005,1,0
432,240,234405,6,0,B|416:312,1,55.0000001490115,2|0
360,320,234805,2,0,B|376:256,1,55.0000001490115
328,224,235205,2,0,B|312:288,1,55.0000001490115,2|0
248,296,235605,2,0,B|264:232,1,55.0000001490115
256,192,236005,12,0,240805
