osu file format v9

[General]
AudioFilename: 02. .mp3
AudioLeadIn: 0
PreviewTime: 67800
Countdown: 1
SampleSet: Normal
StackLeniency: 0.2
Mode: 0
LetterboxInBreaks: 1

[Editor]
DistanceSpacing: 0.8
BeatDivisor: 4
GridSize: 8

[Metadata]
Title:genjitsu toiu mei no kaibutsu to tatakau mono tachi
Artist:takahashi yuu
Creator:AceproCX
Version:Saikou
Source:Bakuman
Tags:Evil_Twilight deepsea

[Difficulty]
HPDrainRate:7
CircleSize:4
OverallDifficulty:6
ApproachRate:8
SliderMultiplier:1.40000000596046
SliderTickRate:0.5

[Events]
//Background and Video events
0,0,"BG.jpg"
//Break Periods
2,52609,53455
2,97410,98655
2,103010,117000
2,129410,130455
//Storyboard Layer 0 (Background)
//Storyboard Layer 1 (Fail)
//Storyboard Layer 2 (Pass)
//Storyboard Layer 3 (Foreground)
//Storyboard Sound Samples
//Background Colour Transformations
3,100,163,162,255

[TimingPoints]
13605,400,4,2,0,80,1,0
68005,-100,4,2,0,80,0,1
73205,-50,4,2,0,80,0,1
73405,-100,4,2,0,80,0,1
80605,-100,4,2,0,80,0,0
80805,-100,4,2,0,80,0,1
93605,-100,4,2,0,80,0,0
94005,-100,4,2,0,80,0,1
96605,-100,4,2,0,80,0,0
97305,-100,4,2,0,80,0,0
99405,-100,4,2,0,80,0,1
99505,-100,4,2,0,80,0,0
123305,-100,4,2,0,80,0,0
126605,-100,4,2,0,100,0,0
126905,-100,4,2,0,80,0,0
127805,-100,4,1,0,80,0,0
128105,-100,4,2,0,80,0,0
154005,-100,4,2,0,80,0,1
154105,-100,4,2,0,80,0,0
154405,-100,4,2,0,80,0,1
154505,-100,4,2,0,80,0,0
154805,-100,4,2,0,80,0,1
154905,-100,4,2,0,80,0,0
155205,-100,4,2,0,80,0,1
155305,-100,4,2,0,80,0,0
155605,-100,4,2,0,80,0,1
155705,-100,4,2,0,80,0,0
156005,-100,4,2,0,80,0,1
156105,-100,4,2,0,80,0,0
157205,-100,4,2,0,80,0,1
157305,-100,4,2,0,80,0,0
157605,-100,4,2,0,80,0,1
163905,-100,4,2,0,80,0,0
164005,-100,4,2,0,80,0,1
166805,-100,4,2,0,20,0,1
167105,-100,4,2,0,80,0,1
170305,-100,4,2,0,80,0,0
170405,-100,4,2,0,80,0,1
176705,-100,4,2,0,80,0,0
176805,-100,4,2,0,80,0,1
183105,-100,4,2,0,80,0,0
183205,-133.333333333333,4,2,0,80,0,0
183305,-133.333333333333,4,1,0,80,0,0
183605,-133.333333333333,4,1,0,39,0,0
195805,-133.333333333333,4,1,0,50,0,0
196205,-133.333333333333,4,1,0,60,0,0
196605,-133.333333333333,4,1,0,70,0,0
199205,-133.333333333333,4,1,0,80,0,0
200700,-100,4,2,0,85,0,0
200705,-100,4,1,0,83,0,0
200805,-100,4,2,0,85,0,1
200905,-100,4,1,0,85,0,1
211605,-100,4,1,0,70,0,1
213505,-100,4,1,0,85,0,0
213605,-100,4,1,0,85,0,1
226305,-100,4,2,0,85,0,0
229505,-100,4,1,0,64,0,0
240705,-100,4,1,0,85,0,1
240805,-100,4,1,0,85,0,0

[Colours]
Combo1 : 240,119,122
Combo2 : 242,194,130
Combo3 : 98,155,242

[HitObjects]
256,192,26405,12,4,28405
256,192,28805,5,8
256,192,29005,1,8
168,112,29205,1,12
88,160,29405,2,0,B|56:184|96:232,1,70.000000298023,0|8
136,280,29805,2,0,B|160:320|216:264,1,70.000000298023,0|8
256,200,30205,1,0
352,208,30405,1,8
368,112,30605,1,0
392,256,30805,5,8
280,248,31005,1,0
392,256,31205,1,8
328,160,31405,1,0
392,256,31605,1,8
432,152,31805,1,0
392,256,32005,1,8
312,256,32205,5,0
312,144,32405,1,8
232,200,32605,1,0
232,88,32805,1,8
160,144,33005,1,0
128,280,33205,2,0,B|168:256|208:288,1,70.000000298023,8|0
280,280,33605,2,0,B|312:312|368:256,1,70.000000298023,8|0
400,192,34005,5,8
312,88,34205,1,8
232,192,34405,1,4
136,120,35805,6,0,B|104:152|136:192,1,70.000000298023,2|0
208,56,36205,1,0
208,248,36405,1,0
288,104,36605,1,2
288,248,36805,1,0
368,160,37005,1,0
368,248,37205,1,0
432,200,37405,1,2
320,192,37605,6,0,B|280:192|232:192,1,70.000000298023,0|0
160,120,38005,2,0,B|128:112|88:168,1,70.000000298023,0|2
56,232,38405,1,0
120,280,38605,1,2
184,320,38805,1,0
256,328,39005,2,2,B|320:328|344:328,1,70.000000298023
368,328,39405,1,2
408,328,39605,1,8
352,112,41605,5,8
408,184,41805,1,8
352,248,42005,2,0,B|296:296,1,70.000000298023,8|0
272,232,42405,1,8
256,216,42505,1,0
240,200,42605,1,8
208,120,42805,2,0,B|152:168,1,70.000000298023,8|8
48,152,43205,1,0
96,256,43405,1,8
160,184,43605,1,0
224,112,43805,1,8
304,160,44005,2,0,B|368:200,1,70.000000298023,0|8
440,240,44405,5,0
360,320,44605,1,8
280,240,44805,1,0
192,312,45005,2,8,B|136:240,1,70.000000298023,8|0
128,160,45405,1,8
208,80,45605,1,0
288,160,45805,1,8
352,80,46005,1,0
424,152,46205,2,0,B|376:208|368:216,1,70.000000298023,8|0
448,280,46605,6,0,B|368:304,1,70.000000298023,8|8
272,304,47005,1,4
168,304,47205,1,6
200,120,48405,5,2
88,120,48605,1,2
200,120,48805,1,0
144,192,49005,1,0
256,192,49205,1,0
200,264,49405,1,2
304,264,49605,1,0
200,264,49805,1,0
88,264,50005,1,0
144,192,50205,5,2
256,192,50405,1,0
144,192,50605,1,0
88,120,50805,1,0
200,120,51005,1,2
144,192,51205,1,0
256,192,51405,1,2
336,96,51605,2,0,B|384:168,1,70.000000298023,0|2
376,320,52205,2,0,B|304:320,1,70.000000298023,8|4
128,296,54205,5,8
208,248,54405,1,8
232,248,54505,1,0
256,248,54605,1,8
296,176,54805,2,0,B|368:176,1,70.000000298023,8|0
368,296,55205,1,4
56,208,56005,2,0,B|72:152|136:120|176:56|240:80|304:72|304:72,1,280.000001192092,8|4
416,112,57005,5,0
416,232,57205,1,8
336,176,57405,1,0
336,280,57605,1,8
264,240,57805,2,0,B|200:296,1,70.000000298023,0|8
128,320,58205,1,0
72,240,58405,6,0,B|96:192|136:168|184:160|200:176|200:168,1,140.000000596046,8|8
288,184,59005,1,8
304,184,59105,1,0
320,184,59205,1,8
328,312,59405,1,8
224,312,59605,1,8
208,312,59705,1,0
192,312,59805,1,8
184,184,60005,5,8
288,184,60205,2,0,B|368:184,2,70.000000298023,8|0|8
184,208,61005,5,8
128,304,61205,1,8
128,304,61305,1,0
128,304,61405,1,8
240,304,61605,1,8
360,304,61805,1,0
328,208,62005,1,0
304,208,62105,1,0
280,208,62205,1,8
160,208,62405,6,0,B|112:152,1,70.000000298023,0|8
216,88,62805,1,0
312,88,63005,1,8
408,88,63205,1,0
368,176,63405,1,8
368,176,63505,1,0
368,176,63605,1,8
432,240,63805,2,0,B|368:264,1,70.000000298023,0|8
288,264,64205,1,10
272,264,64305,1,2
256,264,64405,1,8
240,264,64505,1,0
224,264,64605,1,0
144,176,64805,5,8
368,176,65205,1,8
192,304,65605,1,8
256,80,66005,1,8
328,304,66405,1,0
88,56,66805,1,4
256,344,67205,1,4
400,64,67605,1,4
168,248,68005,5,8
168,144,68205,1,0
184,144,68305,1,0
200,144,68405,1,8
216,144,68505,1,2
232,144,68605,2,0,B|312:144,1,70.000000298023,8|2
368,192,69005,1,8
256,320,69205,5,2
152,272,69405,1,4
264,200,69605,1,4
224,264,69805,5,8
136,208,70005,1,12
216,144,70205,1,12
296,208,70405,1,4
296,296,70605,2,0,B|216:296,1,70.000000298023,8|4
224,296,70905,1,0
224,296,71005,1,8
80,296,71205,6,0,B|80:208,1,70.000000298023,2|8
80,128,71605,2,0,B|88:88|152:80,1,70.000000298023,2|8
232,88,72005,1,0
248,104,72105,1,8
264,120,72205,1,0
272,232,72405,1,8
296,232,72505,1,0
320,232,72605,1,8
384,304,72805,1,2
384,304,73005,1,8
112,304,73205,5,4
256,80,73605,1,4
384,304,74005,1,4
368,144,74405,6,0,B|320:200,1,70.000000298023,8|2
264,248,74805,1,8
264,248,74905,1,2
264,248,75005,1,8
184,304,75205,2,0,B|128:256,1,70.000000298023,2|8
56,208,75605,2,0,B|112:152,1,70.000000298023,2|8
256,136,76005,5,4
424,136,76205,1,8
344,272,76405,1,8
176,272,76605,1,8
256,136,76805,1,4
112,80,77205,5,0
128,200,77405,1,0
224,136,77605,1,8
152,136,77805,5,8
144,264,78005,1,8
256,192,78205,1,0
144,264,78405,1,8
352,192,78805,1,0
376,192,78905,1,0
400,192,79005,1,8
256,48,79205,5,4
104,192,79605,1,4
256,328,80005,1,4
392,192,80405,1,4
144,240,80805,5,8
192,312,81005,2,8,B|264:312,1,70.000000298023,8|10
288,312,81305,1,0
320,312,81405,1,0
336,224,81605,1,0
280,144,81805,1,0
256,128,81905,1,8
232,112,82005,1,0
96,104,82205,2,0,B|96:168|96:152|120:208|192:224,1,140.000000596046,8|0
160,304,82805,5,0
248,240,83005,1,8
224,120,83205,1,0
200,120,83305,1,8
176,120,83405,1,0
344,128,83605,2,0,B|344:168|344:224,1,70.000000298023,0|8
344,224,83905,1,0
344,248,84005,1,8
96,192,84405,5,2
144,288,84605,1,8
184,288,84705,1,8
232,288,84805,1,8
272,288,84905,1,2
312,288,85005,1,8
408,200,85205,1,2
320,96,85405,6,8,B|288:64|256:48|200:80|184:120,1,140.000000596046,0|4
152,232,86005,2,0,B|136:272|184:288,1,70.000000298023,2|4
336,288,86405,2,0,B|376:280|384:240|360:224,1,70.000000298023,0|4
288,104,86805,6,4,B|248:64|216:128,1,70.000000298023,6|4
112,104,87205,1,8
112,264,87405,1,2
216,264,87605,1,8
240,296,87705,1,0
288,304,87805,1,8
336,288,87905,1,0
360,264,88005,1,8
144,152,88405,6,0,B|144:104|208:104,1,70.000000298023,2|4
336,104,88805,2,0,B|384:112|384:160,1,70.000000298023,0|4
336,240,89205,1,8
304,264,89305,1,8
256,272,89405,1,0
216,264,89505,1,8
192,240,89605,1,8
256,184,90005,5,8
280,200,90105,1,2
272,232,90205,1,8
240,232,90305,1,2
232,200,90405,1,8
256,280,90605,6,0,B|256:376,2,70.000000298023,8|4|8
104,176,91205,1,8
408,176,91605,1,12
184,344,92005,1,8
256,48,92405,1,4
336,344,92805,1,8
256,192,93205,1,12
256,192,93605,12,0,96405
184,200,96805,5,8
272,264,97005,1,8
312,280,97105,1,0
304,240,97205,1,8
256,192,99405,5,6
256,192,99605,12,4,102805
328,136,118405,5,8
432,136,118605,1,0
376,224,118805,2,0,B|320:280,1,70.000000298023,8|0
256,216,119205,1,8
184,272,119405,1,0
112,216,119605,2,0,B|112:144,1,70.000000298023,8|0
176,64,120005,1,8
256,120,120205,1,0
368,120,120405,6,0,B|448:120,1,70.000000298023,8|0
368,192,120805,1,8
352,320,121005,1,0
368,192,121205,1,8
264,272,121405,1,0
368,192,121605,1,8
248,184,121805,1,0
368,192,122005,1,8
304,88,122205,2,0,B|224:88,1,70.000000298023,8|0
152,104,122605,6,0,B|128:128|88:160,1,70.000000298023,8|0
96,232,123005,1,8
96,312,123205,1,0
200,312,123405,2,8,B|256:312|296:312|336:312|360:296|400:264|400:248,1,210.000000894069,8|8
400,120,124205,5,8
288,192,124405,1,4
400,120,124605,1,8
400,120,124805,1,8
288,56,125205,6,8,B|248:40|224:72,1,70.000000298023,8|8
160,112,125605,1,0
120,184,125805,1,0
160,256,126005,1,8
224,304,126205,1,0
304,280,126405,1,8
360,224,126605,2,2,B|392:192|360:152,1,70.000000298023
296,144,127005,5,8
224,144,127205,1,0
200,208,127405,1,8
256,248,127605,1,0
312,208,127805,1,4
256,256,128005,5,4
192,208,128205,1,0
216,136,128405,1,8
304,136,128605,1,0
320,208,128805,1,8
256,192,129005,1,4
256,192,129205,1,4
128,288,131205,5,8
184,224,131405,1,0
240,288,131605,1,8
304,232,131805,2,0,B|352:296,1,70.000000298023,0|8
416,232,132205,1,0
352,152,132405,1,8
288,88,132605,2,0,B|240:144,1,70.000000298023,0|8
176,88,133005,5,0
96,152,133205,1,8
176,216,133405,1,0
96,272,133605,1,8
176,328,133805,1,0
256,272,134005,1,8
336,192,134205,1,0
256,112,134405,1,8
176,192,134605,1,0
304,240,134805,5,8
304,144,135005,1,0
208,144,135205,1,8
208,240,135405,1,0
256,192,135605,5,8
256,200,135705,1,0
256,208,135805,1,8
128,312,136005,1,2
256,312,136205,1,8
384,312,136405,1,2
256,160,136605,1,4
360,240,138005,5,8
304,320,138205,1,8
272,320,138305,1,0
240,320,138405,1,8
152,320,138605,2,0,B|120:296|160:248,1,70.000000298023,8|0
80,224,139005,2,0,B|40:200|96:152,1,70.000000298023,8|0
208,224,139405,1,8
160,96,139605,6,0,B|192:136|240:72,1,70.000000298023,0|8
272,152,140005,2,0,B|304:192|344:136,1,70.000000298023,0|8
408,208,140405,1,0
424,232,140505,1,8
440,256,140605,1,0
328,296,140805,1,0
224,296,141005,1,8
136,296,141205,1,8
136,264,141305,1,8
136,232,141405,1,0
152,96,141605,5,8
256,168,141805,1,6
352,96,142005,1,4
368,224,143605,5,4
296,296,143805,1,8
272,296,143905,1,0
248,296,144005,1,8
128,256,144205,1,4
160,120,144405,1,4
264,216,144605,1,4
128,256,144805,2,4,B|120:224|152:184|176:168|224:160|248:168|248:168,1,140.000000596046,4|0
360,208,145605,2,4,B|360:264|336:320|312:328|288:336|248:344|216:352|160:344,1,280.000001192092
120,192,146805,5,8
200,112,147005,1,0
272,200,147205,1,8
259,305,147405,2,0,B|187:305,1,70.000000298023,0|8
120,304,147805,2,0,B|192:304,1,70.000000298023,0|4
376,296,148405,1,8
256,88,148805,5,8
136,296,149205,1,0
376,296,149605,1,8
224,216,150005,2,8,B|304:216,1,70.000000298023
88,216,150405,1,4
168,128,150605,1,8
168,128,150705,1,0
168,128,150805,1,8
176,296,151005,1,8
280,296,151205,6,0,B|320:320|368:280,1,70.000000298023,0|8
416,184,151605,1,0
328,88,151805,1,8
240,168,152005,2,0,B|208:192|176:168,1,70.000000298023,0|8
128,272,152405,2,0,B|144:312|200:320,1,70.000000298023,0|8
320,312,152805,6,0,B|360:304|384:256,1,70.000000298023,4|2
288,88,153205,2,0,B|248:72|208:96,1,70.000000298023,4|2
128,272,153605,2,0,B|144:312|208:320,1,70.000000298023,4|2
256,256,154005,5,8
384,256,154205,1,2
192,184,154405,1,0
320,184,154605,1,0
256,104,154805,1,8
384,104,155005,1,0
320,184,155205,1,0
192,176,155405,1,8
256,256,155605,1,2
320,184,155805,1,8
384,256,156005,1,0
136,112,156405,5,6
368,112,156805,1,6
256,320,157205,1,6
296,112,157605,5,4
216,176,157805,1,8
192,176,157905,1,2
168,176,158005,1,8
144,176,158105,1,2
120,176,158205,1,8
64,256,158405,1,4
128,320,158605,1,2
192,256,158805,2,8,B|232:256|264:256,1,70.000000298023,8|4
328,320,159205,5,8
440,320,159405,1,4
368,224,159605,2,0,B|408:240|440:200,1,70.000000298023,8|6
464,112,160005,2,0,B|456:72|400:64,1,70.000000298023,8|4
320,96,160405,2,0,B|280:128|312:184,1,70.000000298023,8|4
432,208,160805,5,8
312,280,161005,2,0,B|240:280,1,70.000000298023,8|2
136,272,161405,2,0,B|112:232|152:192|144:192,1,70.000000298023,8|8
200,112,161805,1,2
320,112,162005,1,8
352,112,162105,1,2
384,112,162205,1,8
352,264,162405,5,2
256,224,162605,2,8,B|256:168|224:136|184:136|152:136,1,140.000000596046
96,208,163205,2,0,B|64:248|104:280,1,70.000000298023,8|2
160,304,163605,2,8,B|192:328|240:296,1,70.000000298023,8|4
344,288,164005,5,8
368,272,164105,1,2
392,256,164205,1,8
296,176,164405,1,8
320,160,164505,1,0
344,144,164605,1,8
368,128,164705,1,0
392,112,164805,1,8
128,240,165205,5,8
208,304,165405,1,8
344,288,165605,1,0
368,272,165705,1,8
392,256,165805,1,8
296,176,166005,1,0
320,160,166105,1,8
344,144,166205,1,0
368,128,166305,1,8
392,112,166405,1,8
152,160,166805,6,0,B|160:176|160:176|184:152|184:152|200:184,1,70.000000298023
88,240,167205,5,2
152,312,167405,1,0
216,240,167605,2,0,B|288:240,1,70.000000298023,8|8
384,320,168005,2,0,B|384:248,1,70.000000298023,2|0
384,136,168405,2,0,B|376:88|320:80|312:80,1,70.000000298023,8|8
264,168,168805,5,2
176,88,169005,1,8
96,168,169205,2,0,B|88:248|184:248,2,140.000000596046,4|8|8
96,168,170405,5,4
216,168,170605,1,8
256,168,170705,1,0
296,168,170805,1,8
400,208,171005,2,0,B|400:240|400:296,1,70.000000298023,8|0
400,280,171305,1,8
400,280,171405,1,0
280,304,171605,2,0,B|200:304,1,70.000000298023,8|0
104,208,172005,6,0,B|104:288,2,70.000000298023,8|0|8
160,112,172605,1,0
336,112,172805,1,0
240,248,173005,1,8
360,336,173205,1,8
368,184,173405,1,8
360,336,173605,1,8
136,328,174005,6,0,B|112:296|144:248,1,70.000000298023,8|0
136,264,174305,1,8
136,264,174405,1,0
208,152,174605,2,0,B|288:152,1,70.000000298023,8|0
400,264,175005,1,0
400,264,175205,1,0
400,264,175405,1,0
280,320,175605,1,0
152,304,175805,6,0,B|120:320|80:304,1,70.000000298023,8|0
112,192,176205,1,8
256,192,176405,1,4
184,96,176605,1,8
336,88,176805,5,0
408,192,177005,1,8
328,288,177205,1,0
256,192,177405,1,8
184,96,177605,1,0
112,192,177805,1,8
184,288,178005,2,0,B|232:288|264:288|288:288|328:288|368:256|368:224|368:176|368:144,1,280.000001192092,4|4
256,80,179005,1,8
152,144,179205,1,4
376,192,179605,5,8
288,304,179805,1,8
208,192,180005,2,0,B|224:152|280:144,1,70.000000298023,0|8
368,272,180405,1,0
224,264,180605,1,8
240,176,180805,5,0
264,152,180905,1,0
304,144,181005,1,0
336,160,181105,1,0
360,184,181205,1,8
320,288,181405,6,0,B|272:304|248:272,1,70.000000298023,8|4
176,216,181805,2,0,B|128:232|96:192,1,70.000000298023,8|4
176,104,182205,1,8
288,176,182405,1,4
288,304,182605,2,0,B|232:304,6,35.0000001490115,8|0|8|0|0|0|4
368,128,183605,6,0,B|368:248,1,104.999997317791,8|0
368,232,184105,1,0
368,232,184205,1,8
288,312,184405,2,0,B|272:288|248:280|200:288|200:328,1,104.999997317791,0|8
112,312,185005,6,0,B|88:272|120:248,1,52.4999986588954
176,160,185405,5,8
312,120,185605,1,0
272,232,185805,1,0
160,304,186005,2,0,B|128:280|144:240,1,52.4999986588954,8|0
216,120,186405,6,0,B|224:88|256:80|288:96|296:128,1,104.999997317791,2|2
112,216,187005,2,2,B|112:232|88:272|120:320|208:296|208:296,1,157.499995976686
336,296,187805,2,2,B|336:264|312:216|368:192|392:216|416:216|448:216,1,157.499995976686
336,296,188605,5,0
240,296,188805,1,0
136,296,189005,1,8
184,208,189205,2,0,B|224:176,1,52.4999986588954,8|0
240,296,189605,5,2
384,136,190005,2,4,B|424:136|448:168|456:216|448:248|392:256,1,157.499995976686,4|12
312,256,190805,1,0
232,192,191005,1,8
312,120,191205,1,2
232,192,191405,2,0,B|152:264,1,104.999997317791,10|8
152,144,192005,5,0
240,72,192205,1,8
312,144,192405,2,0,B|264:104,1,52.4999986588954,10|0
152,144,192805,1,8
312,144,193005,5,0
320,248,193205,2,0,B|240:344,1,104.999997317791,10|8
320,248,193805,1,0
200,224,194005,1,8
288,136,194205,1,2
320,248,194405,2,0,B|160:112,1,209.999994635581,14|0
152,296,195805,5,8
128,192,196005,1,0
152,296,196205,1,8
232,224,196405,1,0
152,296,196605,1,8
256,328,196805,1,8
152,296,197005,1,8
256,192,197205,12,0,198805
104,104,199205,5,4
168,176,199405,1,4
208,176,199505,1,0
248,176,199605,1,4
208,256,199805,1,4
320,256,200005,1,4
248,328,200205,1,4
288,328,200305,1,0
320,328,200405,1,4
352,328,200505,1,0
392,328,200605,1,4
392,216,200805,5,6
296,120,201005,1,8
296,120,201105,1,0
296,120,201205,1,8
168,168,201405,1,8
168,200,201505,1,8
168,232,201605,1,0
168,264,201705,1,0
168,288,201805,1,0
64,208,202005,5,4
192,208,202205,2,0,B|232:208,2,35.0000001490115
280,320,202605,1,0
424,320,202805,1,0
352,216,203005,1,8
424,104,203205,1,0
296,104,203405,5,8
200,176,203605,1,8
288,248,203805,1,0
304,264,203905,1,8
320,280,204005,1,0
208,320,204205,1,0
184,320,204305,1,0
160,320,204405,1,0
136,320,204505,1,8
112,320,204605,2,0,B|200:208,1,140.000000596046,8|0
384,128,205205,5,0
384,256,205405,1,0
408,256,205505,1,8
432,256,205605,1,0
256,304,205805,1,4
152,200,206005,2,0,B|88:200,4,35.0000001490115
256,96,206605,1,0
376,96,206805,2,8,B|424:96|472:120|472:176|472:208,1,140.000000596046
416,312,207405,1,0
312,312,207605,5,0
240,232,207805,1,8
152,312,208005,1,0
128,280,208105,1,8
104,240,208205,1,8
208,192,208405,5,0
320,144,208605,1,8
312,264,208805,1,0
192,144,209005,5,8
296,96,209205,1,0
272,208,209405,1,8
192,144,209605,1,8
192,256,210005,5,8
336,160,210205,1,0
168,160,210405,1,8
312,256,210605,1,0
256,96,210805,1,8
192,256,211005,1,0
112,320,211205,5,0
152,320,211305,1,0
192,320,211405,1,0
304,320,211605,5,2
336,320,211705,1,0
376,320,211805,1,0
416,320,211905,1,0
456,320,212005,1,2
424,216,212205,1,0
376,216,212305,1,0
328,216,212405,1,2
264,128,212605,5,0
296,128,212705,1,0
328,128,212805,1,2
360,128,212905,1,0
392,128,213005,1,0
424,128,213105,1,0
456,128,213205,1,6
176,160,213605,5,8
112,232,213805,1,0
176,296,214005,1,0
240,232,214205,2,0,B|288:248|320:224,1,70.000000298023,0|8
336,320,214605,1,0
360,312,214705,1,0
376,296,214805,1,0
312,232,215005,6,0,B|352:216|352:168,1,70.000000298023,0|8
344,72,215405,1,0
312,64,215505,1,0
280,64,215605,1,0
344,176,215805,6,0,B|312:128|272:128,1,70.000000298023,0|8
192,112,216205,1,0
176,128,216305,1,0
160,144,216405,1,0
144,160,216505,1,0
128,176,216605,2,0,B|104:208|152:248,1,70.000000298023,0|8
224,296,217005,5,8
288,168,217205,1,0
352,296,217405,1,0
288,240,217605,5,8
416,240,217805,1,0
416,104,218005,1,0
288,104,218205,1,0
288,240,218405,5,8
416,240,218605,1,0
288,296,218805,5,0
312,328,218905,1,0
360,336,219005,1,0
408,328,219105,1,0
432,296,219205,1,8
288,152,219605,1,0
416,280,219805,1,0
256,304,220005,1,8
288,152,220205,1,0
256,304,220405,1,0
416,280,220605,1,0
256,304,220805,1,8
96,160,221205,5,0
168,72,221405,1,0
232,160,221605,1,8
256,160,221705,1,0
288,160,221805,1,0
360,256,222005,1,0
288,336,222205,1,0
216,256,222405,1,8
256,112,222805,5,8
320,176,223005,1,0
192,176,223205,1,8
376,240,223405,1,0
136,240,223605,1,8
256,336,223805,2,0,B|256:248,2,70.000000298023
192,176,224405,5,8
168,152,224505,1,0
144,128,224605,1,0
256,312,224805,1,8
320,176,225005,1,0
344,152,225105,1,0
368,128,225205,1,8
256,272,225405,5,0
256,248,225505,1,0
256,224,225605,1,8
256,200,225705,1,8
256,176,225805,1,0
256,152,225905,1,0
256,128,226005,1,8
256,192,226405,5,4
256,192,226605,12,0,229205
120,216,229605,5,0
176,288,230005,1,2
232,216,230405,1,0
304,264,230805,1,2
304,264,231005,1,2
344,160,231405,1,0
344,120,231605,1,0
312,144,231805,1,2
208,112,232005,2,0,B|136:112|136:112,1,70.000000298023,0|2
256,192,232405,12,0,235605
344,96,236005,5,0
248,136,236405,2,0,B|248:216,1,70.000000298023
136,176,236805,1,0
136,216,237005,1,8
168,200,237205,1,0
344,312,237605,5,0
392,208,237805,2,0,B|352:224|328:192,1,70.000000298023
424,152,238205,2,0,B|400:112|344:144,1,70.000000298023
176,120,238805,1,0
216,136,239005,1,8
208,96,239205,1,0
80,288,239605,6,0,B|144:304|176:320|208:288|240:280|288:272,1,210.000000894069
384,256,240405,2,0,B|408:240|408:240|392:192,1,70.000000298023
256,168,240805,1,0
