osu file format v9

[General]
AudioFilename: 02. .mp3
AudioLeadIn: 0
PreviewTime: 67800
Countdown: 1
SampleSet: Soft
StackLeniency: 0.7
Mode: 0
LetterboxInBreaks: 1

[Editor]
DistanceSpacing: 0.8
BeatDivisor: 2
GridSize: 8

[Metadata]
Title:genjitsu toiu mei no kaibutsu to tatakau mono tachi
Artist:takahashi yuu
Creator:AceproCX
Version:Normal+
Source:Bakuman
Tags:Evil_Twilight deepsea

[Difficulty]
HPDrainRate:3
CircleSize:4
OverallDifficulty:3
ApproachRate:4
SliderMultiplier:1.40000000596046
SliderTickRate:2

[Events]
//Background and Video events
0,0,"BG.jpg"
//Break Periods
2,105010,117285
2,183209,194685
//Storyboard Layer 0 (Background)
//Storyboard Layer 1 (Fail)
//Storyboard Layer 2 (Pass)
//Storyboard Layer 3 (Foreground)
//Storyboard Sound Samples
//Background Colour Transformations
3,100,163,162,255

[TimingPoints]
13605,400,4,2,0,70,1,0
28585,-100,4,1,0,70,0,0
60785,-100,4,1,0,59,0,0
60985,-100,4,1,0,69,0,0
67985,-100,4,1,0,70,0,1
80685,-100,4,1,0,70,0,0
80785,-100,4,1,0,70,0,1
93385,-100,4,1,0,70,0,0
93585,-100,4,1,0,70,0,1
93785,-100,4,1,0,70,0,0
157585,-100,4,1,0,70,0,1
170185,-100,4,1,0,70,0,0
170385,-100,4,1,0,70,0,1
182985,-100,4,1,0,70,0,0
200785,-100,4,1,0,70,0,1
213385,-100,4,1,0,70,0,0
213585,-100,4,1,0,70,0,1
226185,-100,4,1,0,70,0,0

[Colours]
Combo1 : 240,119,122
Combo2 : 242,194,130
Combo3 : 98,155,242

[HitObjects]
176,192,28805,2,8,B|248:192,1,70.000000298023
368,192,29605,1,8
312,272,30005,1,0
232,272,30405,2,0,B|88:272,1,140.000000596046
96,224,31005,1,0
120,184,31205,1,8
224,112,31605,1,0
336,144,32005,6,0,B|384:216|384:288,1,140.000000596046,2|0
280,280,32805,2,0,B|208:248|144:280,1,140.000000596046,8|0
216,200,33605,1,2
312,160,34005,2,0,B|368:296,1,140.000000596046,8|4
365,289,34605,1,0
365,289,34805,1,0
216,272,35205,1,2
128,160,35605,5,0
224,200,36005,1,8
320,256,36405,2,0,B|272:304|248:312|200:312|176:288,1,140.000000596046
96,304,37205,1,0
64,216,37605,1,8
144,176,38005,1,0
232,144,38405,1,8
312,104,38805,1,2
336,200,39205,1,8
288,224,39405,1,0
240,248,39605,1,8
144,104,40005,5,8
232,184,40405,1,8
320,104,40805,1,0
216,104,41205,1,0
152,192,41605,5,8
224,288,42005,1,0
344,288,42405,1,2
312,176,42805,2,0,B|240:144|176:192,1,140.000000596046,0|8
240,288,43605,1,0
344,256,44005,1,2
360,152,44405,1,0
256,96,44805,1,8
208,128,45005,1,0
160,152,45205,1,0
88,240,45605,6,0,B|96:320|192:336,1,140.000000596046,2|0
176,216,46405,2,0,B|168:144,1,70.000000298023,8|0
200,104,46805,1,0
248,128,47005,1,4
280,168,47205,1,6
360,112,48805,5,8
240,96,49205,2,0,B|112:152,1,140.000000596046,0|8
56,248,50005,1,0
128,320,50405,1,8
184,224,50805,1,0
240,320,51205,1,8
304,224,51605,1,0
368,312,52005,1,8
424,224,52405,2,0,B|464:160|416:80,1,140.000000596046,0|2
320,136,54005,5,8
280,168,54205,1,2
240,200,54405,1,8
120,200,54805,2,0,B|224:304,1,140.000000596046,4|2
328,280,55605,2,0,B|408:264|416:176,1,140.000000596046,2|8
304,136,56405,5,0
208,176,56805,1,0
232,208,57005,1,4
256,240,57205,1,0
384,256,57605,2,0,B|480:256,2,70.000000298023
384,256,58205,1,0
384,152,58405,5,8
280,72,58805,1,2
144,72,59205,1,8
144,184,59605,1,2
96,280,60005,6,0,B|248:280,1,140.000000596046,0|8
272,256,60605,1,4
304,224,60805,1,0
400,112,61205,1,8
360,112,61405,2,0,B|288:112,1,70.000000298023,0|8
152,128,62005,6,8,B|112:200|112:200,1,70.000000298023
184,192,62405,2,0,B|208:280,1,70.000000298023
144,240,62805,2,8,B|112:312,1,70.000000298023
152,328,63205,1,0
208,320,63405,1,8
256,288,63605,1,8
400,224,64005,6,0,B|384:144|280:136,1,140.000000596046
216,96,64805,1,0
128,160,65205,1,0
176,248,65605,1,0
184,288,65805,1,8
232,288,66005,1,8
248,328,66205,1,0
296,320,66405,1,8
384,256,66805,2,4,B|424:200,1,70.000000298023,4|8
392,152,67205,2,4,B|312:152,1,70.000000298023,8|8
288,192,67605,2,4,B|336:272,1,70.000000298023,8|8
240,280,68005,5,4
136,304,68405,2,0,B|96:248,1,70.000000298023,8|8
96,200,68805,1,0
136,160,69005,1,8
176,200,69205,1,8
248,120,69605,1,4
344,144,70005,5,0
344,192,70205,1,0
344,240,70405,1,0
304,336,70805,2,0,B|224:336,1,70.000000298023
192,312,71205,1,8
160,280,71405,1,0
160,240,71605,1,8
200,104,72005,6,0,B|344:104,1,140.000000596046
376,136,72605,1,8
368,184,72805,1,0
344,224,73005,1,8
296,240,73205,1,0
248,240,73405,2,8,B|184:192,1,70.000000298023
304,320,74005,5,2
344,200,74405,1,8
304,160,74605,1,0
264,120,74805,2,0,B|184:112|128:168,1,140.000000596046,0|4
184,248,75605,5,2
224,280,75805,1,8
272,288,76005,1,0
320,272,76205,2,8,B|320:192,1,70.000000298023
312,152,76605,1,0
264,128,76805,1,8
144,144,77205,6,2,B|240:144,1,70.000000298023,2|0
136,192,77605,2,2,B|192:240,1,70.000000298023,2|0
96,216,78005,2,0,B|96:288,1,70.000000298023,2|0
96,287,78405,1,8
224,304,78805,6,0,B|312:304,1,70.000000298023
416,304,79205,1,0
360,104,79605,1,8
272,304,80005,1,8
208,104,80405,1,4
152,288,80805,5,4
200,312,81005,1,0
248,288,81205,1,0
360,328,81605,1,0
432,240,82005,1,0
328,184,82405,1,8
288,152,82605,1,0
248,184,82805,1,8
144,96,83205,2,0,B|104:168|160:248,1,140.000000596046,2|8
120,328,84005,5,0
240,288,84405,2,8,B|312:320,1,70.000000298023
368,312,84805,2,2,B|432:248,1,70.000000298023
392,224,85205,1,4
352,200,85405,1,0
312,176,85605,1,8
152,136,86005,5,8
168,248,86405,1,0
280,296,86805,2,2,B|360:264,1,70.000000298023
392,232,87205,2,8,B|360:160,1,70.000000298023
328,136,87605,1,2
280,120,87805,1,0
232,136,88005,1,2
72,144,88405,5,2
72,216,88605,2,8,B|72:304,1,70.000000298023
152,304,89005,1,2
200,248,89205,2,8,B|296:248,1,70.000000298023
336,248,89605,1,2
328,88,90005,5,8
272,88,90205,1,0
216,88,90405,1,8
216,136,90605,1,0
168,136,90805,2,4,B|136:216|168:280,1,140.000000596046,4|0
256,288,91605,5,0
352,192,92005,1,8
256,88,92405,1,0
160,192,92805,1,8
160,312,93205,1,4
200,312,93405,2,2,B|296:312,1,70.000000298023,0|2
256,192,93805,12,4,96605
144,168,97205,6,0,B|232:152|272:216,1,140.000000596046,8|0
184,248,98005,2,8,B|216:320|320:296|320:296,1,140.000000596046,8|0
328,256,98605,1,2
376,256,98805,1,8
392,208,99005,1,2
352,176,99205,1,0
312,208,99405,1,2
256,192,99605,12,0,102605
288,128,103205,5,0
352,288,103805,1,8
208,288,104205,1,0
184,272,104405,1,2
128,144,104805,1,4
144,152,118605,6,0,B|56:152,2,70.000000298023
192,152,119205,1,0
272,72,119605,1,8
352,152,120005,2,0,B|384:224|352:288,1,140.000000596046
256,288,120805,1,8
160,288,121205,6,0,B|88:288,2,70.000000298023
160,176,122005,1,8
240,96,122405,2,0,B|312:96|368:160,1,140.000000596046
368,192,123005,1,0
368,232,123205,2,0,B|408:240|408:288,3,70.000000298023
160,272,125205,5,8
208,272,125405,2,0,B|232:272|184:192|224:192,1,70.000000298023
312,208,126005,1,8
424,208,126405,1,0
432,104,126805,2,0,B|360:64|288:112,1,140.000000596046,8|0
296,152,127405,1,0
256,152,127605,1,0
216,152,127805,1,0
168,152,128005,2,0,B|136:224|176:296,1,140.000000596046
224,288,128605,1,0
272,288,128805,2,0,B|344:288,2,70.000000298023,8|8|8
256,128,131205,5,0
216,128,131405,1,0
176,128,131605,2,0,B|104:128,1,70.000000298023
88,200,132005,2,0,B|112:232|168:232,1,70.000000298023,2|0
176,312,132405,2,0,B|200:344|248:336,1,70.000000298023,2|0
296,272,132805,2,0,B|368:272,1,70.000000298023,2|0
408,272,133205,1,0
408,224,133405,1,0
400,128,133605,6,0,B|344:112|344:168,1,70.000000298023,2|0
304,152,134005,1,0
264,152,134205,1,0
256,232,134405,2,0,B|208:232|200:168,1,70.000000298023,2|0
160,192,134805,1,0
112,192,135005,1,0
112,296,135205,2,0,B|256:296,1,140.000000596046,2|0
384,296,136005,2,0,B|464:296,4,70.000000298023,2|0|2|0|2
352,176,138005,5,0
264,288,138405,1,0
248,144,138805,1,0
224,176,139005,1,4
200,208,139205,1,0
88,160,139605,2,0,B|88:304,1,140.000000596046
176,304,140405,5,0
208,304,140605,1,0
320,304,141005,1,0
400,224,141405,1,0
400,184,141605,1,0
400,144,141805,1,4
136,128,143805,5,0
184,128,144005,1,0
224,128,144205,1,0
272,128,144405,1,0
312,128,144605,1,0
408,128,144805,2,0,B|408:224|392:256|280:248,1,210.000000894069,2|0
248,248,145605,1,0
216,248,145805,1,0
176,248,146005,1,0
136,248,146205,1,0
96,248,146405,6,0,B|88:160|144:120|232:120,1,210.000000894069,2|0
376,128,147405,1,0
376,176,147605,1,0
376,224,147805,1,0
376,264,148005,2,0,B|376:312|304:352|216:320,1,140.000000596046,2|0
208,256,148805,2,0,B|216:184|328:184,1,140.000000596046,2|0
320,288,149605,1,0
216,288,150005,2,0,B|176:320|136:280|144:272,1,70.000000298023,8|4
144,152,150605,6,0,B|144:192|232:128|208:176,1,70.000000298023
248,160,151005,1,0
304,160,151205,1,0
376,304,151605,1,0
256,304,152005,1,0
144,304,152405,1,0
128,176,152805,2,0,B|176:128|272:104|304:120|352:144|392:184|416:200,1,280.000001192092
280,224,154005,5,0
440,224,154405,1,0
312,312,154805,1,8
360,160,155205,1,0
400,312,155605,1,8
360,160,156005,1,8
256,88,156405,2,8,B|160:80|144:184,1,140.000000596046,8|0
152,288,157205,1,4
304,288,157605,5,0
408,224,158005,2,0,B|440:144|360:96,1,140.000000596046
264,104,158805,1,0
224,104,159005,1,0
184,104,159205,1,0
104,176,159605,2,0,B|72:272|176:288|176:288,1,140.000000596046
272,288,160405,1,8
320,288,160605,1,0
368,288,160805,1,8
448,192,161205,6,0,B|376:144|312:200,1,140.000000596046
264,112,162005,1,0
240,136,162205,1,0
216,160,162405,1,0
88,160,162805,1,0
88,288,163205,1,0
216,288,163605,1,0
304,120,164005,6,0,B|392:144|432:224|376:304|288:320,1,280.000001192092,4|0
184,264,165205,1,0
160,224,165405,1,0
184,176,165605,1,0
304,144,166005,2,0,B|304:328,1,140.000000596046
160,168,166805,6,0,B|104:176|192:296,1,140.000000596046
280,280,167605,1,0
400,280,168005,1,0
368,160,168405,1,8
336,160,168605,1,0
304,160,168805,1,8
192,160,169205,1,0
104,104,169605,1,0
96,208,170005,1,0
152,280,170405,5,4
264,280,170805,1,0
320,280,171005,1,0
376,280,171205,1,0
448,200,171605,2,0,B|392:144|336:128|256:144|208:160|192:208|192:200,1,280.000001192092
264,280,172805,5,0
296,280,173005,1,0
328,280,173205,1,0
352,280,173405,1,8
376,280,173605,1,8
448,200,174005,2,0,B|392:144|336:128|256:144|208:160|192:208|192:200,1,280.000001192092
240,328,175205,5,0
320,224,175605,1,0
400,328,176005,1,0
448,200,176405,2,0,B|392:144|336:128|256:144|208:160|192:208|192:200,1,280.000001192092,4|0
280,264,177605,5,0
320,264,177805,1,8
368,264,178005,1,8
448,200,178405,2,0,B|392:144|336:128|256:144|208:160|192:208|192:200,1,280.000001192092
136,112,179605,1,8
184,96,179805,1,0
232,104,180005,1,8
344,104,180405,1,0
344,240,180805,5,0
216,240,181205,1,0
104,240,181605,1,0
104,208,181805,1,0
104,176,182005,1,0
104,144,182205,1,0
104,112,182405,1,0
232,112,182805,2,0,B|304:112,1,70.000000298023,0|4
256,192,196005,12,0,198605
136,112,199205,5,4
136,168,199405,2,0,B|216:168,2,70.000000298023
136,216,200005,1,4
136,264,200205,2,2,B|216:264,2,70.000000298023
272,264,200805,5,4
400,224,201205,2,0,B|384:144|320:104|240:88|168:96,1,280.000001192092
176,184,202405,1,8
176,280,202805,2,0,B|96:280,4,70.000000298023,8|0|8|0|8
264,280,204005,1,0
304,280,204205,1,8
344,280,204405,1,0
344,176,204805,5,4
344,80,205205,2,0,B|176:80,1,140.000000596046
120,168,206005,1,0
112,280,206405,1,0
216,224,206805,1,0
208,112,207205,5,4
248,112,207405,1,0
288,112,207605,2,0,B|288:40,2,70.000000298023,8|0|8
288,240,208405,1,8
248,240,208605,1,0
208,240,208805,2,0,B|208:320,4,70.000000298023,8|0|8|0|8
96,240,210005,6,0,B|96:160|200:160,1,140.000000596046,4|0
288,160,210805,1,8
328,160,211005,1,0
368,160,211205,1,8
368,280,211605,2,0,B|440:280,2,70.000000298023,8|0|8
256,280,212405,1,8
176,208,212805,1,4
96,136,213205,1,8
256,136,213605,5,4
360,136,214005,2,0,B|360:280,1,140.000000596046
256,272,214805,1,8
216,272,215005,1,0
176,272,215205,1,8
80,264,215605,2,0,B|80:184|192:184,1,140.000000596046
256,184,216405,6,0,B|336:184,2,70.000000298023,8|0|8
224,64,217205,2,0,B|168:112|144:192|168:288|248:320,1,280.000001192092,4|0
320,312,218405,1,0
360,296,218605,1,0
368,256,218805,1,8
352,224,219005,1,8
320,200,219205,1,8
184,200,219605,6,0,B|184:272,6,70.000000298023,2|0|2|0|2|0|2
248,120,221205,1,0
312,136,221405,1,0
352,184,221605,1,2
368,248,221805,1,0
360,304,222005,2,0,B|432:304,2,70.000000298023,2|0|2
240,304,222805,6,4,B|168:304|104:264|88:216|96:176|96:104,1,280.000001192092
136,112,223805,1,8
176,112,224005,1,0
216,112,224205,1,8
256,112,224405,2,0,B|256:32,4,70.000000298023,8|0|8|0|8
256,232,225605,1,8
256,352,226005,1,4
256,192,226405,12,0,229205
256,128,229605,6,0,B|224:160|176:128,2,70.000000298023,8|0|8
336,200,230405,1,8
256,304,230805,1,8
208,304,231005,1,8
160,304,231205,2,0,B|80:304,4,70.000000298023,8|0|8|0|8
256,192,232405,12,0,235205
256,192,236005,6,0,B|256:272|256:280,1,70.000000298023
256,262,236405,1,4
360,264,236805,2,0,B|440:264,2,70.000000298023
360,168,237605,2,0,B|288:120|224:176|224:176,1,140.000000596046,8|0
160,88,238405,2,0,B|120:152|160:240,1,140.000000596046,8|0
224,272,239205,1,0
328,272,239605,6,0,B|432:272,2,70.000000298023,2|0|2
320,128,240405,2,0,B|240:128,1,70.000000298023,8|0
249,128,240805,1,4
