osu file format v9

[General]
AudioFilename: 02. .mp3
AudioLeadIn: 0
PreviewTime: 67800
Countdown: 1
SampleSet: Normal
StackLeniency: 0.7
Mode: 0
LetterboxInBreaks: 1

[Editor]
DistanceSpacing: 0.8
BeatDivisor: 2
GridSize: 8

[Metadata]
Title:genjitsu toiu mei no kaibutsu to tatakau mono tachi
Artist:takahashi yuu
Creator:AceproCX
Version:Easy+
Source:Bakuman
Tags:Evil_Twilight deepsea

[Difficulty]
HPDrainRate:2
CircleSize:3
OverallDifficulty:2
ApproachRate:2
SliderMultiplier:1.40000000596046
SliderTickRate:2

[Events]
//Background and Video events
0,0,"BG.jpg"
//Break Periods
2,105984,117645
2,183410,194445
2,229810,230445
//Storyboard Layer 0 (Background)
//Storyboard Layer 1 (Fail)
//Storyboard Layer 2 (Pass)
//Storyboard Layer 3 (Foreground)
//Storyboard Sound Samples
//Background Colour Transformations
3,100,163,162,255

[TimingPoints]
13605,400,4,1,0,70,1,0
28605,-133.333333333333,4,1,0,70,0,0
67985,-133.333333333333,4,1,0,70,0,1
68185,-133.333333333333,4,1,0,70,0,0
80785,-133.333333333333,4,1,0,70,0,1
80985,-133.333333333333,4,1,0,70,0,0
157585,-133.333333333333,4,1,0,70,0,1
157785,-133.333333333333,4,1,0,70,0,0
170385,-133.333333333333,4,1,0,70,0,1
170585,-133.333333333333,4,1,0,70,0,0
200785,-133.333333333333,4,1,0,70,0,1
200985,-133.333333333333,4,1,0,70,0,0

[Colours]
Combo1 : 240,119,122
Combo2 : 242,194,130
Combo3 : 98,155,242

[HitObjects]
112,192,28605,6,0,B|272:192,1,157.499995976686
352,192,29605,1,8
352,272,30005,1,0
264,272,30405,2,0,B|200:272|160:264|144:192|160:120,1,209.999994635581,8|8
344,192,32005,5,8
264,312,32805,1,8
176,312,33205,2,0,B|176:256|240:232,3,104.999997317791,0|8|0|0
312,232,34805,1,0
312,152,35205,2,0,B|368:152,2,52.4999986588954
232,152,36005,5,0
192,232,36405,2,0,B|336:232,1,104.999997317791
384,232,37205,1,0
384,312,37605,1,8
304,312,38005,1,0
224,312,38405,6,0,B|88:312|120:312,2,104.999997317791,8|0|8
224,232,39605,1,0
224,152,40005,1,0
144,152,40405,1,8
144,232,40805,2,0,B|144:344,2,104.999997317791,2|0|2
256,88,42405,6,0,B|360:88,2,104.999997317791,8|0|8
256,280,44005,2,0,B|136:280|144:280,2,104.999997317791,8|0|8
360,128,45605,1,0
360,208,46005,1,0
280,208,46405,1,8
280,288,46805,1,8
200,288,47205,1,8
112,176,48405,5,0
168,112,48805,2,0,B|232:112|232:264|304:264,1,209.999994635581
376,264,50005,1,0
376,184,50405,2,0,B|376:72,2,104.999997317791,8|0|8
376,264,51605,1,0
296,264,52005,1,8
216,264,52405,2,0,B|96:264,2,104.999997317791,2|0|2
176,192,54005,6,0,B|272:288,3,104.999997317791
256,184,55605,2,0,B|232:120|168:104|104:136|88:208,1,209.999994635581
136,264,56805,1,0
232,288,57205,2,0,B|232:168,2,104.999997317791
328,288,58405,1,8
328,192,58805,2,0,B|376:160|448:208,2,104.999997317791
328,96,60005,2,0,B|256:96,3,52.4999986588954
280,216,61205,5,0
152,288,62005,2,0,B|152:176|152:168,2,104.999997317791,8|0|8
320,288,63605,1,0
320,200,64005,2,2,B|240:112,1,104.999997317791,2|8
232,200,64805,2,0,B|120:200,2,104.999997317791,2|8|2
320,200,66005,1,0
416,200,66405,5,0
344,296,66805,1,4
256,240,67205,1,4
168,296,67605,1,4
256,192,68005,5,0
352,192,68405,2,0,B|352:304,1,104.999997317791
256,296,69205,1,8
160,296,69605,2,0,B|160:168,1,104.999997317791
160,104,70405,1,0
256,104,70805,1,8
352,104,71205,1,0
360,200,71605,2,0,B|152:200,1,209.999994635581,0|8
152,288,72805,5,8
248,288,73205,2,0,B|248:176,2,104.999997317791,2|0|2
336,296,74405,2,0,B|448:296,2,104.999997317791,0|2|0
328,224,75605,1,0
280,152,76005,1,2
200,152,76405,1,0
160,224,76805,1,0
176,312,77205,6,0,B|288:312,2,104.999997317791,2|8|2
216,240,78405,2,0,B|88:240,2,104.999997317791,2|0|2
296,240,79605,1,0
336,160,80005,2,0,B|224:160,1,104.999997317791
152,160,80805,5,4
152,240,81205,2,0,B|152:344|152:352,1,104.999997317791
240,344,82005,1,8
328,344,82405,1,0
416,344,82805,1,0
368,272,83205,2,0,B|368:144,1,104.999997317791,8|8
296,88,84005,6,0,B|192:176,1,104.999997317791,0|0
128,160,84805,1,8
120,248,85205,2,0,B|224:248,3,104.999997317791,8|0|0|8
272,320,86805,5,12
320,248,87205,2,0,B|424:248,1,104.999997317791,0|8
424,168,88005,1,8
424,88,88405,2,0,B|320:88,1,104.999997317791,0|0
320,168,89205,1,8
232,168,89605,1,8
144,176,90005,6,0,B|144:288|144:288,2,104.999997317791,0|0|8
232,208,91205,1,8
320,248,91605,1,0
408,208,92005,1,0
392,120,92405,1,8
304,120,92805,2,0,B|184:120,1,104.999997317791,8|12
256,192,93605,12,0,95605
192,288,96805,5,0
192,200,97205,1,8
192,112,97605,1,0
272,144,98005,2,0,B|272:232,1,52.4999986588954
352,200,98605,1,8
440,200,99005,1,0
256,192,99605,12,0,102005
184,144,103205,6,0,B|112:144,3,52.4999986588954
224,240,104405,2,0,B|304:240,2,52.4999986588954
288,296,119205,5,0
288,216,119605,1,8
288,136,120005,1,0
208,136,120405,2,0,B|160:160|120:200|152:280|208:296,1,209.999994635581,0|8
288,296,121605,1,0
376,296,122005,1,0
376,208,122405,1,8
176,296,123205,5,0
256,176,124005,2,0,B|256:112,4,52.4999986588954,0|0|8|0|0
256,296,125605,5,0
88,296,126405,2,0,B|88:184,1,104.999997317791,0|4
88,112,127205,2,0,B|152:88|208:128,1,104.999997317791
272,120,128005,1,0
336,176,128405,2,0,B|408:256,2,104.999997317791,8|0|8
384,288,131405,6,0,B|328:288,3,52.4999986588954,0|0|0|4
248,288,132405,2,0,B|184:320|136:272,1,104.999997317791
152,200,133205,1,8
312,200,134005,1,8
312,112,134405,6,0,B|368:112,4,52.4999986588954,0|0|0|0|8
216,112,135605,2,0,B|176:144|144:208|168:288|248:304,1,209.999994635581
296,296,136805,1,4
376,296,137205,2,0,B|376:240,2,52.4999986588954,0|0|0
376,152,138205,6,0,B|312:152,1,52.4999986588954
240,152,138805,1,0
160,176,139205,1,0
96,232,139605,2,8,B|40:280|96:328,1,104.999997317791
176,320,140405,2,8,B|224:288|280:320,1,104.999997317791
360,320,141205,2,8,B|360:256,3,52.4999986588954,8|0|8|0
376,304,143605,6,0,B|264:304,1,104.999997317791
192,304,144405,1,0
112,296,144805,2,0,B|144:288|80:184|120:184,1,104.999997317791,0|0
184,176,145605,2,0,B|216:216|336:136|384:192,1,209.999994635581
384,280,146805,6,0,B|384:336,2,52.4999986588954
304,280,147605,1,0
224,280,148005,1,0
144,280,148405,2,0,B|144:176,2,104.999997317791,8|0|8
232,280,149605,6,0,B|264:232|328:208|384:240|416:296,1,209.999994635581,0|0
328,280,150805,5,0
328,192,151205,1,0
328,104,151605,2,0,B|384:104,2,52.4999986588954
240,104,152405,2,0,B|184:104,2,52.4999986588954
240,192,153205,2,0,B|240:304,1,104.999997317791
152,296,154005,5,4
80,232,154405,1,8
152,168,154805,2,0,B|208:176|232:232,1,104.999997317791
280,296,155605,2,0,B|384:296,1,104.999997317791,2|0
368,216,156405,1,0
304,168,156805,1,0
240,120,157205,1,0
152,128,157605,5,4
104,200,158005,1,0
104,288,158405,1,8
192,296,158805,2,0,B|240:256|192:200,1,104.999997317791
280,200,159605,1,0
368,200,160005,1,8
368,112,160405,2,0,B|264:112,1,104.999997317791
176,112,161205,6,0,B|112:112,2,52.4999986588954,8|0|0
264,112,162005,2,0,B|264:56,2,52.4999986588954
264,200,162805,1,8
264,280,163205,2,0,B|264:304|160:280|160:304,1,104.999997317791
160,216,164005,2,0,B|80:216,4,52.4999986588954
160,128,165205,1,0
160,216,165605,6,0,B|224:216,4,52.4999986588954
160,304,166805,1,8
248,304,167205,2,0,B|360:304,1,104.999997317791
352,216,168005,2,0,B|416:216,2,52.4999986588954
352,128,168805,1,8
272,120,169205,2,0,B|272:232,1,104.999997317791
192,224,170005,1,0
112,224,170405,5,4
112,144,170805,1,0
192,144,171205,1,0
192,224,171605,2,0,B|296:224,1,104.999997317791
304,304,172405,1,8
384,304,172805,2,0,B|384:96,1,209.999994635581
304,96,174005,6,0,B|240:128|176:72,1,104.999997317791
112,88,174805,1,0
112,176,175205,1,0
112,264,175605,2,0,B|224:264|224:264,1,104.999997317791
312,264,176405,1,4
408,264,176805,2,0,B|408:336,4,52.4999986588954
408,168,178005,6,0,B|472:168,2,52.4999986588954,8|0|8
408,80,178805,2,0,B|472:80,2,52.4999986588954,8|0|8
320,80,179605,1,0
320,176,180005,1,0
320,264,180405,2,0,B|192:264,1,104.999997317791
128,264,181205,1,4
128,176,181605,2,0,B|128:112,4,52.4999986588954
224,176,182805,1,0
320,176,183205,5,0
256,192,196005,12,0,198405
168,136,199605,5,4
168,224,200005,2,0,B|168:304,2,52.4999986588954
256,224,200805,5,4
320,288,201205,1,8
384,224,201605,1,0
376,136,202005,2,0,B|240:136|232:136,1,104.999997317791
184,136,202805,1,8
88,136,203205,1,0
88,232,203605,1,0
184,232,204005,5,8
256,288,204405,1,0
328,232,204805,1,0
424,232,205205,1,8
424,136,205605,2,0,B|320:136,1,104.999997317791
232,136,206405,2,0,B|232:160|96:120|96:152,1,104.999997317791,0|0
128,240,207205,1,8
224,240,207605,1,0
224,336,208005,6,0,B|352:336,1,104.999997317791
328,240,208805,2,0,B|400:240,4,52.4999986588954,8|0|8|0|8
328,152,210005,6,0,B|280:96|192:144,1,104.999997317791,8|0
144,136,210805,1,0
136,224,211205,2,0,B|240:224,1,104.999997317791,8|0
328,224,212005,2,8,B|328:336,1,104.999997317791,8|8
240,328,212805,2,8,B|120:328,1,104.999997317791
136,240,213605,5,0
232,240,214005,1,0
328,240,214405,1,0
400,184,214805,1,8
400,96,215205,2,0,B|296:96,1,104.999997317791
200,96,216005,1,8
200,192,216405,6,0,B|136:192,2,52.4999986588954,0|0|0
200,288,217205,2,0,B|200:336|320:256|376:264|416:304|384:272,1,209.999994635581,8|0
392,184,218405,1,8
392,88,218805,1,0
296,88,219205,1,0
296,184,219605,2,0,B|264:184|272:224,6,52.4999986588954,0|0|0|0|0|0|8
384,184,221205,2,0,B|416:200|416:224,6,52.4999986588954,0|0|0|0|0|0|8
368,96,222805,5,8
272,96,223205,2,8,B|200:96|200:176,1,104.999997317791,8|8
192,240,224005,2,8,B|80:240,1,104.999997317791,8|8
96,152,224805,1,8
184,152,225205,1,8
272,152,225605,1,4
360,152,226005,1,4
256,192,226405,12,0,229605
256,192,232005,12,4,236005
