osu file format v14

[General]
AudioFilename: audio.mp3
AudioLeadIn: 0
PreviewTime: 53505
Countdown: 0
SampleSet: Soft
StackLeniency: 0.6
Mode: 0
LetterboxInBreaks: 0
WidescreenStoryboard: 0

[Editor]
Bookmarks: 6633
DistanceSpacing: 1.4
BeatDivisor: 4
GridSize: 4
TimelineZoom: 3.199999

[Metadata]
Title:newsong (TV Size)
TitleUnicode:newsong (TV Size)
Artist:tacica
ArtistUnicode:tacica
Creator:Lian2002
Version:SANNIN MODE
Source:NARUTO-ナルト-疾風伝
Tags:Anime japanese rock jrock NARUTO Shippuden Opening 10 Alternator
BeatmapID:2176572
BeatmapSetID:924107

[Difficulty]
HPDrainRate:7
CircleSize:4.1
OverallDifficulty:8
ApproachRate:9.2
SliderMultiplier:2
SliderTickRate:1

[Events]
//Background and Video events
0,0,"598782.jpg",0,0
//Break Periods
//Storyboard Layer 0 (Background)
//Storyboard Layer 1 (Fail)
//Storyboard Layer 2 (Pass)
//Storyboard Layer 3 (Foreground)
//Storyboard Sound Samples

[TimingPoints]
537,468.75,4,2,1,55,1,0
537,-71.4285714285714,4,2,1,55,0,0
7568,468.75,4,2,1,45,1,0
7568,-142.857142857143,4,2,1,45,0,0
8505,-111.111111111111,4,2,1,45,0,0
12724,-83.3333333333333,4,2,1,45,0,0
13193,-111.111111111111,4,2,1,45,0,0
22568,-83.3333333333333,4,2,1,50,0,0
22685,-83.3333333333333,4,2,1,5,0,0
22802,-111.111111111111,4,2,1,50,0,0
27724,-83.3333333333333,4,2,1,50,0,0
28193,-111.111111111111,4,2,1,50,0,0
35693,-83.3333333333333,4,2,1,50,0,0
35810,-83.3333333333333,4,2,1,5,0,0
35927,-76.9230769230769,4,2,1,50,0,0
36044,-76.9230769230769,4,2,1,5,0,0
36161,-71.4285714285714,4,2,1,50,0,0
36278,-71.4285714285714,4,2,1,5,0,0
36396,-66.6666666666667,4,2,1,50,0,0
36513,-66.6666666666667,4,2,1,5,0,0
36630,-62.5,4,2,1,50,0,0
36747,-62.5,4,2,1,5,0,0
36864,-62.5,4,2,1,50,0,0
37333,-90.9090909090909,4,2,1,55,0,0
37450,-90.9090909090909,4,2,1,5,0,0
37568,-111.111111111111,4,2,1,50,0,0
39208,-90.9090909090909,4,2,1,50,0,0
39325,-90.9090909090909,4,2,1,5,0,0
39443,-111.111111111111,4,2,1,50,0,0
42958,-90.9090909090908,4,2,1,50,0,0
43075,-90.9090909090908,4,2,1,5,0,0
43193,-111.111111111111,4,2,1,50,0,0
44833,-90.9090909090909,4,2,1,50,0,0
44950,-90.9090909090909,4,2,1,5,0,0
45068,-111.111111111111,4,2,1,50,0,0
46708,-90.9090909090909,4,2,1,50,0,0
46825,-90.9090909090909,4,2,1,5,0,0
46943,-111.111111111111,4,2,1,50,0,0
48583,-90.9090909090908,4,2,1,50,0,0
48700,-90.9090909090908,4,2,1,5,0,0
48818,-111.111111111111,4,2,1,50,0,0
50693,-111.111111111111,4,2,1,60,0,0
53505,-55.5555555555556,4,2,1,65,0,0
53739,-200,4,2,1,45,0,0
54443,234.375,4,2,1,70,1,1
54443,-111.111111111111,4,2,1,70,0,1
55146,-111.111111111111,4,2,1,70,0,1
55380,-111.111111111111,4,2,1,70,0,1
55849,-111.111111111111,4,2,1,70,0,1
56318,-111.111111111111,4,2,1,70,0,1
56786,-111.111111111111,4,2,1,70,0,1
59130,-111.111111111111,4,2,1,70,0,1
59364,-111.111111111111,4,2,1,70,0,1
59833,-107.52688172043,4,2,1,70,0,1
60302,-111.111111111111,4,2,1,70,0,1
60536,-111.111111111111,4,2,1,70,0,1
61708,-111.111111111111,4,2,1,70,0,0
61943,-111.111111111111,4,2,1,70,0,1
63818,-105.263157894737,4,2,1,70,0,1
64286,-111.111111111111,4,2,1,70,0,1
64521,-105.263157894737,4,2,1,70,0,1
64989,-111.111111111111,4,2,1,70,0,1
65224,-111.111111111111,4,2,1,70,0,1
66616,227.272727272727,4,2,1,70,1,1
66616,-117.647058823529,4,2,1,70,0,1
67411,-58.8235294117647,4,2,1,70,0,0
67583,234.375,4,2,1,70,1,1
67583,-105.263157894737,4,2,1,70,0,1
68051,-111.111111111111,4,2,1,70,0,1
69428,234.375,4,2,1,70,1,1
69428,-111.111111111111,4,2,1,70,0,1
72943,-105.263157894737,4,2,1,70,0,1
73412,-111.111111111111,4,2,1,70,0,1
74115,-111.111111111111,4,2,1,70,0,1
74584,-111.111111111111,4,2,1,70,0,0
75053,-100,4,2,1,75,0,1
79741,227.272727272727,4,2,1,70,1,1
80687,468.75,4,2,1,55,1,0
80687,-58.8235294117647,4,2,1,55,0,0
81155,-76.923076923077,4,2,1,55,0,0
86333,454.545454545455,4,2,1,55,1,0
86446,-58.8235294117647,4,2,1,55,0,0
87696,-100,4,2,1,45,0,0
88151,-100,4,2,1,35,0,0
88605,-100,4,2,1,25,0,0
89060,-100,4,2,1,15,0,0
89401,-100,4,2,1,5,0,0

[Colours]
Combo1 : 255,255,128
Combo2 : 128,255,255
Combo3 : 255,128,192
Combo4 : 128,128,255

[HitObjects]
120,232,537,6,0,L|242:256,1,69.9999978637696,6|0,0:0|0:0,0:0:0:0:
244,319,771,2,0,L|122:343,1,69.9999978637696,8|0,0:0|0:0,0:0:0:0:
48,279,1005,2,0,P|34:212|74:157,1,139.999995727539,2|8,0:0|0:0,0:0:0:0:
206,128,1357,1,8,2:2:0:0:
206,128,1474,2,0,L|328:103,1,69.9999978637696,2|0,0:0|0:0,0:0:0:0:
257,203,1708,2,0,L|67:241,1,139.999995727539,8|2,0:0|0:0,0:0:0:0:
171,305,2060,1,8,0:2:0:0:
171,305,2177,2,0,L|239:291,1,69.9999978637696,8|0,0:0|0:0,0:0:0:0:
325,217,2412,6,0,L|203:192,1,69.9999978637696,2|0,0:0|0:0,0:0:0:0:
317,339,2646,2,0,L|385:324,1,69.9999978637696,8|0,0:0|0:0,0:0:0:0:
511,174,2880,2,0,L|320:135,1,139.999995727539,2|8,0:0|0:0,0:0:0:0:
250,54,3232,1,8,0:2:0:0:
250,54,3349,2,0,L|318:39,1,69.9999978637696,2|0,0:0|0:0,0:0:0:0:
205,127,3583,2,0,P|165:72|180:4,1,139.999995727539,8|2,0:0|0:0,0:0:0:0:
294,136,3935,1,8,0:2:0:0:
294,136,4052,2,0,L|279:204,1,69.9999978637696,8|0,0:0|0:0,0:0:0:0:
119,271,4287,6,0,L|104:202,1,69.9999978637696,2|0,0:0|0:0,0:0:0:0:
319,282,4521,2,0,L|304:350,1,69.9999978637696,8|0,0:0|0:0,0:0:0:0:
190,218,4755,2,0,L|219:81,1,139.999995727539,2|8,0:0|0:0,0:0:0:0:
104,46,5107,1,8,0:2:0:0:
104,46,5224,2,0,L|119:115,1,69.9999978637696,2|0,0:0|0:0,0:0:0:0:
278,204,5458,2,0,L|415:175,1,139.999995727539,8|2,0:0|0:0,0:0:0:0:
496,155,5810,1,8,0:2:0:0:
496,155,5927,1,8,0:0:0:0:
462,303,6162,5,2,2:2:0:0:
375,321,6279,2,0,L|306:334,1,69.9999978637696,2|0,0:0|0:0,0:0:0:0:
367,147,6513,5,8,0:3:0:0:
328,181,6630,2,0,L|275:227,1,69.9999978637696,2|0,0:0|0:0,0:0:0:0:
241,46,6865,5,8,2:3:0:0:
229,74,6982,2,0,L|206:140,1,69.9999978637696,2|0,0:0|0:0,0:0:0:0:
85,51,7216,5,2,2:2:0:0:
85,51,7333,2,0,L|101:131,1,69.9999978637696,2|0,0:0|0:0,0:0:0:0:
24,289,7568,6,0,B|94:273|94:317|160:288,1,139.999995727539,6|2,2:2|2:2,2:2:0:0:
265,219,8271,1,8,2:2:0:0:
265,219,8388,1,8,2:2:0:0:
265,219,8505,2,0,P|307:202|342:142,1,89.9999972534181,2|8,2:2|2:2,2:2:0:0:
173,199,8974,1,2,2:2:0:0:
173,199,9091,1,2,2:2:0:0:
173,199,9208,1,8,2:2:0:0:
116,357,9443,6,0,L|100:261,1,89.9999972534181,4|8,2:3|2:2,2:2:0:0:
229,115,9911,1,2,2:2:0:0:
48,69,10146,1,8,2:0:0:0:
48,69,10263,1,8,2:0:0:0:
48,69,10380,1,2,2:0:0:0:
101,268,10614,1,8,2:0:0:0:
292,195,10849,1,2,2:0:0:0:
292,195,10966,1,8,2:0:0:0:
292,195,11083,2,0,L|196:211,1,89.9999972534181,8|4,2:2|2:3,2:2:0:0:
327,101,11552,5,8,2:2:0:0:
454,255,11786,2,0,L|438:351,1,89.9999972534181,2|8,2:2|2:2,2:2:0:0:
424,170,12138,1,8,2:0:0:0:
424,170,12255,2,0,P|468:166|509:184,1,89.9999972534181,2|8,2:2|2:2,2:2:0:0:
366,232,12724,2,0,P|346:204|340:163,1,59.9999981689454,2|8,2:2|2:0,2:2:0:0:
218,204,12958,2,0,P|230:177|251:156,1,59.9999981689454,8|0,2:2|2:0,2:2:0:0:
142,88,13193,6,0,P|187:67|246:76,1,89.9999972534181,4|8,2:3|2:2,2:2:0:0:
155,268,13661,2,0,L|59:252,1,89.9999972534181,2|8,2:2|2:2,2:2:0:0:
208,340,14013,1,8,2:2:0:0:
208,340,14130,2,0,L|304:324,1,89.9999972534181,2|8,2:2|2:2,2:2:0:0:
480,288,14599,1,2,2:0:0:0:
480,288,14716,1,8,2:2:0:0:
480,288,14833,1,8,2:2:0:0:
344,188,15068,5,4,2:3:0:0:
396,352,15302,1,8,2:2:0:0:
480,112,15536,2,0,L|384:96,1,89.9999972534181,2|8,2:2|2:2,2:2:0:0:
255,202,15888,1,8,2:0:0:0:
255,202,16005,2,0,L|351:186,1,89.9999972534181,2|8,2:2|2:2,2:2:0:0:
235,77,16474,1,2,2:2:0:0:
235,77,16591,1,8,2:2:0:0:
235,77,16708,1,8,2:2:0:0:
95,172,16943,6,0,P|71:136|72:74,1,89.9999972534181,4|8,2:3|2:0,2:0:0:0:
218,253,17411,2,0,P|214:297|190:334,1,89.9999972534181,2|8,2:0|2:0,2:0:0:0:
46,251,17763,1,8,2:2:0:0:
46,251,17880,2,0,L|142:267,1,89.9999972534181,2|8,2:2|2:2,2:2:0:0:
288,110,18349,1,2,2:2:0:0:
288,110,18466,1,8,2:0:0:0:
288,110,18583,1,8,2:2:0:0:
371,343,18818,5,4,2:3:0:0:
482,171,19052,1,8,2:2:0:0:
309,229,19286,1,2,2:2:0:0:
378,50,19521,1,8,2:2:0:0:
378,50,19638,1,8,2:2:0:0:
378,50,19755,1,2,2:2:0:0:
411,245,19989,1,8,2:2:0:0:
288,110,20224,1,2,2:2:0:0:
288,110,20341,1,2,2:2:0:0:
288,110,20458,1,8,2:2:0:0:
309,229,20693,5,2,2:2:0:0:
143,173,20927,1,8,2:2:0:0:
309,229,21161,1,2,2:2:0:0:
192,320,21396,1,8,2:2:0:0:
192,320,21513,1,8,2:2:0:0:
192,320,21630,2,0,L|96:304,1,89.9999972534181,2|8,2:2|2:2,2:2:0:0:
23,245,22099,1,2,2:0:0:0:
19,200,22216,1,8,2:0:0:0:
15,155,22333,1,8,2:2:0:0:
11,110,22450,1,8,2:0:0:0:
8,65,22568,6,0,P|41:54|90:62,1,59.9999981689454,6|0,2:2|2:2,2:2:0:0:
216,125,22802,2,0,P|168:125|128:105,1,89.9999972534181,8|2,2:0|2:0,2:0:0:0:
219,216,23271,1,8,2:2:0:0:
219,216,23388,1,8,2:2:0:0:
219,216,23505,1,2,2:2:0:0:
263,45,23739,2,0,L|359:62,1,89.9999972534181,8|2,2:2|2:2,2:2:0:0:
351,60,24091,1,8,2:2:0:0:
351,60,24208,1,8,2:2:0:0:
484,192,24443,6,0,L|395:207,1,89.9999972534181,4|8,2:3|2:2,2:2:0:0:
273,226,24911,1,2,2:2:0:0:
342,367,25146,1,8,2:2:0:0:
342,367,25263,1,8,2:2:0:0:
342,367,25380,2,0,B|360:332|360:332|340:264,1,89.9999972534181,2|8,2:0|2:0,2:0:0:0:
356,188,25849,1,2,2:2:0:0:
356,188,25966,1,8,2:0:0:0:
356,188,26083,1,8,2:0:0:0:
175,163,26318,6,0,P|221:163|269:187,1,89.9999972534181,4|8,2:3|2:0,2:0:0:0:
118,285,26786,2,0,L|22:269,1,89.9999972534181,2|8,2:2|2:2,2:2:0:0:
203,254,27138,1,8,2:2:0:0:
203,254,27255,2,0,P|205:302|188:342,1,89.9999972534181,2|8,2:2|2:2,2:2:0:0:
17,116,27724,2,0,L|3:40,1,59.9999981689454,2|8,2:2|2:2,2:2:0:0:
121,65,27958,2,0,L|149:4,1,59.9999981689454,8|0,2:0|2:0,2:0:0:0:
144,175,28193,6,0,L|240:159,1,89.9999972534181,4|8,2:3|2:2,2:2:0:0:
408,284,28661,2,0,L|312:268,1,89.9999972534181,2|8,2:2|2:2,2:2:0:0:
319,269,29013,1,8,2:2:0:0:
319,269,29130,1,2,2:2:0:0:
376,72,29364,2,0,L|472:88,1,89.9999972534181,8|2,2:2|2:2,2:2:0:0:
464,86,29716,1,8,2:2:0:0:
464,86,29833,1,8,2:2:0:0:
319,269,30068,5,4,2:3:0:0:
204,112,30302,1,8,2:2:0:0:
48,185,30536,2,0,P|89:167|134:171,1,89.9999972534181,2|8,2:2|2:2,2:2:0:0:
118,344,30888,1,8,2:0:0:0:
118,344,31005,2,0,L|104:256,1,89.9999972534181,2|8,2:2|2:2,2:2:0:0:
204,112,31474,1,2,2:2:0:0:
204,112,31591,1,8,2:2:0:0:
204,112,31708,1,8,2:2:0:0:
424,156,31943,5,4,2:3:0:0:
236,212,32177,1,8,2:0:0:0:
352,84,32411,1,2,2:0:0:0:
408,344,32646,1,8,2:0:0:0:
408,344,32763,1,8,2:2:0:0:
408,344,32880,1,0,0:0:0:0:
500,240,33114,1,8,0:0:0:0:
304,288,33349,1,2,2:2:0:0:
304,288,33466,1,8,2:2:0:0:
304,288,33583,1,8,2:2:0:0:
200,112,33818,5,4,2:3:0:0:
152,348,34052,1,8,2:2:0:0:
40,264,34286,1,2,2:2:0:0:
236,212,34521,1,8,2:2:0:0:
236,212,34638,1,8,2:2:0:0:
236,212,34755,1,2,2:2:0:0:
56,132,34989,1,8,2:2:0:0:
132,256,35224,1,2,2:0:0:0:
132,256,35341,1,2,2:0:0:0:
132,256,35458,1,8,2:0:0:0:
256,40,35693,6,0,L|236:113,1,59.9999981689454,4|0,0:0|0:0,0:0:0:0:
370,190,35927,6,0,P|365:160|335:122,1,64.9999970245363,8|0,0:0|0:0,0:0:0:0:
331,283,36161,6,0,L|431:298,1,69.9999978637696,4|0,0:0|0:0,0:0:0:0:
284,190,36396,6,0,L|185:211,1,75.0000028610231,4|0,0:0|0:0,0:0:0:0:
120,76,36630,6,0,L|136:178,1,80,4|0,0:0|0:0,0:0:0:0:
72,319,36864,5,8,0:0:0:0:
45,283,36982,1,8,0:0:0:0:
40,239,37099,1,8,0:3:0:0:
60,199,37216,1,0,3:2:0:0:
132,256,37333,6,0,L|198:252,1,55.0000016784668,8|0,2:3|2:2,2:2:0:0:
294,331,37568,6,0,P|274:290|275:246,1,89.9999972534181,6|0,2:2|2:2,2:2:0:0:
406,127,38036,2,0,P|425:167|424:211,1,89.9999972534181,2|8,2:2|2:3,2:2:0:0:
358,272,38388,1,8,2:3:0:0:
358,272,38505,1,2,2:2:0:0:
256,161,38739,1,0,2:2:0:0:
294,331,38974,1,2,2:2:0:0:
192,219,39208,2,0,L|138:205,1,55.0000016784668,8|0,2:2|2:2,2:2:0:0:
59,306,39443,6,0,L|155:290,1,89.9999972534181,4|0,2:3|0:0,0:0:0:0:
226,73,39911,2,0,L|315:88,1,89.9999972534181,2|8,2:0|0:3,0:0:0:0:
409,50,40263,1,8,2:3:0:0:
409,50,40380,2,0,B|433:138|369:138|405:225,1,179.999994506836,2|2,0:0|0:0,0:0:0:0:
404,224,40966,1,8,2:2:0:0:
404,224,41083,1,8,0:0:0:0:
168,332,41318,6,0,L|256:348,1,89.9999972534181,6|0,2:2|0:0,0:0:0:0:
405,225,41786,2,0,L|317:241,1,89.9999972534181,2|8,2:0|0:3,0:0:0:0:
317,242,42138,1,8,2:3:0:0:
317,242,42255,1,2,2:2:0:0:
215,134,42489,1,0,2:2:0:0:
168,332,42724,1,2,2:2:0:0:
94,93,42958,2,0,L|148:83,1,55.0000016784668,8|8,2:0|0:3,0:0:0:0:
296,99,43193,6,0,P|268:64|224:45,1,89.9999972534181,4|0,2:3|2:2,2:2:0:0:
81,269,43661,1,2,2:0:0:0:
42,177,43896,1,8,2:3:0:0:
42,177,44013,1,8,2:3:0:0:
42,177,44130,2,0,B|130:153|130:217|217:180,1,179.999994506836,2|2,0:0|0:0,0:0:0:0:
460,128,44833,2,0,L|405:118,1,55.0000016784668,4|8,2:0|0:3,0:0:0:0:
330,52,45068,6,0,P|331:97|312:138,1,89.9999972534181,6|0,2:2|2:2,2:2:0:0:
192,332,45536,2,0,L|176:228,1,89.9999972534181,2|8,2:2|2:3,2:2:0:0:
178,243,45888,1,8,2:3:0:0:
178,243,46005,1,2,2:2:0:0:
244,80,46239,1,0,2:2:0:0:
178,243,46474,1,2,2:2:0:0:
25,142,46708,2,0,L|79:151,1,55.0000016784668,8|8,2:0|0:3,0:0:0:0:
170,34,46943,6,0,P|120:43|86:72,1,89.9999972534181,6|0,0:0|0:0,0:0:0:0:
256,336,47411,1,2,2:2:0:0:
392,164,47646,1,8,2:3:0:0:
392,164,47763,1,2,2:2:0:0:
392,164,47880,2,0,P|408:240|320:216,1,179.999994506836,2|2,2:2|2:2,2:2:0:0:
192,204,48583,2,0,L|246:213,1,55.0000016784668,8|8,2:0|0:3,0:0:0:0:
480,147,48818,6,0,L|357:169,1,89.9999972534181,4|0,2:0|0:3,0:0:0:0:
256,48,49286,1,2,2:2:0:0:
80,304,49521,1,8,2:3:0:0:
80,304,49638,1,8,2:3:0:0:
80,304,49755,6,0,L|202:326,1,89.9999972534181,2|0,2:0|0:3,0:0:0:0:
468,188,50224,1,2,2:2:0:0:
157,66,50458,1,8,0:2:0:0:
346,330,50693,5,2,2:2:0:0:
293,48,50927,1,8,2:2:0:0:
186,352,51161,1,2,2:2:0:0:
109,327,51278,1,8,2:3:0:0:
109,246,51396,1,2,2:2:0:0:
346,330,51630,5,8,2:3:0:0:
30,283,51864,1,12,2:2:0:0:
184,136,52099,1,8,2:2:0:0:
107,110,52216,1,8,2:3:0:0:
60,176,52333,1,2,2:2:0:0:
315,234,52568,5,6,2:2:0:0:
168,47,52802,1,8,2:2:0:0:
109,327,53036,1,8,2:3:0:0:
186,351,53153,1,2,2:2:0:0:
233,286,53271,1,0,3:0:0:0:
124,49,53505,5,12,2:2:0:0:
113,50,53739,5,0,2:2:0:0:
108,58,53974,6,0,P|109:91|134:133,1,75,4|0,2:2|2:2,2:2:0:0:
129,128,54443,6,0,P|169:51|255:44,1,179.999994506836,4|8,2:2|2:2,2:2:0:0:
306,118,54794,1,0,3:2:0:0:
269,196,54911,2,0,P|234:164|219:108,1,89.9999972534181,0|0,2:2|3:2,2:2:0:0:
355,188,55146,2,0,L|315:273,1,89.9999972534181,8|0,2:2|2:2,2:2:0:0:
440,180,55380,2,0,P|424:138|391:109,1,89.9999972534181,4|0,2:3|2:2,2:2:0:0:
269,196,55614,1,8,2:2:0:0:
232,274,55732,1,0,3:2:0:0:
281,345,55849,2,0,L|376:333,1,89.9999972534181,0|0,2:2|3:2,2:2:0:0:
219,124,56083,2,0,L|121:110,1,89.9999972534181,8|0,2:2|2:2,2:2:0:0:
92,33,56318,6,0,P|45:106|81:185,1,179.999994506836,4|8,3:3|2:2,2:2:0:0:
167,193,56669,1,0,3:2:0:0:
202,271,56786,2,0,P|183:314|137:346,1,89.9999972534181,0|0,2:2|3:2,2:2:0:0:
29,253,57021,2,0,P|45:212|80:184,1,89.9999972534181,8|0,2:2|2:2,2:2:0:0:
253,202,57255,2,0,P|281:239|286:296,1,89.9999972534181,4|0,3:3|2:2,2:2:0:0:
132,115,57489,2,0,P|90:99|46:106,1,89.9999972534181,8|0,2:2|3:2,2:2:0:0:
167,193,57724,1,0,2:2:0:0:
219,124,57841,1,0,3:2:0:0:
182,45,57958,2,0,P|147:73|131:114,1,89.9999972534181,8|0,2:2|2:2,2:2:0:0:
389,138,58193,6,0,P|382:94|354:59,1,89.9999972534181,4|0,3:3|2:2,2:2:0:0:
219,124,58427,2,0,P|226:168|254:202,1,89.9999972534181,8|0,2:2|3:2,2:2:0:0:
423,216,58661,2,0,P|457:187|473:146,1,89.9999972534181,0|0,2:2|3:2,2:2:0:0:
287,280,58896,2,0,P|243:286|197:268,1,89.9999972534181,8|0,2:2|2:2,2:2:0:0:
338,209,59130,2,0,L|377:296,1,89.9999972534181,4|0,3:3|2:2,2:2:0:0:
182,44,59364,2,0,P|147:72|131:114,1,89.9999972534181,8|0,2:2|3:2,2:2:0:0:
254,202,59599,2,0,P|225:167|219:123,1,89.9999972534181,0|0,2:2|3:2,2:2:0:0:
389,139,59833,2,0,P|301:127|254:202,1,186.000005818176,8|4,2:2|3:3,2:2:0:0:
287,280,60185,5,0,2:2:0:0:
374,291,60302,2,0,L|339:208,1,89.9999972534181,8|0,2:2|3:2,2:2:0:0:
167,193,60536,2,0,P|174:237|202:271,1,89.9999972534181,0|0,2:2|3:2,2:2:0:0:
304,133,60771,2,0,P|287:174|253:202,1,89.9999972534181,8|0,2:2|2:2,2:2:0:0:
44,105,61005,2,0,P|51:149|79:184,1,89.9999972534181,0|0,3:2|2:2,2:2:0:0:
219,124,61239,2,0,P|212:80|184:45,1,89.9999972534181,8|0,2:2|3:2,2:2:0:0:
131,114,61474,1,0,2:2:0:0:
167,193,61591,1,0,3:2:0:0:
253,202,61708,2,0,L|342:205,1,89.9999972534181,12|0,2:2|2:2,2:2:0:0:
315,354,61943,6,0,P|288:271|342:204,1,179.999994506836,6|8,3:2|2:2,2:2:0:0:
388,135,62294,1,0,3:2:0:0:
475,141,62411,2,0,P|458:182|424:211,1,89.9999972534181,0|0,2:2|3:2,2:2:0:0:
300,129,62646,2,0,P|316:87|350:58,1,89.9999972534181,8|0,2:2|2:2,2:2:0:0:
461,290,62880,2,0,P|416:296|374:281,1,89.9999972534181,4|0,3:3|2:2,2:2:0:0:
268,353,63114,2,0,L|252:257,1,89.9999972534181,8|0,2:2|3:2,2:2:0:0:
168,196,63349,2,0,P|123:202|81:187,1,89.9999972534181,0|0,2:2|3:2,2:2:0:0:
45,103,63583,1,8,2:2:0:0:
97,34,63700,1,0,2:2:0:0:
183,45,63818,6,0,P|224:123|147:200,1,189.999994926453,4|8,3:3|2:2,2:2:0:0:
81,187,64169,1,0,3:2:0:0:
45,103,64286,2,0,L|139:115,1,89.9999972534181,0|0,2:2|3:2,2:2:0:0:
117,263,64521,6,0,P|76:183|134:114,1,189.999994926453,8|4,2:2|3:3,2:2:0:0:
216,124,64872,1,0,2:2:0:0:
256,209,64989,2,0,L|157:194,1,89.9999972534181,8|0,2:2|3:2,2:2:0:0:
340,217,65224,2,0,P|333:173|300:128,1,89.9999972534181,0|0,2:2|3:2,2:2:0:0:
287,285,65458,2,0,P|328:302|373:297,1,89.9999972534181,8|0,2:2|2:2,2:2:0:0:
264,52,65693,6,0,P|231:82|215:123,1,89.9999972534181,4|0,3:3|2:2,2:2:0:0:
19,209,65927,2,0,P|40:128|108:168,1,179.999994506836,12|8,2:2|3:3,2:2:0:0:
187,266,66278,1,0,3:2:0:0:
135,342,66396,2,0,P|107:307|100:264,1,89.9999972534181,8|0,2:2|2:2,2:2:0:0:
266,287,66616,2,0,P|193:275|133:358,1,170.000003242493,4|8,2:2|3:2,2:2:0:0:
356,300,66956,5,8,2:2:0:0:
411,229,67070,1,8,2:2:0:0:
377,145,67184,1,8,2:3:0:0:
287,132,67297,1,8,3:3:0:0:
231,202,67411,1,0,3:2:0:0:
443,312,67583,6,0,P|502:240|452:146,1,189.999994926453,4|8,2:2|2:2,2:2:0:0:
343,61,67934,1,0,3:2:0:0:
287,132,68051,2,0,L|191:116,1,89.9999972534181,0|0,2:2|3:2,2:2:0:0:
19,104,68286,2,0,P|28:148|57:182,1,89.9999972534181,8|0,2:2|2:2,2:2:0:0:
198,117,68520,2,0,P|190:74|151:30,1,89.9999972534181,0|0,3:2|2:2,2:2:0:0:
89,268,68754,2,0,L|-7:252,1,89.9999972534181,8|0,2:2|3:2,2:2:0:0:
146,345,68989,2,0,P|189:270|153:192,1,179.999994506836,0|8,2:3|2:2,2:2:0:0:
89,268,69340,1,0,3:2:0:0:
89,268,69428,6,0,P|13:243|65:182,1,179.999994506836,4|8,3:3|2:2,2:2:0:0:
153,192,69779,1,0,3:2:0:0:
240,224,69896,2,0,L|224:320,1,89.9999972534181,0|0,2:2|3:2,2:2:0:0:
324,369,70131,2,0,L|308:273,1,89.9999972534181,8|0,2:2|2:2,2:2:0:0:
408,223,70365,2,0,L|392:319,1,89.9999972534181,4|0,3:3|2:2,2:2:0:0:
487,184,70599,2,0,P|419:132|338:162,1,179.999994506836,8|0,2:2|3:2,2:2:0:0:
300,67,70951,1,0,3:0:0:0:
300,67,71068,2,0,L|206:86,1,89.9999972534181,8|0,2:2|2:2,2:2:0:0:
91,159,71303,6,0,P|49:129|34:74,1,89.9999972534181,4|0,3:3|2:2,2:2:0:0:
178,188,71537,2,0,B|156:228|156:228|100:260,1,89.9999972534181,8|0,2:2|3:2,2:2:0:0:
209,296,71771,2,0,L|108:348,1,89.9999972534181,0|0,2:2|3:2,2:2:0:0:
303,297,72006,2,0,P|289:247|252:213,1,89.9999972534181,8|0,2:2|2:2,2:2:0:0:
209,296,72240,2,0,P|223:346|260:380,1,89.9999972534181,4|0,3:3|2:2,2:2:0:0:
391,311,72474,2,0,L|295:295,1,89.9999972534181,8|0,2:2|3:2,2:2:0:0:
447,209,72709,2,0,L|359:225,1,89.9999972534181,0|0,2:2|3:2,2:2:0:0:
348,69,72943,2,0,P|399:151|354:227,1,189.999994926453,8|4,2:2|2:3,2:2:0:0:
271,225,73295,5,0,2:2:0:0:
227,146,73412,2,0,P|239:98|294:60,1,89.9999972534181,8|0,2:2|3:2,2:2:0:0:
177,229,73646,2,0,P|151:189|110:169,1,89.9999972534181,0|0,2:2|3:2,2:2:0:0:
162,340,73881,2,0,P|196:311|245:311,1,89.9999972534181,8|0,2:2|2:2,2:2:0:0:
389,366,74115,2,0,P|328:307|378:207,1,179.999994506836,4|8,3:3|2:2,2:2:0:0:
442,197,74467,1,0,3:2:0:0:
499,270,74584,2,0,L|410:284,1,89.9999972534181
382,134,74818,2,0,P|420:156|441:196,1,89.9999972534181,8|0,2:2|2:2,2:2:0:0:
272,224,75053,6,0,L|307:358,1,100,4|0,2:2|2:2,2:2:0:0:
192,144,75287,2,0,L|160:272,1,100,8|0,2:2|2:2,2:2:0:0:
60,64,75521,2,0,L|92:192,1,100,8|0,2:2|2:2,2:2:0:0:
295,36,75756,2,0,L|423:68,1,100,8|0,2:2|2:2,2:2:0:0:
373,175,75990,2,0,L|501:143,1,100,8|0,2:2|2:2,2:2:0:0:
299,292,76224,2,0,L|427:324,1,100,8|0,2:2|2:2,2:2:0:0:
166,227,76459,2,0,L|294:195,1,100,8|0,2:2|2:2,2:2:0:0:
99,336,76693,2,0,L|227:368,1,100,8|0,2:2|2:2,2:2:0:0:
71,224,76928,6,0,L|308:162,1,200,4|8,2:2|2:3,2:2:0:0:
359,59,77279,1,8,2:3:0:0:
273,26,77396,1,8,2:2:0:0:
217,99,77513,1,8,2:2:0:0:
265,174,77631,1,8,2:3:0:0:
355,151,77748,1,8,2:3:0:0:
438,113,77865,5,8,2:2:0:0:
512,167,77982,1,8,2:2:0:0:
503,257,78099,1,8,2:3:0:0:
419,296,78217,1,8,2:3:0:0:
348,241,78334,5,8,2:2:0:0:
295,323,78451,1,8,2:2:0:0:
214,266,78568,1,8,2:3:0:0:
171,362,78685,1,8,2:2:0:0:
99,286,78803,6,0,L|-27:310,1,100,4|0,2:2|2:2,2:2:0:0:
120,184,79037,2,0,L|9:140,1,100,8|0,2:2|2:2,2:2:0:0:
193,121,79271,2,0,L|117:33,1,100,12|0,2:2|2:2,2:2:0:0:
292,124,79506,2,0,L|265:8,1,100,8|0,0:3|0:0,0:0:0:0:
463,258,79740,5,12,1:2:0:0:
463,167,79854,1,0,1:2:0:0:
375,139,79968,1,8,3:3:0:0:
321,213,80081,1,2,2:2:0:0:
375,287,80195,1,4,1:2:0:0:
323,360,80309,1,8,2:3:0:0:
235,332,80422,1,0,3:3:0:0:
236,241,80536,1,2,2:2:0:0:
409,205,80687,6,0,P|462:267|439:351,1,170.000003242493,4|8,0:0|2:2,0:0:0:0:
60,152,81155,2,0,P|114:111|188:124,1,129.999994049073,2|8,0:0|0:0,0:0:0:0:
136,195,81507,1,8,2:2:0:0:
136,195,81624,2,0,L|163:276,1,64.9999970245363,2|0,0:0|0:0,0:0:0:0:
251,222,81858,2,0,L|219:358,1,129.999994049073,8|2,0:0|0:0,0:0:0:0:
377,313,82210,1,8,0:0:0:0:
377,313,82327,1,8,0:0:0:0:
374,72,82562,6,0,L|446:56,1,64.9999970245363,2|0,2:2|2:2,2:2:0:0:
387,165,82796,2,0,L|323:150,1,64.9999970245363,8|0,2:2|2:2,2:2:0:0:
307,268,83030,2,0,P|338:213|324:151,1,129.999994049073,2|8,0:0|0:0,0:0:0:0:
272,78,83382,1,8,2:2:0:0:
272,78,83499,2,0,L|208:92,1,64.9999970245363,2|0,2:2|2:2,2:2:0:0:
126,170,83733,2,0,L|252:198,1,129.999994049073,0|2,1:2|2:2,2:2:0:0:
323,150,84085,1,8,2:0:0:0:
323,150,84202,1,8,2:2:0:0:
126,170,84437,6,0,L|63:185,1,64.9999970245363,2|0,2:2|2:2,2:2:0:0:
179,269,84671,2,0,L|115:254,1,64.9999970245363,0|0,1:2|2:2,2:2:0:0:
230,338,84905,2,0,P|262:283|250:221,1,129.999994049073,2|8,0:0|0:0,0:0:0:0:
230,136,85257,1,8,2:2:0:0:
230,136,85374,2,0,P|264:135|303:153,1,64.9999970245363,2|0,0:0|0:0,0:0:0:0:
377,249,85608,2,0,L|217:213,1,129.999994049073,8|2,2:2|2:2,2:2:0:0:
179,269,85960,1,8,2:0:0:0:
179,269,86077,1,8,2:2:0:0:
47,42,86312,5,2,2:2:0:0:
64,138,86446,2,0,L|77:221,1,85.0000016212464,2|0,0:0|0:0,0:0:0:0:
197,117,86673,5,8,2:3:0:0:
180,197,86787,2,0,L|166:280,1,85.0000016212464,8|0,0:3|0:0,0:0:0:0:
289,219,87014,5,2,2:2:0:0:
293,250,87128,2,0,L|306:333,1,85.0000016212464,8|0,0:3|0:0,0:0:0:0:
412,183,87355,5,0,3:2:0:0:
412,183,87469,2,0,L|398:266,1,85.0000016212464,0|0,3:0|0:0,0:0:0:0:
479,342,87696,5,4,2:2:0:0:
256,192,87810,12,0,89401,2:2:0:0:
