osu file format v14

[General]
AudioFilename: audio.mp3
AudioLeadIn: 0
PreviewTime: 53505
Countdown: 0
SampleSet: Soft
StackLeniency: 0.7
Mode: 0
LetterboxInBreaks: 0
WidescreenStoryboard: 1

[Editor]
Bookmarks: 6633
DistanceSpacing: 1.5
BeatDivisor: 4
GridSize: 8
TimelineZoom: 1

[Metadata]
Title:newsong (TV Size)
TitleUnicode:newsong (TV Size)
Artist:tacica
ArtistUnicode:tacica
Creator:Lian2002
Version:Normal
Source:NARUTO-ナルト-疾風伝
Tags:Anime japanese rock jrock NARUTO Shippuden Opening 10 Alternator
BeatmapID:2176571
BeatmapSetID:924107

[Difficulty]
HPDrainRate:3.5
CircleSize:3
OverallDifficulty:4.4
ApproachRate:5.5
SliderMultiplier:1.2
SliderTickRate:1

[Events]
//Background and Video events
0,0,"598782.jpg",0,0
//Break Periods
//Storyboard Layer 0 (Background)
//Storyboard Layer 1 (Fail)
//Storyboard Layer 2 (Pass)
//Storyboard Layer 3 (Foreground)
//Storyboard Sound Samples

[TimingPoints]
537,468.75,4,2,1,55,1,0
7568,468.75,4,2,1,45,1,0
22568,-100,4,2,1,50,0,0
35693,-100,4,2,1,55,0,0
37568,-100,4,2,1,50,0,0
50693,-100,4,2,1,60,0,0
53505,-100,4,2,1,65,0,0
53739,-100,4,2,1,45,0,0
54443,234.375,4,2,1,70,1,1
54443,-200,4,2,1,70,0,1
61708,-200,4,2,1,70,0,0
61943,-200,4,2,1,70,0,1
66616,227.272727272727,4,2,1,70,1,1
66616,-200,4,2,1,70,0,1
67411,-200,4,2,1,70,0,0
67583,234.375,4,2,1,70,1,1
67583,-200,4,2,1,70,0,1
69428,234.375,4,2,1,70,1,1
69662,-200,4,2,1,70,0,1
74818,-200,4,2,1,70,0,0
75053,-200,4,2,1,75,0,1
79741,227.272727272727,4,2,1,70,1,1
79741,-200,4,2,1,70,0,1
80687,468.75,4,2,1,55,1,0
86333,454.545454545455,4,2,1,55,1,0
87696,-100,4,2,1,45,0,0
88151,-100,4,2,1,35,0,0
88605,-100,4,2,1,25,0,0
89060,-100,4,2,1,15,0,0
89401,-100,4,2,1,5,0,0

[Colours]
Combo1 : 255,255,128
Combo2 : 128,255,255
Combo3 : 255,128,192
Combo4 : 128,128,255

[HitObjects]
77,98,537,6,0,L|85:162,1,60,4|8,0:0|0:0,0:0:0:0:
172,175,1005,2,0,L|157:55,2,120,2|2|2,0:0|0:0|0:0,0:0:0:0:
237,236,2177,1,8,0:0:0:0:
311,185,2412,6,0,P|286:160|259:147,1,60,2|8,0:0|0:0,0:0:0:0:
172,175,2880,2,0,L|52:189,2,120,2|2|2,0:0|0:0|0:0,0:0:0:0:
237,236,4052,1,8,0:0:0:0:
311,185,4287,6,0,L|384:204,1,60,2|8,0:0|0:0,0:0:0:0:
417,275,4755,2,0,P|450:226|448:167,2,120,2|2|2,0:0|0:0|0:0,0:0:0:0:
349,335,5927,1,8,0:0:0:0:
262,304,6162,2,0,L|150:324,1,90,8|8,0:2|0:3,0:0:0:0:
44,361,6865,2,0,L|56:257,1,90,8|8,0:2|0:3,0:0:0:0:
80,139,7568,6,0,P|15:134|51:43,1,180,4|8,0:0|0:0,0:0:0:0:
124,48,8505,1,2,0:0:0:0:
198,98,8739,2,0,L|262:90,1,60,8|2,0:0|0:0,0:0:0:0:
329,35,9208,1,8,0:0:0:0:
412,69,9443,6,0,P|435:126|423:184,1,120,4|2,0:3|0:0,0:0:0:0:
369,255,10146,1,8,0:0:0:0:
213,345,10614,2,0,L|221:265,1,60,8|2,0:0|0:0,0:0:0:0:
174,207,11083,2,0,B|136:182|136:182|49:192,1,120,8|8,0:0|0:0,0:0:0:0:
62,100,11786,6,0,L|142:92,1,60,2|8,0:0|0:0,0:0:0:0:
169,17,12255,2,0,L|249:25,1,60,2|8,0:0|0:0,0:0:0:0:
291,88,12724,1,2,0:0:0:0:
376,61,12958,1,8,0:0:0:0:
440,124,13193,6,0,P|450:182|427:236,1,120,4|2,0:3|0:0,0:0:0:0:
356,293,13896,2,0,L|292:285,1,60,8|2,0:0|0:0,0:0:0:0:
219,332,14364,2,0,P|209:274|232:220,1,120,8|8,0:0|0:0,0:0:0:0:
318,190,15068,6,0,P|256:134|208:134,1,120,4|2,3:3|2:0,0:0:0:0:
46,166,16005,2,0,L|75:93,1,60,2|8,0:0|0:0,0:0:0:0:
142,62,16474,2,0,L|222:54,1,60,2|8,0:0|0:0,0:0:0:0:
267,117,16943,6,0,L|347:109,2,60,4|8|2,0:3|0:0|0:0,0:0:0:0:
217,192,17646,2,0,L|157:197,1,60,8|2,0:0|0:0,0:0:0:0:
80,151,18114,2,0,P|70:209|93:263,1,120,8|8,0:0|0:0,0:0:0:0:
181,286,18818,5,4,0:3:0:0:
319,171,19286,1,2,0:0:0:0:
365,248,19521,1,8,0:0:0:0:
318,324,19755,2,0,L|254:332,1,60,2|8,0:0|0:0,0:0:0:0:
181,286,20224,1,2,0:0:0:0:
119,351,20458,2,0,L|-26:369,1,120,8|8,0:0|0:0,0:0:0:0:
9,275,21161,5,2,0:0:0:0:
62,202,21396,2,0,L|126:210,1,60,8|2,0:0|0:0,0:0:0:0:
173,136,21864,1,8,0:0:0:0:
317,243,22333,1,8,0:0:0:0:
378,176,22568,6,0,P|403:232|393:290,1,120,6|2,0:0|0:0,0:0:0:0:
317,243,23271,2,0,L|245:251,1,60,8|2,0:0|0:0,0:0:0:0:
167,253,23739,2,0,L|160:193,1,60,8|2,0:0|0:0,0:0:0:0:
152,103,24208,1,8,0:0:0:0:
226,51,24443,6,0,B|300:42|300:42|338:67,1,120,4|2,0:3|0:0,0:0:0:0:
415,20,25146,2,0,P|425:80|400:134,1,120,8|8,0:0|0:0,0:0:0:0:
337,196,25849,2,0,L|345:260,1,60,2|8,0:0|0:0,0:0:0:0:
302,335,26318,5,4,0:3:0:0:
196,189,26786,1,2,0:0:0:0:
32,264,27255,2,0,L|96:272,1,60,2|8,0:0|0:0,0:0:0:0:
150,339,27724,1,2,0:0:0:0:
225,290,27958,1,8,0:0:0:0:
302,335,28193,6,0,L|366:343,1,60,2|8,0:0|0:0,0:0:0:0:
425,279,28661,2,0,L|433:215,1,60,2|8,0:0|0:0,0:0:0:0:
371,153,29130,1,2,0:0:0:0:
292,197,29364,2,0,P|283:138|308:84,1,120,8|8,0:0|0:0,0:0:0:0:
397,67,30068,5,4,0:3:0:0:
228,5,30536,1,2,0:0:0:0:
104,136,31005,2,0,L|40:128,1,60,2|8,0:0|0:0,0:0:0:0:
52,218,31474,2,0,L|111:225,1,60,2|8,0:0|0:0,0:0:0:0:
190,181,31943,6,0,L|249:173,2,60,4|8|2,0:3|0:0|0:0,0:0:0:0:
111,225,32646,1,8,0:0:0:0:
129,312,32880,1,2,0:0:0:0:
215,338,33114,2,0,L|343:346,1,120,8|8,0:0|0:0,0:0:0:0:
415,304,33818,5,4,0:3:0:0:
451,127,34286,1,2,0:0:0:0:
388,61,34521,1,8,0:0:0:0:
303,92,34755,2,0,L|287:164,1,60,2|8,0:0|0:0,0:0:0:0:
340,225,35224,1,2,0:0:0:0:
289,299,35458,6,0,L|161:315,1,120,8|8,0:0|0:0,0:0:0:0:
136,230,36161,2,0,L|195:222,1,60,2|8,0:0|0:0,0:0:0:0:
254,153,36630,1,2,0:0:0:0:
208,75,36864,2,0,L|80:91,1,120,8|8,0:0|0:3,0:0:0:0:
43,168,37568,6,0,L|50:235,1,60
65,316,38036,1,2,0:0:0:0:
145,356,38271,2,0,P|212:313|212:260,1,120,8|0,0:3|0:0,0:0:0:0:
137,234,38974,1,2,0:0:0:0:
143,144,39208,2,0,L|223:128,1,60,8|4,0:0|0:3,0:0:0:0:
241,50,39677,5,0,0:0:0:0:
331,73,39911,2,0,L|411:89,1,60,2|8,0:0|0:3,0:0:0:0:
469,41,40380,1,2,0:0:0:0:
431,217,40849,1,2,0:0:0:0:
375,287,41083,1,8,0:0:0:0:
313,352,41318,6,0,L|249:360,1,60,4|0,0:0|0:0,0:0:0:0:
200,288,41786,2,0,L|120:272,1,60,2|8,0:0|0:3,0:0:0:0:
80,209,42255,1,2,0:0:0:0:
143,145,42489,2,0,L|223:129,1,60,0|2,0:0|0:2,0:0:0:0:
261,65,42958,6,0,P|290:116|281:174,1,120,8|0,0:0|0:0,0:0:0:0:
211,231,43661,2,0,L|222:289,1,60,2|8,0:0|0:3,0:0:0:0:
159,354,44130,1,2,0:0:0:0:
47,212,44599,1,2,0:0:0:0:
73,126,44833,1,8,0:0:0:0:
132,57,45068,6,4,L|196:65,1,60,4|0,0:0|0:0,0:0:0:0:
266,118,45536,1,2,0:0:0:0:
349,83,45771,2,0,P|352:142|317:190,1,120,8|0,0:3|0:0,0:0:0:0:
247,247,46474,1,2,0:0:0:0:
281,329,46708,2,0,L|413:305,1,120,8|0,0:0|0:0,0:0:0:0:
466,247,47411,5,2,0:0:0:0:
462,156,47646,2,0,L|330:132,1,120,8|0,0:3|0:0,0:0:0:0:
199,27,48583,1,8,0:0:0:0:
136,92,48818,1,4,0:0:0:0:
159,180,49052,6,0,L|89:192,1,60,0|2,0:0|0:0,0:0:0:0:
40,258,49521,1,8,0:3:0:0:
66,343,49755,2,0,L|194:366,1,120,2|2,0:0|0:0,0:0:0:0:
231,287,50458,6,0,L|359:263,1,120,8|4,0:0|0:0,0:0:0:0:
423,315,51161,2,0,L|491:324,1,60,8|8,0:3|0:3,0:0:0:0:
451,145,51864,1,8,0:0:0:0:
367,178,52099,2,0,L|307:188,1,60,8|8,0:0|0:3,0:0:0:0:
249,257,52568,6,0,L|189:246,1,60,2|8,0:0|0:0,0:0:0:0:
105,275,53036,1,8,0:0:0:0:
34,218,53271,1,8,0:3:0:0:
50,129,53505,2,0,L|178:105,1,120,12|4,0:2|0:0,0:0:0:0:
336,48,54443,6,0,L|349:111,1,60,4|8,3:2|0:0,0:0:0:0:
425,152,54911,2,0,L|411:217,1,60,0|8,3:0|0:0,0:0:0:0:
355,279,55380,1,4,3:3:0:0:
269,252,55614,2,0,L|200:263,1,60,8|0,0:0|3:0,0:0:0:0:
120,271,56083,6,0,P|80:220|75:166,1,120,8|8,0:0|0:0,0:0:0:0:
163,186,56786,1,0,3:0:0:0:
210,263,57021,2,0,L|201:331,2,60,8|4|8,0:0|3:3|0:0,0:0:0:0:
374,336,57958,5,8,0:0:0:0:
417,256,58193,1,4,3:3:0:0:
347,199,58427,2,0,L|279:212,2,60,8|0|8,0:0|3:0|0:0,0:0:0:0:
387,118,59130,1,4,3:3:0:0:
321,57,59364,2,0,L|260:67,2,60,8|0|8,0:0|3:0|0:0,0:0:0:0:
267,229,60302,5,8,0:0:0:0:
179,210,60536,1,0,3:0:0:0:
90,224,60771,2,4,L|96:286,1,60,8|4,0:2|3:3,0:2:0:0:
115,371,61239,2,0,L|56:361,2,60,8|0|8,0:0|3:0|0:0,0:0:0:0:
191,322,61943,1,4,0:0:0:0:
277,347,62177,6,0,L|336:356,1,60,8|0,0:0|3:0,0:0:0:0:
418,318,62646,2,0,L|427:258,1,60,8|4,0:0|3:3,0:0:0:0:
438,169,63114,1,8,0:0:0:0:
347,170,63349,1,0,3:0:0:0:
289,101,63583,6,0,B|161:125,1,120,8|8,0:0|0:0,0:0:0:0:
96,176,64286,1,0,3:0:0:0:
77,264,64521,2,0,B|205:288,1,120,8|8,0:0|0:0,0:0:0:0:
244,210,65224,2,0,B|186:198,2,60,4|8|4,3:0|0:0|3:0,0:0:0:0:
417,256,66161,5,4,0:0:0:0:
268,357,66616,2,0,L|254:298,1,60,4|0,3:2|3:0,0:0:0:0:
174,340,67070,2,0,L|115:353,1,60,8|8,0:3|0:3,0:0:0:0:
50,290,67581,5,4,0:0:0:0:
91,208,67817,2,0,L|149:221,1,60,8|0,0:0|3:0,0:0:0:0:
193,140,68286,2,0,L|251:126,1,60,8|0,0:0|3:0,0:0:0:0:
337,99,68754,2,0,L|395:112,2,60,8|0|8,2:0|3:0|2:0,0:0:0:0:
364,265,69662,6,0,L|305:251,1,60,8|0,0:0|3:0,0:0:0:0:
220,293,70131,2,0,L|207:352,2,60,8|4|8,0:0|3:3|0:0,0:0:0:0:
272,120,71068,5,8,0:0:0:0:
183,136,71303,2,0,L|124:149,1,60,4|8,3:3|0:0,0:0:0:0:
36,138,71771,2,0,P|36:164|49:199,1,60,0|8,3:0|0:0,0:0:0:0:
99,269,72240,1,4,3:3:0:0:
188,269,72474,2,0,L|201:327,2,60,8|0|8,0:0|3:0|0:0,0:0:0:0:
367,248,73412,5,8,0:0:0:0:
335,164,73646,2,0,L|348:105,1,60,0|8,3:0|0:0,0:0:0:0:
309,23,74115,2,0,P|373:19|422:52,1,120,4|0,3:3|3:0,3:0:0:0:
422,138,74818,1,8,0:0:0:0:
358,202,75053,6,0,L|299:188,1,60,4|8,0:0|0:0,0:0:0:0:
239,255,75521,2,0,L|180:268,1,60,8|8,0:0|0:0,0:0:0:0:
91,283,75990,1,8,0:0:0:0:
120,105,76459,2,0,L|107:47,2,60,8|8|4,0:3|0:0|0:0,0:0:0:0:
291,158,77396,5,8,0:0:0:0:
216,212,77631,2,0,L|238:338,1,120,8|8,0:0|0:0,0:0:0:0:
314,373,78334,1,8,0:0:0:0:
377,308,78568,1,8,0:0:0:0:
459,343,78803,5,4,0:0:0:0:
501,168,79271,1,4,0:0:0:0:
330,93,79741,2,0,P|272:80|214:98,1,120,8|8,0:3|0:3,0:0:0:0:
149,45,80422,1,2,0:0:0:0:
86,110,80687,6,0,P|116:129|145:137,1,60,6|8,0:0|0:0,0:0:0:0:
168,221,81155,2,0,L|43:232,2,120,2|2|2,0:0|0:0|0:0,0:0:0:0:
231,285,82327,1,8,0:0:0:0:
315,252,82562,6,0,L|326:193,1,60,2|8,0:0|0:0,0:0:0:0:
385,125,83030,2,0,L|362:7,2,120,2|2|2,0:0|0:0|0:0,0:0:0:0:
365,213,84202,1,8,0:0:0:0:
274,218,84437,6,0,L|202:234,1,60,2|0,0:0|1:0,0:0:0:0:
153,165,84905,2,0,L|33:149,2,120,2|2|2,0:0|0:0|0:0,0:0:0:0:
202,89,86077,1,8,0:0:0:0:
292,92,86333,6,0,B|400:76,1,90,8|8,0:2|0:3,0:0:0:0:
440,199,87014,2,0,L|332:183,1,90,8|8,0:2|0:3,0:0:0:0:
229,245,87696,2,0,P|91:343|127:162,1,450,4|0,0:0|0:0,0:0:0:0:
