osu file format v14

[General]
AudioFilename: audio.mp3
AudioLeadIn: 0
PreviewTime: 53505
Countdown: 0
SampleSet: Soft
StackLeniency: 0.7
Mode: 0
LetterboxInBreaks: 0
WidescreenStoryboard: 0

[Editor]
Bookmarks: 6633
DistanceSpacing: 1.4
BeatDivisor: 4
GridSize: 8
TimelineZoom: 2.5

[Metadata]
Title:newsong (TV Size)
TitleUnicode:newsong (TV Size)
Artist:tacica
ArtistUnicode:tacica
Creator:Lian2002
Version:Insane
Source:NARUTO-ナルト-疾風伝
Tags:Anime japanese rock jrock NARUTO Shippuden Opening 10 Alternator
BeatmapID:2192992
BeatmapSetID:924107

[Difficulty]
HPDrainRate:6
CircleSize:4
OverallDifficulty:7
ApproachRate:9
SliderMultiplier:1.8
SliderTickRate:1

[Events]
//Background and Video events
0,0,"598782.jpg",0,0
//Break Periods
//Storyboard Layer 0 (Background)
//Storyboard Layer 1 (Fail)
//Storyboard Layer 2 (Pass)
//Storyboard Layer 3 (Foreground)
//Storyboard Sound Samples

[TimingPoints]
537,468.75,4,2,1,55,1,0
6279,-71.4285714285714,4,2,1,55,0,0
6630,-76.9230769230769,4,2,1,55,0,0
6982,-83.3333333333333,4,2,1,55,0,0
7333,-90.9090909090909,4,2,1,55,0,0
7568,468.75,4,2,1,45,1,0
7568,-142.857142857143,4,2,1,45,0,0
8271,-100,4,2,1,45,0,0
22568,-125,4,2,1,50,0,0
23271,-100,4,2,1,50,0,0
35693,-100,4,2,1,55,0,0
37568,-100,4,2,1,50,0,0
50693,-100,4,2,1,60,0,0
53505,-100,4,2,1,65,0,0
53739,-100,4,2,1,45,0,0
54443,234.375,4,2,1,70,1,1
54443,-133.333333333333,4,2,1,70,0,1
61708,-133.333333333333,4,2,1,70,0,0
61943,-133.333333333333,4,2,1,70,0,1
66616,227.272727272727,4,2,1,70,1,1
66616,-125,4,2,1,70,0,1
67411,-133.333333333333,4,2,1,70,0,0
67583,234.375,4,2,1,70,1,1
67583,-133.333333333333,4,2,1,70,0,1
69428,234.375,4,2,1,70,1,1
69428,-125,4,2,1,70,0,1
69896,-133.333333333333,4,2,1,70,0,1
74818,-133.333333333333,4,2,1,70,0,0
75053,-133.333333333333,4,2,1,75,0,1
79741,227.272727272727,4,2,1,70,1,1
80687,468.75,4,2,1,55,1,0
80687,-100,4,2,1,55,0,0
86333,454.545454545455,4,2,1,55,1,0
86446,-71.4285714285714,4,2,1,55,0,0
86787,-76.9230769230769,4,2,1,55,0,0
87128,-83.3333333333333,4,2,1,55,0,0
87469,-90.9090909090909,4,2,1,55,0,0
87696,-100,4,2,1,45,0,0
88151,-100,4,2,1,35,0,0
88605,-100,4,2,1,25,0,0
89060,-100,4,2,1,15,0,0
89401,-100,4,2,1,5,0,0

[Colours]
Combo1 : 255,255,128
Combo2 : 128,255,255
Combo3 : 255,128,192
Combo4 : 128,128,255

[HitObjects]
16,96,537,6,0,B|112:80,1,90,6|8,0:0|0:0,0:0:0:0:
199,108,1005,1,2,0:2:0:0:
234,15,1240,1,8,0:0:0:0:
254,23,1357,1,8,0:0:0:0:
274,39,1474,1,2,0:0:0:0:
285,55,1591,1,0,0:0:0:0:
292,76,1708,1,8,0:0:0:0:
119,167,1943,1,4,0:3:0:0:
119,167,2060,1,8,0:0:0:0:
119,167,2177,1,8,0:0:0:0:
198,107,2412,6,0,B|213:196,1,90,4|8,0:3|0:0,0:0:0:0:
292,76,2880,1,2,0:2:0:0:
241,232,3115,1,8,0:0:0:0:
229,212,3232,1,8,0:0:0:0:
213,196,3349,1,2,0:0:0:0:
194,185,3466,1,0,0:0:0:0:
172,180,3583,1,8,0:0:0:0:
20,231,3818,1,2,0:0:0:0:
20,231,3935,1,8,0:0:0:0:
20,231,4052,1,8,0:0:0:0:
69,349,4287,5,4,0:3:0:0:
148,276,4521,2,0,L|245:285,1,90,8|2,0:0|0:2,0:0:0:0:
444,300,4990,1,8,0:0:0:0:
432,320,5107,1,8,0:0:0:0:
416,336,5224,1,2,0:0:0:0:
397,347,5341,1,0,0:0:0:0:
375,352,5458,1,8,0:0:0:0:
268,180,5693,1,2,0:0:0:0:
268,180,5810,1,8,0:0:0:0:
268,180,5927,1,8,0:0:0:0:
491,54,6162,5,8,2:0:0:0:
491,54,6279,2,0,P|433:40|376:85,1,125.999996154785,8|8,0:0|0:3,0:0:0:0:
268,180,6630,6,0,P|320:211|379:199,1,116.999994644165,8|8,0:3|0:0,0:0:0:0:
487,83,6982,6,0,P|435:69|397:115,1,107.999996704102,8|8,0:0|0:3,0:0:0:0:
299,168,7333,6,0,P|326:182|369:173,1,49.5000015106202,8|0,0:3|0:0,0:0:0:0:
512,277,7568,6,0,P|452:261|390:302,1,125.999996154785,6|2,0:0|0:0,0:0:0:0:
293,362,8271,6,0,L|245:354,1,45,8|8,0:0|0:0,0:0:0:0:
184,289,8505,2,0,L|82:305,1,90,2|8,0:0|0:0,0:0:0:0:
23,198,8974,2,0,L|15:153,1,45,2|8,0:0|0:0,0:0:0:0:
104,158,9208,2,0,L|111:113,1,45,8|0,0:0|0:0,0:0:0:0:
174,48,9443,6,0,L|275:64,1,90,4|8,0:3|0:0,0:0:0:0:
366,130,9911,1,2,2:2:0:0:
452,37,10146,2,0,P|414:8|345:4,1,90,8|2,2:2|2:2,2:3:0:0:
286,168,10614,2,0,L|303:232,1,45,8|0,0:0|0:0,0:0:0:0:
245,297,10849,1,2,0:0:0:0:
245,297,10966,1,8,2:2:0:0:
245,297,11083,2,0,L|346:313,1,90,8|4,0:0|0:3,0:0:0:0:
409,209,11552,5,8,2:2:0:0:
496,351,11786,2,0,L|489:261,1,90,2|8,2:2|2:2,2:3:0:0:
409,209,12138,1,8,0:0:0:0:
409,209,12255,2,0,L|364:201,1,45,2|0,0:0|0:0,0:0:0:0:
316,124,12489,2,0,L|271:132,1,45,8|0,0:0|0:0,0:0:0:0:
198,184,12724,1,2,0:0:0:0:
198,184,12841,1,8,0:0:0:0:
198,184,12958,1,8,0:0:0:0:
110,93,13193,6,4,P|143:64|187:53,1,90,4|8,2:3|2:2,2:3:0:0:
99,193,13661,2,0,L|-13:177,1,90,2|8,2:2|2:2,2:3:0:0:
9,180,14013,1,8,0:0:0:0:
9,180,14130,1,2,2:2:0:0:
182,235,14364,2,0,L|198:347,1,90,8|2,2:2|2:2,2:3:0:0:
194,324,14716,1,8,2:2:0:0:
194,324,14833,1,8,2:2:0:0:
334,365,15068,5,4,2:3:0:0:
410,212,15302,1,8,2:2:0:0:
320,64,15536,2,0,L|231:49,1,90,2|8,2:2|2:2,2:3:0:0:
383,127,15888,1,8,0:0:0:0:
383,127,16005,2,0,L|471:111,1,90,2|8,2:2|2:2,2:3:0:0:
322,193,16474,2,0,L|329:237,1,45,2|8,2:2|2:2,2:3:0:0:
268,303,16708,2,0,L|223:310,1,45,8|0,2:2|2:2,2:3:0:0:
153,367,16943,6,0,P|135:322|143:278,1,90,4|8,2:3|2:2,2:3:0:0:
187,108,17411,2,0,L|179:152,1,45,2|0,2:2|2:2,2:3:0:0:
101,205,17646,1,8,2:2:0:0:
101,205,17763,1,8,2:2:0:0:
101,205,17880,2,0,L|0:187,1,90,2|8,2:2|2:2,2:3:0:0:
187,108,18349,1,2,2:2:0:0:
205,101,18466,1,8,2:2:0:0:
227,90,18583,1,8,0:0:0:0:
272,352,18818,5,4,2:3:0:0:
144,288,19052,1,8,2:2:0:0:
386,201,19286,2,0,L|308:187,1,45,2|0,2:2|2:2,2:2:0:0:
241,255,19521,2,0,L|285:262,1,45,8|8,2:2|2:2,2:2:0:0:
449,259,19755,2,0,P|469:196|455:146,1,90,2|8,0:0|0:0,0:0:0:0:
369,291,20224,1,2,0:0:0:0:
369,291,20341,1,2,0:0:0:0:
369,291,20458,1,8,0:0:0:0:
231,346,20693,5,4,0:3:0:0:
288,188,20927,2,0,L|280:232,1,45,8|0,2:2|2:2,2:3:0:0:
231,346,21161,2,0,L|223:301,1,45,2|0,2:2|2:2,2:3:0:0:
134,286,21396,1,8,2:2:0:0:
134,286,21513,1,8,2:2:0:0:
134,286,21630,2,0,L|28:271,1,90,2|8,2:2|2:2,2:3:0:0:
0,142,22099,1,2,0:0:0:0:
6,120,22216,1,2,0:0:0:0:
16,100,22333,1,8,0:0:0:0:
32,84,22450,1,8,0:0:0:0:
50,71,22568,6,0,P|112:59|190:116,1,144,4|2,2:2|2:2,2:3:0:0:
98,166,23271,6,0,L|81:242,1,45,8|8,0:0|0:0,0:0:0:0:
134,286,23505,2,0,L|151:362,1,45,2|0,0:0|0:0,0:0:0:0:
177,207,23739,2,0,L|273:223,1,90,8|2,2:2|2:2,2:3:0:0:
265,221,24091,1,8,0:0:0:0:
265,221,24208,1,8,2:2:0:0:
340,322,24443,6,0,L|435:303,1,90,4|8,2:3|2:2,2:3:0:0:
466,184,24911,1,2,2:2:0:0:
291,134,25146,1,8,2:2:0:0:
291,134,25263,1,8,2:2:0:0:
291,134,25380,1,2,2:2:0:0:
428,304,25614,1,8,2:2:0:0:
379,115,25849,1,2,2:2:0:0:
379,115,25966,1,8,0:2:0:0:
379,115,26083,1,0,0:0:0:0:
289,284,26318,5,4,0:3:0:0:
114,221,26552,1,8,2:2:0:0:
192,160,26786,2,0,L|206:248,1,90,2|8,2:2|2:2,2:2:0:0:
97,129,27138,1,8,0:2:0:0:
97,129,27255,2,0,P|123:89|167:63,1,90,2|8,2:2|2:2,2:2:0:0:
114,221,27724,1,2,0:2:0:0:
114,221,27841,1,8,0:2:0:0:
114,221,27958,1,8,0:2:0:0:
280,145,28193,6,0,L|192:160,1,90,4|8,2:3|2:2,2:2:0:0:
342,222,28661,2,0,L|438:238,1,90,2|8,2:2|2:2,2:2:0:0:
430,236,29013,1,8,2:2:0:0:
430,236,29130,1,2,2:2:0:0:
431,84,29364,2,0,L|331:74,1,90,8|2,2:2|2:2,2:2:0:0:
341,75,29716,1,8,2:2:0:0:
341,75,29833,1,8,2:2:0:0:
239,190,30068,5,4,2:3:0:0:
122,154,30302,1,8,2:2:0:0:
227,101,30536,2,0,L|241:201,1,90,2|8,2:2|2:2,2:2:0:0:
168,262,30888,1,8,2:2:0:0:
168,262,31005,2,0,L|56:278,1,90,2|8,2:2|2:2,2:2:0:0:
260,293,31474,2,0,L|269:357,1,45,2|8,2:2|2:2,2:2:0:0:
353,300,31708,2,0,L|346:255,1,45,8|0,2:2|2:2,2:2:0:0:
459,282,31943,6,0,L|447:371,1,90,4|8,2:3|2:2,2:2:0:0:
346,255,32411,2,0,L|362:159,1,90,2|8,2:2|2:2,2:2:0:0:
422,91,32763,1,8,2:2:0:0:
422,91,32880,2,0,P|382:72|329:75,1,90,2|8,2:2|2:2,2:2:0:0:
236,64,33349,1,2,2:2:0:0:
236,64,33466,1,8,0:2:0:0:
236,64,33583,1,8,2:2:0:0:
157,236,33818,5,4,2:3:0:0:
77,125,34052,1,8,2:2:0:0:
243,182,34286,1,2,2:2:0:0:
60,271,34521,1,8,2:2:0:0:
60,271,34638,1,8,2:2:0:0:
60,271,34755,1,2,2:2:0:0:
161,150,34989,1,8,2:2:0:0:
207,352,35224,1,2,0:0:0:0:
237,337,35341,1,2,0:0:0:0:
263,321,35458,1,8,0:0:0:0:
60,271,35693,5,6,2:2:0:0:
243,182,35927,1,8,2:2:0:0:
63,139,36161,1,2,2:2:0:0:
284,55,36396,1,8,2:2:0:0:
327,331,36630,1,4,2:2:0:0:
59,271,36864,1,8,0:2:0:0:
85,284,36982,1,8,0:2:0:0:
109,295,37099,2,0,L|124:362,1,45,8|8,0:3|0:3,0:3:0:0:
162,213,37333,1,0,0:0:0:0:
243,182,37568,6,0,L|262:280,1,90,6|0,2:2|0:0,0:0:0:0:
417,272,38036,2,0,L|401:384,1,90,2|8,2:2|2:3,2:3:0:0:
404,361,38388,1,8,2:3:0:0:
404,361,38505,1,2,2:2:0:0:
320,227,38739,1,0,2:2:0:0:
365,128,38974,2,0,L|349:32,1,90,2|8,2:2|2:2,2:3:0:0:
218,190,39443,6,0,L|234:94,1,90,4|0,2:3|2:3,2:3:0:0:
185,4,39911,1,2,0:0:0:0:
55,96,40146,1,8,2:3:0:0:
55,96,40263,1,8,0:3:0:0:
55,96,40380,2,0,B|151:80|151:128|247:96,1,180,2|2,0:0|0:0,0:0:0:0:
232,100,40966,1,8,2:2:0:0:
232,100,41083,1,8,0:0:0:0:
323,41,41318,6,0,L|339:137,1,90,6|0,0:0|0:0,0:0:0:0:
423,195,41786,2,0,L|439:99,1,90,2|8,0:0|0:3,0:0:0:0:
437,106,42138,1,8,2:3:0:0:
437,106,42255,1,2,2:2:0:0:
321,231,42489,1,0,2:3:0:0:
409,330,42724,1,2,2:2:0:0:
321,231,42958,2,0,B|294:211|294:211|226:223,1,90,8|4,2:2|2:3,2:3:0:0:
52,260,43427,5,0,2:3:0:0:
160,344,43661,1,2,2:2:0:0:
148,208,43896,1,8,2:3:0:0:
148,208,44013,1,8,2:3:0:0:
148,208,44130,2,0,B|116:112|180:112|148:16,1,180,2|2,0:0|0:0,0:0:0:0:
50,67,44833,1,8,0:0:0:0:
240,152,45068,6,0,B|270:169|270:169|338:157,1,90,6|0,2:2|2:2,2:3:0:0:
441,45,45536,2,0,L|429:135,1,90,2|8,2:2|2:3,2:3:0:0:
429,135,45888,1,8,2:3:0:0:
429,135,46005,1,2,2:2:0:0:
380,231,46239,2,0,L|396:343,1,90,0|2,0:0|0:0,0:0:0:0:
303,381,46708,1,8,0:0:0:0:
133,322,46943,6,0,B|222:308,1,90,6|0,2:2|2:2,2:3:0:0:
53,249,47411,1,2,2:2:0:0:
122,165,47646,1,8,2:3:0:0:
122,165,47763,1,8,2:3:0:0:
122,165,47880,2,8,B|330:133,1,180,2|2,2:2|2:2,2:3:0:0:
448,205,48583,1,8,2:2:0:0:
384,64,48818,6,0,L|288:48,1,90,6|0,2:2|2:3,2:3:0:0:
190,22,49286,1,2,0:0:0:0:
114,99,49521,1,8,2:3:0:0:
114,99,49638,1,8,2:3:0:0:
114,99,49755,2,8,L|130:211,1,90,2|0,2:2|2:3,2:3:0:0:
96,336,50224,1,2,2:2:0:0:
239,279,50458,2,8,L|335:263,1,90,8|4,2:2|2:3,2:3:0:0:
402,342,50927,5,8,2:2:0:0:
448,136,51161,1,2,0:0:0:0:
453,157,51278,1,8,3:3:0:0:
459,179,51396,1,8,3:3:0:0:
465,201,51513,1,2,0:0:0:0:
472,224,51630,1,2,0:0:0:0:
270,83,51864,1,8,0:0:0:0:
368,88,52099,1,8,0:0:0:0:
363,109,52216,1,8,0:3:0:0:
357,131,52333,1,8,0:3:0:0:
327,272,52568,5,4,0:0:0:0:
175,183,52802,1,8,0:0:0:0:
260,140,53036,1,8,0:0:0:0:
265,161,53153,1,0,3:0:0:0:
271,183,53271,1,8,3:3:0:0:
180,344,53505,5,8,2:2:0:0:
160,330,53739,1,0,2:3:0:0:
140,316,53974,1,4,0:0:0:0:
352,112,54443,6,0,P|312:56|223:57,1,135.000005149842,4|8,3:2|2:2,2:3:0:0:
201,117,54794,1,0,3:0:0:0:
201,117,54911,2,0,L|281:133,1,67.5000025749208,0|0,0:0|3:0,0:0:0:0:
215,209,55146,2,0,L|148:195,1,67.5000025749208,8|0,0:0|0:0,0:0:0:0:
112,108,55380,2,0,P|80:95|47:95,1,67.5000025749208,4|0,3:3|0:0,0:0:0:0:
17,251,55614,1,8,0:0:0:0:
17,251,55732,1,0,3:0:0:0:
17,251,55849,2,0,P|48:263|81:264,1,67.5000025749208,0|0,2:0|3:0,0:0:0:0:
172,291,56083,2,0,L|188:387,1,67.5000025749208,8|0,0:2|0:3,0:0:0:0:
277,372,56318,6,0,L|254:238,1,135.000005149842,4|8,3:3|0:2,0:0:0:0:
328,179,56669,1,0,3:0:0:0:
399,239,56786,2,0,P|373:261|341:271,1,67.5000025749208,0|0,0:0|3:0,0:0:0:0:
410,145,57021,2,0,L|476:158,1,67.5000025749208,8|0,0:0|0:0,0:0:0:0:
360,64,57255,2,0,L|293:77,1,67.5000025749208,4|0,3:3|0:0,0:0:0:0:
235,153,57489,2,0,P|199:98|210:33,1,135.000005149842,8|0,0:0|0:0,0:0:0:0:
328,179,57841,1,0,3:2:0:0:
258,247,57958,2,0,L|191:233,1,67.5000025749208,8|0,0:0|0:0,0:0:0:0:
119,295,58193,6,0,L|132:361,1,67.5000025749208,4|0,0:3|0:0,0:0:0:0:
44,236,58427,2,0,P|69:213|100:202,1,67.5000025749208,8|0,0:0|3:0,0:0:0:0:
112,108,58661,2,0,P|143:118|169:140,1,67.5000025749208,0|0,0:0|3:0,0:0:0:0:
257,104,58896,2,0,P|263:136|256:172,1,67.5000025749208,8|0,0:0|0:0,0:0:0:0:
188,233,59130,2,0,L|121:219,1,67.5000025749208,4|0,3:3|0:0,0:0:0:0:
234,315,59364,1,8,2:0:0:0:
234,315,59482,1,0,3:0:0:0:
234,315,59599,2,0,L|300:301,1,67.5000025749208,0|0,2:0|3:0,0:0:0:0:
344,218,59833,2,0,L|410:231,1,67.5000025749208,8|0,0:0|0:0,0:0:0:0:
490,181,60068,6,0,P|502:245|461:309,1,135.000005149842,4|8,2:3|2:2,2:3:0:0:
421,137,60419,1,0,3:0:0:0:
421,137,60536,2,0,L|436:71,1,67.5000025749208,0|0,2:3|3:3,2:3:0:0:
326,126,60771,2,0,L|342:206,1,67.5000025749208,8|0,2:2|2:3,2:3:0:0:
434,203,61005,2,0,L|420:136,1,67.5000025749208,4|0,3:3|2:3,2:3:0:0:
307,43,61239,2,0,L|227:27,1,67.5000025749208,8|0,0:0|3:0,0:0:0:0:
99,125,61474,2,0,L|166:133,1,67.5000025749208,0|0,0:3|3:0,0:0:0:0:
315,224,61708,2,0,L|248:216,1,67.5000025749208,8|0,0:2|0:0,0:0:0:0:
139,254,61943,6,0,P|130:188|167:133,1,135.000005149842,4|8,0:0|0:0,0:0:0:0:
247,215,62294,1,0,3:0:0:0:
247,215,62411,2,0,L|314:223,1,67.5000025749208,0|0,0:3|3:0,0:0:0:0:
440,140,62646,2,0,L|373:148,1,67.5000025749208,8|0,0:2|0:0,0:0:0:0:
240,126,62880,2,0,P|207:134|177:158,1,67.5000025749208,4|0,3:3|0:0,0:0:0:0:
95,112,63114,2,0,P|85:144|91:182,1,67.5000025749208,8|0,2:2|3:0,0:0:0:0:
13,234,63349,1,0,0:0:0:0:
13,234,63466,1,0,3:0:0:0:
12,233,63583,2,0,P|36:258|67:271,1,67.5000025749208,8|0,2:2|0:0,0:0:0:0:
153,247,63818,6,0,B|142:351|142:351|172:330,1,135.000005149842,4|8,3:3|2:2,2:3:0:0:
238,272,64169,1,0,3:0:0:0:
225,190,64286,2,0,P|194:165|154:155,1,67.5000025749208,0|0,2:2|3:2,2:3:0:0:
238,272,64521,2,0,L|403:252,1,135.000005149842,8|4,0:0|3:3,0:0:0:0:
466,252,64872,1,0,2:0:0:0:
486,344,64989,2,0,L|390:328,1,67.5000025749208,8|0,2:2|3:3,2:3:0:0:
351,164,65224,2,0,L|447:180,1,67.5000025749208,0|0,2:2|3:3,2:3:0:0:
507,41,65458,2,0,L|411:25,1,67.5000025749208,8|0,2:2|2:3,2:3:0:0:
256,89,65693,6,0,L|272:176,1,67.5000025749208,4|0,3:0|0:0,0:0:0:0:
93,167,65927,2,0,L|102:100,1,67.5000025749208,8|0,0:0|3:0,0:0:0:0:
177,144,66161,2,0,L|195:210,1,67.5000025749208
342,206,66396,2,0,L|354:140,1,67.5000025749208,8|0,0:0|0:0,0:0:0:0:
144,328,66616,6,0,L|298:292,1,144,4|8,0:0|0:0,0:0:0:0:
384,352,66956,1,8,0:0:0:0:
389,318,67070,1,8,0:0:0:0:
395,285,67184,1,8,0:3:0:0:
401,252,67297,1,8,3:3:0:0:
407,219,67411,1,0,3:3:0:0:
176,144,67583,6,0,B|112:160|112:112|32:128,1,135.000005149842,4|8,3:2|0:0,0:0:0:0:
149,55,67934,1,0,3:3:0:0:
149,55,68051,2,0,L|245:39,1,67.5000025749208,0|0,0:0|3:0,0:0:0:0:
317,203,68286,2,0,L|250:191,1,67.5000025749208,8|0,0:0|0:0,0:0:0:0:
372,126,68520,2,0,L|468:110,1,67.5000025749208,4|0,3:3|0:0,0:0:0:0:
365,281,68754,2,0,L|298:292,1,67.5000025749208,8|0,0:0|3:0,0:0:0:0:
88,323,68989,2,0,L|221:344,1,135.000005149842,0|8,2:2|2:2,2:3:0:0:
177,210,69340,1,0,3:0:0:0:
177,210,69428,6,0,L|15:236,1,144,4|8,3:3|0:0,0:0:0:0:
205,60,69779,1,0,3:0:0:0:
205,60,69896,2,0,L|217:127,1,67.5000025749208,0|0,0:3|3:0,0:0:0:0:
382,178,70131,2,0,L|395:111,1,67.5000025749208,8|0,0:0|0:0,0:0:0:0:
296,162,70365,2,0,L|307:228,1,67.5000025749208,4|0,3:3|0:0,0:0:0:0:
499,322,70599,2,0,P|494:257|431:254,1,135.000005149842,8|0,0:0|0:0,0:0:0:0:
363,308,70951,1,0,3:0:0:0:
363,308,71068,2,0,L|283:324,1,67.5000025749208,8|0,2:2|0:0,0:0:0:0:
224,381,71303,6,0,L|157:367,1,67.5000025749208,4|0,0:3|0:0,0:0:0:0:
285,254,71537,2,0,L|301:350,1,67.5000025749208,8|0,2:2|3:0,0:0:0:0:
200,269,71771,2,0,L|216:189,1,67.5000025749208,0|0,0:0|3:0,0:0:0:0:
279,134,72006,2,0,L|359:150,1,67.5000025749208,8|0,0:0|0:0,0:0:0:0:
395,40,72240,2,0,L|329:54,1,67.5000025749208,4|0,3:3|0:0,0:0:0:0:
185,116,72474,2,0,L|105:100,1,67.5000025749208,8|0,0:0|3:0,0:0:0:0:
147,216,72709,1,0,2:0:0:0:
147,216,72826,1,0,3:0:0:0:
147,216,72943,2,0,L|213:202,1,67.5000025749208,8|0,2:2|2:0,0:0:0:0:
48,177,73178,6,0,P|42:243|75:301,1,135.000005149842,4|8,0:0|0:0,0:0:0:0:
192,353,73529,1,0,3:0:0:0:
192,353,73646,2,0,L|204:287,1,67.5000025749208,0|0,0:0|3:0,0:0:0:0:
385,210,73881,2,0,L|401:290,1,67.5000025749208,8|0,0:0|0:0,0:0:0:0:
308,333,74115,6,0,L|280:177,1,135.000005149842,4|8,2:3|2:2,2:3:0:0:
256,52,74467,1,0,0:3:0:0:
256,52,74584,2,0,L|235:144,1,67.5000025749208,4|0,0:3|0:0,0:0:0:0:
136,152,74818,2,0,L|56:144,1,67.5000025749208,8|0,2:2|2:2,2:3:0:0:
256,52,75053,5,4,2:2:0:0:
304,232,75287,1,8,2:2:0:0:
488,152,75521,1,8,2:2:0:0:
328,112,75756,1,8,2:2:0:0:
368,336,75990,2,0,L|280:352,1,67.5000025749208,8|0,0:0|0:0,0:0:0:0:
125,247,76224,2,0,L|213:239,1,67.5000025749208,8|0,0:0|0:0,0:0:0:0:
355,134,76459,2,0,L|263:144,1,67.5000025749208,8|0,0:0|0:0,0:0:0:0:
168,32,76693,2,0,L|176:112,1,67.5000025749208,8|0,0:0|0:0,0:0:0:0:
297,243,76928,5,4,0:0:0:0:
53,291,77162,1,8,0:3:0:0:
86,285,77279,1,8,0:3:0:0:
117,283,77396,1,8,0:0:0:0:
150,289,77513,1,8,0:0:0:0:
183,296,77631,5,8,0:3:0:0:
234,334,77748,1,8,0:3:0:0:
292,307,77865,1,8,0:0:0:0:
297,243,77982,1,8,0:0:0:0:
242,209,78099,2,0,P|226:183|232:126,1,67.5000025749208,8|8,0:3|0:3,0:3:0:0:
142,115,78334,2,0,P|160:86|200:61,1,67.5000025749208,8|8,0:0|0:0,0:0:0:0:
284,2,78568,2,0,L|273:82,1,67.5000025749208,8|8,0:3|0:0,0:0:0:0:
311,155,78803,5,4,0:0:0:0:
86,224,79037,1,8,0:0:0:0:
234,334,79271,1,12,0:0:0:0:
311,155,79506,1,8,0:0:0:0:
448,252,79740,5,12,0:0:0:0:
410,247,79854,1,8,0:3:0:0:
368,240,79968,1,0,3:0:0:0:
334,236,80081,1,0,3:0:0:0:
306,196,80195,5,12,0:0:0:0:
268,201,80309,1,8,0:3:0:0:
230,207,80422,1,0,3:0:0:0:
192,212,80536,1,0,3:0:0:0:
26,208,80687,6,0,P|21:256|45:304,1,90,6|8,0:0|0:0,0:0:0:0:
104,232,81155,1,2,0:0:0:0:
132,64,81390,1,8,0:0:0:0:
158,67,81507,1,8,0:0:0:0:
186,70,81624,1,2,0:0:0:0:
213,75,81741,1,0,0:0:0:0:
241,78,81858,1,8,0:0:0:0:
343,189,82093,2,0,L|419:173,1,45,2|8,0:0|0:0,0:0:0:0:
464,157,82327,1,8,0:0:0:0:
332,340,82562,5,4,0:3:0:0:
248,292,82796,2,0,L|159:310,1,90,8|4,0:0|0:3,0:0:0:0:
74,197,83265,1,8,0:0:0:0:
100,200,83382,1,8,0:0:0:0:
128,203,83499,1,2,0:0:0:0:
155,208,83616,1,0,0:0:0:0:
183,211,83733,1,0,1:1:0:0:
228,38,83968,2,0,L|237:82,1,45,2|8,0:0|0:0,0:0:0:0:
258,160,84202,1,8,0:0:0:0:
448,140,84437,5,4,0:3:0:0:
367,77,84671,2,0,L|346:174,1,90,0|2,1:0|0:0,0:0:0:0:
292,348,85140,1,8,0:0:0:0:
287,321,85257,1,8,0:0:0:0:
282,293,85374,1,2,0:0:0:0:
276,267,85491,1,0,0:0:0:0:
271,239,85608,1,8,0:0:0:0:
67,326,85843,2,0,L|120:315,1,45,2|8,0:0|0:0,0:0:0:0:
191,301,86077,1,8,0:0:0:0:
42,74,86312,5,2,0:0:0:0:
42,74,86446,2,0,P|91:40|157:51,1,125.999996154785,8|8,0:3|0:3,0:0:0:0:
277,181,86787,6,0,P|220:191|166:154,1,116.999994644165,8|2,0:3|0:0,0:0:0:0:
60,102,87128,6,0,P|104:62|159:89,1,107.999996704102,2|0,0:0|3:0,0:0:0:0:
251,172,87469,6,0,P|223:174|193:153,1,49.5000015106202,0|0,3:0|0:0,0:0:0:0:
348,84,87696,5,4,0:0:0:0:
256,192,87810,12,0,89401,0:0:0:0:
