osu file format v14

[General]
AudioFilename: audio.mp3
AudioLeadIn: 0
PreviewTime: 53505
Countdown: 0
SampleSet: Soft
StackLeniency: 0.5
Mode: 0
LetterboxInBreaks: 0
WidescreenStoryboard: 0

[Editor]
Bookmarks: 6633
DistanceSpacing: 0.7
BeatDivisor: 4
GridSize: 16
TimelineZoom: 1.4

[Metadata]
Title:newsong (TV Size)
TitleUnicode:newsong (TV Size)
Artist:tacica
ArtistUnicode:tacica
Creator:Lian2002
Version:Hard
Source:NARUTO-ナルト-疾風伝
Tags:Anime japanese rock jrock NARUTO Shippuden Opening 10 Alternator
BeatmapID:1930070
BeatmapSetID:924107

[Difficulty]
HPDrainRate:5
CircleSize:4
OverallDifficulty:6
ApproachRate:8
SliderMultiplier:1.5
SliderTickRate:1

[Events]
//Background and Video events
0,0,"598782.jpg",0,0
//Break Periods
//Storyboard Layer 0 (Background)
//Storyboard Layer 1 (Fail)
//Storyboard Layer 2 (Pass)
//Storyboard Layer 3 (Foreground)
//Storyboard Sound Samples

[TimingPoints]
537,468.75,4,2,1,55,1,0
7568,468.75,4,2,1,45,1,0
22568,-100,4,2,1,50,0,0
35693,-100,4,2,1,55,0,0
37568,-100,4,2,1,50,0,0
50693,-100,4,2,1,60,0,0
53505,-100,4,2,1,65,0,0
53739,-100,4,2,1,45,0,0
54443,234.375,4,2,1,70,1,1
54443,-200,4,2,1,70,0,1
61708,-200,4,2,1,70,0,0
61943,-200,4,2,1,70,0,1
66616,227.272727272727,4,2,1,70,1,1
67411,-200,4,2,1,70,0,0
67583,234.375,4,2,1,70,1,1
67583,-200,4,2,1,70,0,1
69428,234.375,4,2,1,70,1,1
69428,-200,4,2,1,70,0,1
74818,-200,4,2,1,70,0,0
75053,-200,4,2,1,75,0,1
79741,227.272727272727,4,2,1,70,1,1
80687,468.75,4,2,1,55,1,0
86333,454.545454545455,4,2,1,55,1,0
87696,-100,4,2,1,45,0,0
88151,-100,4,2,1,35,0,0
88605,-100,4,2,1,25,0,0
89060,-100,4,2,1,15,0,0
89401,-100,4,2,1,5,0,0

[Colours]
Combo1 : 255,255,128
Combo2 : 128,255,255
Combo3 : 255,128,192
Combo4 : 128,128,255

[HitObjects]
52,64,537,6,0,L|148:48,1,75,6|8,2:2|2:2,2:2:0:0:
178,124,1005,1,2,0:0:0:0:
264,97,1240,1,8,0:0:0:0:
264,97,1357,1,8,0:0:0:0:
264,97,1474,2,0,L|344:113,1,75,2|8,0:0|0:0,0:0:0:0:
424,134,1943,1,2,0:0:0:0:
424,134,2060,1,8,0:0:0:0:
424,134,2177,1,8,0:0:0:0:
395,44,2412,5,4,0:3:0:0:
337,111,2646,2,0,L|353:207,1,75,8|2,2:2|2:2,2:2:0:0:
420,243,3115,1,8,0:0:0:0:
420,243,3232,1,8,0:0:0:0:
420,243,3349,2,0,L|404:339,1,75,2|8,2:2|2:2,2:2:0:0:
330,364,3818,1,2,0:0:0:0:
330,364,3935,1,8,0:0:0:0:
330,364,4052,1,8,2:2:0:0:
265,301,4287,5,4,0:3:0:0:
187,347,4521,2,0,L|113:332,1,75,8|2,0:0|0:0,0:0:0:0:
59,259,4990,1,8,0:0:0:0:
59,259,5107,1,8,0:0:0:0:
59,259,5224,2,0,L|132:244,1,75,2|8,0:0|0:0,0:0:0:0:
221,228,5693,1,2,2:2:0:0:
221,228,5810,1,8,2:2:0:0:
221,228,5927,1,8,2:2:0:0:
286,166,6162,6,0,L|329:169,1,37.5,8|8,0:3|0:3,0:0:0:0:
250,83,6513,2,0,L|269:42,1,37.5,8|8,0:3|0:3,0:0:0:0:
160,96,6865,2,0,L|128:60,1,37.5,8|8,0:0|0:0,0:0:0:0:
141,183,7216,2,0,L|83:202,1,37.5,8|8,0:3|0:0,0:0:0:0:
221,228,7568,5,4,0:0:0:0:
362,351,8036,1,2,2:2:0:0:
421,283,8271,2,0,L|501:299,2,75,8|2|8,2:2|2:2|2:2,2:2:0:0:
332,266,8974,2,0,P|352:224|387:201,1,75,2|8,2:2|2:2,2:2:0:0:
463,200,9443,6,0,P|451:163|420:130,1,75,4|8,2:3|2:2,2:2:0:0:
339,116,9911,1,2,2:2:0:0:
280,183,10146,2,0,L|200:167,1,75,8|2,2:2|2:2,2:2:0:0:
133,115,10614,2,0,B|121:91|121:91|134:37,2,75,8|2|8,2:2|2:2|2:2,2:2:0:0:
216,80,11318,5,4,2:3:0:0:
206,168,11552,1,8,0:0:0:0:
198,257,11786,2,0,L|271:271,1,75,2|8,2:2|2:2,2:2:0:0:
354,235,12255,2,0,L|427:249,1,75,2|8,2:2|2:2,2:2:0:0:
510,213,12724,1,2,2:2:0:0:
496,116,12958,1,8,0:0:0:0:
400,93,13193,6,0,L|326:78,1,75,4|8,2:3|2:2,2:2:0:0:
229,92,13661,2,0,P|233:46|254:14,2,75,2|8|2,2:2|2:2|2:2,2:2:0:0:
296,163,14364,2,0,L|265:317,1,150,8|8,2:2|2:2,2:2:0:0:
187,353,15068,5,4,2:3:0:0:
101,324,15302,1,8,0:0:0:0:
50,249,15536,2,0,L|130:233,1,75,2|8,2:2|2:2,2:2:0:0:
107,145,16005,2,0,L|187:161,1,75,2|8,2:2|2:2,2:2:0:0:
221,79,16474,2,0,P|250:102|267:135,1,75,2|8,2:2|2:2,2:2:0:0:
241,222,16943,6,0,P|258:255|287:278,1,75,4|8,2:3|2:2,2:2:0:0:
330,199,17411,1,2,2:2:0:0:
335,109,17646,2,0,P|298:114|267:135,1,75,8|2,2:2|2:2,2:2:0:0:
241,222,18114,2,0,P|189:177|194:90,1,150,8|8,2:2|2:2,2:2:0:0:
267,135,18818,5,4,2:3:0:0:
241,222,19052,1,8,0:0:0:0:
166,271,19286,2,0,L|182:353,2,75,2|8|2,2:2|2:2|2:2,2:2:0:0:
139,184,19989,1,8,2:2:0:0:
79,251,20224,2,0,L|5:236,1,75,2|8,2:2|2:2,2:2:0:0:
139,184,20693,5,4,0:3:0:0:
166,271,20927,1,8,2:2:0:0:
222,200,21161,2,0,P|220:162|203:129,1,75,2|8,2:2|2:2,2:2:0:0:
182,42,21630,1,2,2:2:0:0:
47,82,21864,2,0,P|81:97|118:97,1,75,8|2,2:2|2:2,2:2:0:0:
268,79,22333,1,8,2:2:0:0:
268,79,22450,1,8,2:2:0:0:
268,79,22568,6,0,L|422:48,1,150,4|2,2:2|2:2,2:2:0:0:
454,133,23271,1,8,2:2:0:0:
408,210,23505,2,0,L|334:195,1,75,2|8,2:2|2:2,2:2:0:0:
247,218,23974,2,0,L|173:232,1,75,2|8,2:2|2:2,2:2:0:0:
123,159,24443,6,0,L|49:144,1,75,4|8,2:3|2:2,2:2:0:0:
102,71,24911,1,2,2:2:0:0:
188,96,25146,2,0,P|208:128|211:168,1,75,8|2,2:2|2:2,2:2:0:0:
146,227,25614,2,0,P|126:195|123:155,1,75,8|2,2:2|2:2,2:2:0:0:
211,164,26083,1,8,2:2:0:0:
299,148,26318,6,0,L|396:128,1,75,4|8,2:3|2:2,2:2:0:0:
439,64,26786,2,0,L|350:43,1,75,2|8,0:0|0:0,0:0:0:0:
299,148,27255,1,2,0:0:0:0:
266,231,27489,1,8,2:2:0:0:
330,293,27724,2,0,P|350:261|355:224,1,75,2|8,2:2|2:2,2:2:0:0:
245,324,28193,6,0,L|165:308,1,75,4|8,2:3|2:2,2:2:0:0:
82,332,28661,2,0,L|97:258,1,75,2|8,2:2|2:2,2:2:0:0:
123,172,29130,1,2,2:2:0:0:
38,138,29364,2,0,P|41:211|96:258,1,150,8|8,2:2|2:2,2:2:0:0:
184,237,30068,5,4,2:3:0:0:
270,212,30302,1,8,0:0:0:0:
274,121,30536,2,0,L|198:146,1,75,2|8,2:2|2:2,2:2:0:0:
123,172,31005,1,2,2:2:0:0:
95,86,31239,1,8,2:2:0:0:
179,55,31474,2,0,L|250:31,1,75,2|8,2:2|2:2,2:2:0:0:
202,144,31943,6,0,L|189:228,1,75,4|8,2:3|2:2,2:2:0:0:
176,307,32411,1,2,2:2:0:0:
106,250,32646,2,0,L|26:266,1,75,8|2,2:2|2:2,2:2:0:0:
190,218,33114,2,0,P|256:271|261:336,1,150,8|8,2:2|2:2,2:2:0:0:
176,307,33818,5,4,2:3:0:0:
261,331,34052,1,8,0:0:0:0:
347,358,34286,1,2,2:2:0:0:
417,301,34521,1,8,2:2:0:0:
379,219,34755,2,0,L|459:203,2,75,2|8|2,2:2|2:2|2:2,2:2:0:0:
290,177,35458,1,8,0:0:0:0:
269,81,35693,6,0,L|364:67,1,75,4|8,2:3|2:2,2:2:0:0:
422,126,36161,1,2,0:0:0:0:
379,219,36396,1,8,0:0:0:0:
451,284,36630,1,4,0:0:0:0:
318,341,36864,2,0,L|303:267,1,75,8|2,2:2|2:2,2:2:0:0:
303,267,37216,1,8,2:3:0:0:
303,267,37333,1,8,2:3:0:0:
220,229,37568,5,4,2:2:0:0:
162,298,37802,2,0,L|176:371,1,75,0|2,2:2|2:2,2:2:0:0:
58,337,38271,1,8,0:3:0:0:
58,337,38388,1,8,0:3:0:0:
58,337,38505,2,0,L|73:264,1,75,2|0,2:2|2:2,2:2:0:0:
136,189,38974,1,2,2:2:0:0:
220,229,39208,1,8,2:2:0:0:
303,177,39443,6,0,L|376:162,1,75,2|0,2:2|2:2,2:2:0:0:
269,101,39911,2,0,L|195:115,1,75,2|8,2:2|2:3,2:2:0:0:
153,102,40263,1,8,2:3:0:0:
153,102,40380,2,0,P|76:129|51:195,1,150,2|0,0:0|0:0,0:0:0:0:
51,187,40966,1,8,2:2:0:0:
51,187,41083,1,8,2:2:0:0:
165,255,41318,6,0,P|156:218|135:188,1,75,6|0,2:2|2:2,2:2:0:0:
208,335,41786,2,0,P|236:310|252:277,1,75,2|8,2:2|2:3,2:2:0:0:
252,276,42138,1,8,2:3:0:0:
252,276,42255,1,2,2:2:0:0:
258,185,42489,2,0,P|297:192|333:220,1,75,0|2,2:2|2:2,2:2:0:0:
401,260,42958,6,0,P|440:253|476:225,1,75,8|4,2:2|2:3,2:2:0:0:
406,167,43427,1,0,2:2:0:0:
316,138,43661,2,0,P|313:175|325:211,1,75,2|8,2:2|2:3,2:2:0:0:
319,255,44013,1,8,2:3:0:0:
319,255,44130,2,0,P|262:307|179:308,1,150,2|2,0:0|0:0,0:0:0:0:
121,255,44833,1,8,2:2:0:0:
44,303,45068,6,0,P|33:260|38:223,1,75,6|0,2:2|2:2,2:2:0:0:
97,163,45536,1,2,2:2:0:0:
182,190,45771,1,8,2:3:0:0:
182,190,45888,1,8,2:3:0:0:
182,190,46005,2,0,L|262:174,1,75,2|0,2:2|2:2,2:2:0:0:
314,107,46474,1,2,2:2:0:0:
234,65,46708,6,0,L|160:79,1,75,8|4,2:2|2:2,2:2:0:0:
255,175,47177,1,0,2:2:0:0:
313,106,47411,2,0,L|387:121,1,75,2|8,2:2|2:3,2:2:0:0:
428,104,47763,1,8,2:3:0:0:
428,104,47880,2,0,P|458:173|416:247,1,150,2|2,0:0|0:0,0:0:0:0:
339,251,48583,6,0,L|259:266,1,75,8|6,2:2|2:2,2:2:0:0:
181,297,49052,1,0,2:2:0:0:
262,339,49286,2,0,P|269:307|265:264,1,75,2|8,2:2|2:3,2:2:0:0:
236,230,49638,1,8,2:3:0:0:
236,230,49755,1,2,2:2:0:0:
146,219,49989,2,0,P|109:250|97:274,1,75,0|2,0:0|0:0,0:0:0:0:
181,297,50458,1,8,0:0:0:0:
236,230,50693,5,2,0:0:0:0:
177,122,50927,1,8,2:2:0:0:
335,122,51161,5,8,2:3:0:0:
335,122,51278,1,8,2:3:0:0:
335,122,51396,2,0,L|399:106,2,37.5,0|0|4,3:2|3:2|2:3,2:2:0:0:
256,64,51864,5,8,2:2:0:0:
177,122,52099,2,0,L|113:106,2,37.5,8|0|8,2:2|3:2|2:3,2:2:0:0:
256,64,52568,5,4,2:3:0:0:
335,122,52802,1,8,2:2:0:0:
305,215,53036,2,0,L|321:279,2,37.5,8|8|8,2:2|2:3|2:3,2:2:0:0:
335,122,53505,5,12,2:2:0:0:
419,152,53739,1,0,2:2:0:0:
483,89,53974,1,4,2:2:0:0:
464,304,54443,6,0,L|384:320,1,75,4|8,3:2|2:2,2:2:0:0:
306,268,54911,1,2,0:0:0:0:
306,268,55028,1,0,3:0:0:0:
306,268,55146,1,8,0:0:0:0:
235,338,55380,1,4,3:3:0:0:
146,297,55614,2,0,L|131:223,1,75,8|2,2:2|2:2,2:2:0:0:
131,223,55966,1,2,0:0:0:0:
131,223,56083,1,8,2:2:0:0:
83,137,56318,6,0,P|121:124|160:125,1,75,4|8,3:3|2:2,2:2:0:0:
237,176,56786,1,2,0:0:0:0:
237,176,56903,1,0,3:0:0:0:
237,176,57021,1,8,0:0:0:0:
307,108,57255,1,4,3:3:0:0:
400,131,57489,2,0,P|402:93|389:58,1,75,8|2,2:2|2:2,2:2:0:0:
332,200,57958,1,8,2:2:0:0:
382,283,58193,6,0,L|455:268,1,75,4|8,3:3|2:2,2:2:0:0:
309,348,58661,2,0,L|229:332,1,75,2|8,2:2|2:2,2:2:0:0:
167,263,59130,2,0,L|87:279,1,75,4|8,3:3|2:2,2:2:0:0:
49,255,59482,1,2,0:0:0:0:
49,255,59599,1,0,3:0:0:0:
65,159,59833,2,0,L|138:144,1,75,8|4,2:2|3:3,2:2:0:0:
227,185,60302,5,8,2:2:0:0:
284,106,60536,1,2,0:0:0:0:
284,106,60653,1,0,3:0:0:0:
284,106,60771,2,0,L|364:122,1,75,8|4,0:0|3:3,0:0:0:0:
453,99,61239,2,0,P|453:140|438:175,1,75,8|2,2:2|2:2,2:2:0:0:
402,201,61591,1,2,2:2:0:0:
402,201,61708,1,8,2:2:0:0:
350,345,61943,6,0,L|336:272,1,75,6|8,2:2|2:2,2:2:0:0:
245,234,62411,2,0,L|171:248,1,75,2|8,2:2|2:2,2:2:0:0:
107,175,62880,2,0,L|180:160,1,75,4|8,3:3|2:2,2:2:0:0:
214,124,63232,1,2,0:0:0:0:
214,124,63349,1,2,2:2:0:0:
179,31,63583,2,0,P|147:51|126:82,1,75,8|4,2:2|3:3,2:2:0:0:
214,124,64052,5,8,2:2:0:0:
277,49,64286,1,2,2:2:0:0:
277,49,64403,1,0,3:2:0:0:
277,49,64521,2,0,L|365:70,1,75,8|4,2:2|3:3,2:2:0:0:
402,149,64989,1,8,2:2:0:0:
402,149,65107,1,2,2:2:0:0:
402,149,65224,2,0,L|379:237,1,75,2|8,2:2|2:2,2:2:0:0:
335,305,65693,5,4,3:3:0:0:
242,279,65927,1,12,2:2:0:0:
172,346,66161,1,2,0:0:0:0:
89,285,66396,1,8,0:0:0:0:
128,191,66616,1,4,2:2:0:0:
232,192,66843,1,8,0:0:0:0:
232,192,66956,1,8,0:0:0:0:
232,192,67070,2,0,P|220:150|186:106,3,75,8|8|8|2,0:3|0:3|0:3|0:0,0:0:0:0:
242,279,67581,5,4,0:0:0:0:
331,291,67817,1,8,2:2:0:0:
371,210,68051,1,2,0:0:0:0:
371,210,68168,1,0,3:0:0:0:
371,210,68286,2,0,P|399:186|435:175,1,75,8|4,2:2|3:3,2:2:0:0:
355,112,68754,2,0,P|326:88|291:78,1,75,8|2,2:2|2:2,2:2:0:0:
280,175,69223,1,8,2:2:0:0:
208,128,69428,6,0,P|195:88|205:43,1,75,4|8,3:3|2:2,2:2:0:0:
193,215,69896,1,2,0:0:0:0:
193,215,70013,1,0,3:0:0:0:
193,215,70131,2,0,P|151:199|124:170,1,75,8|4,2:2|3:3,2:2:0:0:
208,128,70599,1,8,0:0:0:0:
280,175,70834,1,2,2:2:0:0:
218,296,71068,2,0,L|138:312,1,75,8|4,2:2|3:3,2:2:0:0:
57,283,71537,5,8,2:2:0:0:
98,194,71771,2,0,L|178:178,1,75,2|8,2:2|2:2,2:2:0:0:
250,122,72240,2,0,L|266:202,1,75,4|8,3:3|2:2,2:2:0:0:
264,195,72592,1,2,0:0:0:0:
264,195,72709,1,2,2:2:0:0:
321,66,72943,2,0,P|273:37|242:34,1,75,8|4,2:2|3:3,2:2:0:0:
112,64,73412,5,8,2:2:0:0:
58,145,73646,1,2,2:2:0:0:
58,145,73763,1,2,0:0:0:0:
58,145,73881,1,8,2:2:0:0:
192,112,74115,2,0,L|368:80,1,150,4|2,3:3|2:2,2:2:0:0:
401,160,74818,1,8,2:2:0:0:
345,240,75053,6,0,P|318:213|306:178,1,75,4|8,2:2|2:2,2:2:0:0:
401,160,75521,1,8,2:2:0:0:
438,250,75756,1,8,2:2:0:0:
380,328,75990,1,8,2:2:0:0:
283,316,76224,1,8,2:2:0:0:
250,223,76459,1,8,2:2:0:0:
306,143,76693,1,8,2:2:0:0:
401,160,76928,5,4,2:2:0:0:
345,240,77162,1,8,2:2:0:0:
250,223,77396,1,8,2:2:0:0:
250,223,77513,1,0,1:2:0:0:
250,223,77631,1,8,1:2:0:0:
178,289,77865,2,0,L|190:334,2,37.5,8|0|8,1:2|1:2|1:2,2:2:0:0:
90,241,78334,2,0,L|76:200,3,37.5,8|0|0|0,1:2|1:0|1:0|1:0,2:0:0:0:
66,161,78803,6,0,L|155:137,1,75,4|0,0:0|0:0,0:0:0:0:
178,61,79271,2,0,L|259:74,1,75,4|0,0:0|0:0,0:0:0:0:
295,152,79740,5,0,1:3:0:0:
295,152,79854,1,8,2:3:0:0:
295,152,79968,1,8,2:3:0:0:
222,205,80195,1,0,1:2:0:0:
222,205,80309,1,2,2:2:0:0:
222,205,80422,1,2,0:0:0:0:
271,303,80687,5,4,2:2:0:0:
360,313,80921,1,8,0:0:0:0:
436,264,81155,1,2,2:0:0:0:
384,192,81390,1,8,2:0:0:0:
384,192,81507,1,8,2:0:0:0:
384,192,81624,2,0,L|304:208,1,75,2|8,2:0|2:2,2:0:0:0:
242,147,82093,1,2,2:0:0:0:
242,147,82210,1,8,2:0:0:0:
242,147,82327,2,0,L|162:163,1,75,8|2,2:0|2:0,2:0:0:0:
92,113,82796,5,8,2:2:0:0:
41,187,83030,2,0,L|57:267,1,75,2|8,2:2|2:2,2:2:0:0:
55,260,83382,1,8,2:0:0:0:
55,260,83499,1,2,2:0:0:0:
128,320,83733,2,0,L|224:336,1,75,0|2,1:2|2:0,2:0:0:0:
237,303,84085,1,8,2:0:0:0:
237,303,84202,2,0,L|317:319,1,75,8|2,2:2|2:2,2:2:0:0:
395,287,84671,5,0,1:2:0:0:
418,200,84905,2,0,L|338:216,1,75,2|8,2:0|2:0,2:0:0:0:
344,214,85257,1,8,2:0:0:0:
344,214,85374,1,2,2:0:0:0:
276,154,85608,1,8,2:2:0:0:
199,201,85843,1,2,2:0:0:0:
199,201,85960,1,8,2:0:0:0:
199,201,86077,1,8,2:2:0:0:
178,71,86333,6,0,L|140:75,1,37.5,8|8,0:3|0:3,0:0:0:0:
50,142,86673,2,0,L|89:146,1,37.5,8|8,0:3|0:3,0:0:0:0:
196,189,87014,2,0,L|139:199,1,37.5,8|8,0:3|0:3,0:0:0:0:
59,255,87355,2,0,L|104:262,1,37.5,0|0,3:0|3:0,0:0:0:0:
178,334,87696,5,4,0:0:0:0:
256,192,87810,12,0,89401,2:2:0:0:
