osu file format v14

[General]
AudioFilename: audio.mp3
AudioLeadIn: 0
PreviewTime: 53505
Countdown: 0
SampleSet: Soft
StackLeniency: 0.7
Mode: 0
LetterboxInBreaks: 0
WidescreenStoryboard: 0

[Editor]
Bookmarks: 6633,32294
DistanceSpacing: 1
BeatDivisor: 4
GridSize: 8
TimelineZoom: 1

[Metadata]
Title:newsong (TV Size)
TitleUnicode:newsong (TV Size)
Artist:tacica
ArtistUnicode:tacica
Creator:Lian2002
Version:Easy
Source:NARUTO-ナルト-疾風伝
Tags:Anime japanese rock jrock NARUTO Shippuden Opening 10 Alternator
BeatmapID:2239572
BeatmapSetID:924107

[Difficulty]
HPDrainRate:3
CircleSize:3
OverallDifficulty:2
ApproachRate:3
SliderMultiplier:0.999999999999999
SliderTickRate:1

[Events]
//Background and Video events
0,0,"598782.jpg",0,0
//Break Periods
//Storyboard Layer 0 (Background)
//Storyboard Layer 1 (Fail)
//Storyboard Layer 2 (Pass)
//Storyboard Layer 3 (Foreground)
//Storyboard Sound Samples

[TimingPoints]
537,468.75,4,2,1,55,1,0
7568,468.75,4,2,1,45,1,0
22568,-100,4,2,1,50,0,0
35693,-100,4,2,1,55,0,0
37568,-100,4,2,1,50,0,0
50693,-100,4,2,1,60,0,0
53505,-100,4,2,1,65,0,0
53739,-100,4,2,1,45,0,0
54443,234.375,4,2,1,70,1,1
54443,-200,4,2,1,70,0,1
61708,-200,4,2,1,70,0,0
61943,-200,4,2,1,70,0,1
66616,227.272727272727,4,2,1,70,1,1
67411,-200,4,2,1,70,0,0
67583,234.375,4,2,1,70,1,1
67583,-200,4,2,1,70,0,1
69428,234.375,4,2,1,70,1,1
69428,-200,4,2,1,70,0,1
74818,-200,4,2,1,70,0,0
75053,-200,4,2,1,75,0,1
79741,227.272727272727,4,2,1,70,1,1
80687,468.75,4,2,1,55,1,0
86333,454.545454545455,4,2,1,55,1,0
87696,-100,4,2,1,45,0,0
88151,-100,4,2,1,35,0,0
88605,-100,4,2,1,25,0,0
89060,-100,4,2,1,15,0,0
89401,-100,4,2,1,5,0,0

[Colours]
Combo1 : 255,255,128
Combo2 : 128,255,255
Combo3 : 255,128,192
Combo4 : 128,128,255

[HitObjects]
52,44,537,5,6,0:0:0:0:
129,106,1005,2,0,L|241:90,2,99.9999999999999,2|2|2,0:0|0:0|0:0,0:0:0:0:
66,184,2412,6,0,L|72:234,1,50,4|8,0:3|0:0,0:0:0:0:
118,252,2880,2,0,L|102:364,1,99.9999999999999,2|2,0:0|0:0,0:0:0:0:
201,329,3818,1,2,0:0:0:0:
297,303,4287,6,0,L|361:312,1,50,4|8,0:3|0:0,0:0:0:0:
382,274,4755,2,0,L|494:258,2,99.9999999999999,2|2|2,0:0|0:0|0:0,0:0:0:0:
316,197,6162,2,0,L|221:208,1,74.9999999999999,8|8,0:0|0:3,0:0:0:0:
194,137,6865,2,0,P|189:94|207:54,1,74.9999999999999,8|8,0:2|0:3,0:3:0:0:
268,19,7568,6,0,L|380:35,1,99.9999999999999,6|2,0:0|0:0,0:0:0:0:
459,70,8505,1,2,0:0:0:0:
430,165,8974,2,0,L|318:181,1,99.9999999999999,2|4,0:0|0:3,0:0:0:0:
232,195,9911,1,2,0:0:0:0:
218,294,10380,2,0,L|106:310,1,99.9999999999999,2|2,0:0|0:0,0:0:0:0:
34,361,11318,6,0,P|18:315|28:266,1,99.9999999999999,4|2,0:3|0:0,0:0:0:0:
109,207,12255,2,0,L|207:192,1,99.9999999999999,2|2,0:0|0:0,0:0:0:0:
267,111,13193,1,4,0:3:0:0:
355,158,13661,1,2,0:0:0:0:
417,80,14130,2,0,P|451:148|388:251,1,200,2|4,0:0|0:3,0:0:0:0:
296,228,15536,6,0,L|311:326,1,99.9999999999999,2|2,0:0|0:0,0:0:0:0:
218,365,16474,1,2,0:0:0:0:
146,295,16943,1,4,0:3:0:0:
56,339,17411,2,0,L|41:241,1,99.9999999999999,2|2,0:0|0:0,0:0:0:0:
125,186,18349,2,0,L|140:88,1,99.9999999999999,2|4,0:0|0:3,0:0:0:0:
224,34,19286,5,2,0:0:0:0:
289,109,19755,1,2,0:0:0:0:
374,57,20224,2,0,L|472:72,1,99.9999999999999,2|4,0:0|0:3,0:0:0:0:
447,168,21161,2,0,L|349:183,1,99.9999999999999,2|2,0:0|0:0,0:0:0:0:
251,156,22099,1,2,0:0:0:0:
201,243,22568,6,0,L|216:341,1,99.9999999999999,6|2,0:0|0:0,0:0:0:0:
118,321,23505,2,0,L|18:331,1,99.9999999999999,2|2,0:0|0:0,0:0:0:0:
2,232,24443,2,0,L|101:221,1,99.9999999999999,4|2,0:3|0:0,0:0:0:0:
201,243,25380,1,2,0:0:0:0:
268,169,25849,2,0,P|222:148|153:156,1,99.9999999999999,2|2,0:0|0:0,0:0:0:0:
75,130,26786,6,0,P|53:79|69:22,2,99.9999999999999,2|2|2,0:0|0:0|0:0,0:0:0:0:
30,219,28193,1,4,0:3:0:0:
125,248,28661,1,2,0:0:0:0:
56,321,29130,2,0,P|153:307|262:333,1,200,2|4,0:0|0:3,0:0:0:0:
333,270,30536,6,0,B|350:383,2,99.9999999999999,2|2|2,0:0|0:0|0:0,0:0:0:0:
272,187,31943,2,0,P|317:168|366:175,1,99.9999999999999,4|2,0:3|0:0,0:0:0:0:
460,140,32880,1,2,0:0:0:0:
494,46,33349,2,0,P|445:38|399:57,1,99.9999999999999,2|4,0:0|0:3,0:0:0:0:
306,22,34286,5,2,0:0:0:0:
240,97,34755,2,0,L|140:86,1,99.9999999999999,2|2,0:0|0:0,0:0:0:0:
47,123,35693,1,6,0:0:0:0:
58,222,36161,1,6,0:0:0:0:
155,246,36630,2,0,L|144:345,1,99.9999999999999,6|8,0:0|0:3,0:0:0:0:
244,350,37568,6,0,P|293:341|344:366,1,99.9999999999999,6|2,0:0|0:0,0:0:0:0:
380,269,38505,2,0,P|429:278|480:253,1,99.9999999999999,2|2,0:0|0:0,0:0:0:0:
417,176,39443,1,4,0:3:0:0:
474,94,39911,1,2,0:0:0:0:
382,51,40380,2,0,B|288:80|288:16|176:48,1,200,2|6,0:0|0:2,0:0:0:0:
107,107,41786,6,0,L|125:212,1,99.9999999999999,2|2,0:0|0:0,0:0:0:0:
109,304,42724,1,2,0:0:0:0:
17,337,43193,2,0,P|10:288|29:242,1,99.9999999999999,4|2,0:3|0:0,0:0:0:0:
123,205,44130,2,0,B|225:175|225:239|319:210,1,200,2|4,0:0|0:0,0:0:0:0:
396,274,45536,5,2,0:0:0:0:
482,223,46005,2,0,L|498:111,1,99.9999999999999,2|2,0:0|0:0,0:0:0:0:
429,49,46943,2,0,L|317:33,1,99.9999999999999,6|2,0:0|0:0,0:0:0:0:
244,86,47880,2,0,P|146:60|80:121,1,200,2|6,0:0|0:0,0:0:0:0:
67,220,49286,5,2,0:0:0:0:
152,271,49755,2,0,L|249:249,1,99.9999999999999,0|2,0:0|0:0,0:0:0:0:
304,165,50693,2,0,P|339:189|403:189,1,99.9999999999999,4|8,0:0|0:3,0:0:0:0:
489,157,51630,2,0,P|495:208|477:256,1,99.9999999999999,2|8,0:0|0:0,0:0:0:0:
388,296,52568,5,4,0:0:0:0:
296,256,53036,1,8,0:0:0:0:
218,318,53505,1,4,0:0:0:0:
208,112,54443,6,0,B|320:128,1,99.9999999999999,4|8,0:0|0:0,0:0:0:0:
390,70,55380,1,2,0:0:0:0:
456,144,55849,2,0,B|448:193,1,50,2|8,0:0|0:0,0:0:0:0:
405,218,56318,2,0,B|419:317,1,99.9999999999999,4|2,0:3|2:0,0:0:0:0:
326,355,57255,1,2,0:0:0:0:
326,355,57489,2,0,B|311:255,1,99.9999999999999,8|8,0:2|0:0,0:0:0:0:
303,206,58193,5,4,0:3:0:0:
212,247,58661,1,2,0:0:0:0:
140,176,59130,2,0,B|90:183,2,50,2|8|2,0:0|0:0|0:0,0:0:0:0:
180,146,59833,2,0,P|185:97|155:47,1,99.9999999999999,8|8,0:2|0:0,0:0:0:0:
115,33,60536,1,2,0:0:0:0:
26,79,61005,2,0,P|21:128|51:178,1,99.9999999999999,2|2,0:2|0:0,0:0:0:0:
124,231,61943,5,6,0:0:0:0:
124,231,62177,2,0,L|236:247,1,99.9999999999999,8|8,0:0|0:0,0:0:0:0:
272,251,62880,1,2,0:0:0:0:
346,317,63349,1,2,0:0:0:0:
430,263,63818,2,0,B|494:271,2,50,4|8|2,3:3|0:0|2:2,0:0:0:0:
391,230,64521,2,0,P|384:175|408:134,1,99.9999999999999,8|8,0:0|0:0,0:0:0:0:
448,112,65224,5,2,0:0:0:0:
395,26,65693,2,0,L|283:42,1,99.9999999999999,4|4,0:3|0:0,0:0:0:0:
248,128,66616,1,4,0:0:0:0:
55,53,67583,5,4,0:0:0:0:
136,110,68051,2,0,B|128:174,1,50,2|8,0:0|0:0,0:0:0:0:
84,180,68520,2,0,B|96:282,1,99.9999999999999,2|2,0:0|0:0,0:0:0:0:
178,325,69428,1,4,3:3:0:0:
230,239,69896,2,0,B|223:189,2,50,2|8|2,0:0|0:0|0:0,0:0:0:0:
271,283,70599,2,0,L|379:295,1,99.9999999999999,8|8,0:0|0:0,0:0:0:0:
420,298,71303,5,2,0:0:0:0:
481,219,71771,1,2,0:0:0:0:
420,139,72240,2,0,L|426:89,2,50,2|8|2,0:0|0:0|0:0,0:0:0:0:
376,163,72943,2,0,L|276:151,1,99.9999999999999,8|8,0:0|0:0,0:0:0:0:
226,148,73646,1,2,0:0:0:0:
171,63,74115,2,0,L|60:80,1,99.9999999999999,2|2,0:0|0:0,0:0:0:0:
25,166,75053,5,4,0:0:0:0:
82,247,75521,1,8,0:0:0:0:
170,200,75990,2,0,L|272:216,1,99.9999999999999,8|8,0:0|0:0,0:0:0:0:
367,232,76928,2,0,P|372:282|350:328,1,99.9999999999999,4|8,0:0|0:3,0:0:0:0:
305,345,77631,2,0,L|185:357,1,99.9999999999999,8|8,0:0|0:0,0:0:0:0:
156,363,78334,1,8,0:0:0:0:
80,297,78803,6,0,L|71:176,1,99.9999999999999,4|4,0:0|0:0,0:0:0:0:
46,97,79741,1,8,0:0:0:0:
130,43,80195,1,8,0:0:0:0:
199,127,80687,6,0,L|263:119,1,50,6|8,0:0|0:0,0:0:0:0:
273,77,81155,2,0,L|386:93,1,99.9999999999999,2|2,0:0|0:0,0:0:0:0:
448,155,82093,1,4,0:3:0:0:
377,226,82562,2,0,L|385:282,1,50,2|8,0:0|0:0,0:0:0:0:
391,324,83030,2,0,L|272:336,1,99.9999999999999,2|2,0:0|0:0,0:0:0:0:
213,270,83968,5,2,0:0:0:0:
140,339,84437,2,0,L|72:342,1,50,2|8,0:0|0:0,0:0:0:0:
46,316,84905,2,0,P|31:266|49:211,1,99.9999999999999,2|2,0:0|0:0,0:0:0:0:
124,162,85843,1,2,0:0:0:0:
193,244,86333,2,0,L|281:229,1,74.9999999999999,8|8,0:2|0:3,0:0:0:0:
310,301,87014,2,0,L|395:308,1,74.9999999999999,8|8,0:2|0:3,0:0:0:0:
453,261,87696,6,0,B|465:171|385:140|385:140|296:82|385:-34|463:38,1,375,6|0,0:0|0:0,0:0:0:0:
